  0
SECTION
  2
HEADER
  9
$ACADVER
  1
AC1032
  9
$ACADMAINTVER
 90
       55
  9
$DWGCODEPAGE
  3
ANSI_1252
  9
$LASTSAVEDBY
  1
SYSTEM
  9
$REQUIREDVERSIONS
160
                 0
  9
$INSBASE
 10
0.0
 20
0.0
 30
0.0
  9
$EXTMIN
 10
-265.41710547692
 20
-825.1796769479772
 30
0.0
  9
$EXTMAX
 10
325.9342238763731
 20
43.9213428777137
 30
0.0
  9
$LIMMIN
 10
0.0
 20
0.0
  9
$LIMMAX
 10
12.0
 20
9.0
  9
$ORTHOMODE
 70
     0
  9
$REGENMODE
 70
     1
  9
$FILLMODE
 70
     1
  9
$QTEXTMODE
 70
     0
  9
$MIRRTEXT
 70
     1
  9
$LTSCALE
 40
1.0
  9
$ATTMODE
 70
     1
  9
$TEXTSIZE
 40
0.2
  9
$TRACEWID
 40
0.05
  9
$TEXTSTYLE
  7
Standard
  9
$CLAYER
  8
0
  9
$CELTYPE
  6
ByLayer
  9
$CECOLOR
 62
   256
  9
$CELTSCALE
 40
1.0
  9
$DISPSILH
 70
     0
  9
$DIMSCALE
 40
1.0
  9
$DIMASZ
 40
0.18
  9
$DIMEXO
 40
0.0625
  9
$DIMDLI
 40
0.38
  9
$DIMRND
 40
0.0
  9
$DIMDLE
 40
0.0
  9
$DIMEXE
 40
0.18
  9
$DIMTP
 40
0.0
  9
$DIMTM
 40
0.0
  9
$DIMTXT
 40
0.18
  9
$DIMCEN
 40
0.09
  9
$DIMTSZ
 40
0.0
  9
$DIMTOL
 70
     0
  9
$DIMLIM
 70
     0
  9
$DIMTIH
 70
     1
  9
$DIMTOH
 70
     1
  9
$DIMSE1
 70
     0
  9
$DIMSE2
 70
     0
  9
$DIMTAD
 70
     0
  9
$DIMZIN
 70
     0
  9
$DIMBLK
  1

  9
$DIMASO
 70
     1
  9
$DIMSHO
 70
     1
  9
$DIMPOST
  1

  9
$DIMAPOST
  1

  9
$DIMALT
 70
     0
  9
$DIMALTD
 70
     2
  9
$DIMALTF
 40
25.4
  9
$DIMLFAC
 40
1.0
  9
$DIMTOFL
 70
     0
  9
$DIMTVP
 40
0.0
  9
$DIMTIX
 70
     0
  9
$DIMSOXD
 70
     0
  9
$DIMSAH
 70
     0
  9
$DIMBLK1
  1

  9
$DIMBLK2
  1

  9
$DIMSTYLE
  2
Standard
  9
$DIMCLRD
 70
     0
  9
$DIMCLRE
 70
     0
  9
$DIMCLRT
 70
     0
  9
$DIMTFAC
 40
1.0
  9
$DIMGAP
 40
0.09
  9
$DIMJUST
 70
     0
  9
$DIMSD1
 70
     0
  9
$DIMSD2
 70
     0
  9
$DIMTOLJ
 70
     1
  9
$DIMTZIN
 70
     0
  9
$DIMALTZ
 70
     0
  9
$DIMALTTZ
 70
     0
  9
$DIMUPT
 70
     0
  9
$DIMDEC
 70
     4
  9
$DIMTDEC
 70
     4
  9
$DIMALTU
 70
     2
  9
$DIMALTTD
 70
     2
  9
$DIMTXSTY
  7
Standard
  9
$DIMAUNIT
 70
     0
  9
$DIMADEC
 70
     0
  9
$DIMALTRND
 40
0.0
  9
$DIMAZIN
 70
     0
  9
$DIMDSEP
 70
    46
  9
$DIMATFIT
 70
     3
  9
$DIMFRAC
 70
     0
  9
$DIMLDRBLK
  1

  9
$DIMLUNIT
 70
     2
  9
$DIMLWD
 70
    -2
  9
$DIMLWE
 70
    -2
  9
$DIMTMOVE
 70
     0
  9
$DIMFXL
 40
1.0
  9
$DIMFXLON
 70
     0
  9
$DIMJOGANG
 40
0.78539816339745
  9
$DIMTFILL
 70
     0
  9
$DIMTFILLCLR
 70
     0
  9
$DIMARCSYM
 70
     0
  9
$DIMLTYPE
  6

  9
$DIMLTEX1
  6

  9
$DIMLTEX2
  6

  9
$DIMTXTDIRECTION
 70
     0
  9
$LUNITS
 70
     2
  9
$LUPREC
 70
     4
  9
$SKETCHINC
 40
0.1
  9
$FILLETRAD
 40
0.0
  9
$AUNITS
 70
     0
  9
$AUPREC
 70
     0
  9
$MENU
  1
.
  9
$ELEVATION
 40
0.0
  9
$PELEVATION
 40
0.0
  9
$THICKNESS
 40
0.0
  9
$LIMCHECK
 70
     0
  9
$CHAMFERA
 40
0.0
  9
$CHAMFERB
 40
0.0
  9
$CHAMFERC
 40
0.0
  9
$CHAMFERD
 40
0.0
  9
$SKPOLY
 70
     0
  9
$TDCREATE
 40
2460480.336182627
  9
$TDUCREATE
 40
2460480.252849294
  9
$TDUPDATE
 40
2460480.336182754
  9
$TDUUPDATE
 40
2460480.252849421
  9
$TDINDWG
 40
0.0000000116
  9
$TDUSRTIMER
 40
0.0000000116
  9
$USRTIMER
 70
     1
  9
$ANGBASE
 50
0.0
  9
$ANGDIR
 70
     0
  9
$PDMODE
 70
     0
  9
$PDSIZE
 40
0.0
  9
$PLINEWID
 40
0.0
  9
$SPLFRAME
 70
     0
  9
$SPLINETYPE
 70
     6
  9
$SPLINESEGS
 70
     8
  9
$HANDSEED
  5
3C6
  9
$SURFTAB1
 70
     6
  9
$SURFTAB2
 70
     6
  9
$SURFTYPE
 70
     6
  9
$SURFU
 70
     6
  9
$SURFV
 70
     6
  9
$UCSBASE
  2

  9
$UCSNAME
  2

  9
$UCSORG
 10
0.0
 20
0.0
 30
0.0
  9
$UCSXDIR
 10
1.0
 20
0.0
 30
0.0
  9
$UCSYDIR
 10
0.0
 20
1.0
 30
0.0
  9
$UCSORTHOREF
  2

  9
$UCSORTHOVIEW
 70
     0
  9
$UCSORGTOP
 10
0.0
 20
0.0
 30
0.0
  9
$UCSORGBOTTOM
 10
0.0
 20
0.0
 30
0.0
  9
$UCSORGLEFT
 10
0.0
 20
0.0
 30
0.0
  9
$UCSORGRIGHT
 10
0.0
 20
0.0
 30
0.0
  9
$UCSORGFRONT
 10
0.0
 20
0.0
 30
0.0
  9
$UCSORGBACK
 10
0.0
 20
0.0
 30
0.0
  9
$PUCSBASE
  2

  9
$PUCSNAME
  2

  9
$PUCSORG
 10
0.0
 20
0.0
 30
0.0
  9
$PUCSXDIR
 10
1.0
 20
0.0
 30
0.0
  9
$PUCSYDIR
 10
0.0
 20
1.0
 30
0.0
  9
$PUCSORTHOREF
  2

  9
$PUCSORTHOVIEW
 70
     0
  9
$PUCSORGTOP
 10
0.0
 20
0.0
 30
0.0
  9
$PUCSORGBOTTOM
 10
0.0
 20
0.0
 30
0.0
  9
$PUCSORGLEFT
 10
0.0
 20
0.0
 30
0.0
  9
$PUCSORGRIGHT
 10
0.0
 20
0.0
 30
0.0
  9
$PUCSORGFRONT
 10
0.0
 20
0.0
 30
0.0
  9
$PUCSORGBACK
 10
0.0
 20
0.0
 30
0.0
  9
$USERI1
 70
     0
  9
$USERI2
 70
     0
  9
$USERI3
 70
     0
  9
$USERI4
 70
     0
  9
$USERI5
 70
     0
  9
$USERR1
 40
20.7
  9
$USERR2
 40
0.0
  9
$USERR3
 40
0.0
  9
$USERR4
 40
0.0
  9
$USERR5
 40
0.0
  9
$WORLDVIEW
 70
     1
  9
$SHADEDGE
 70
     3
  9
$SHADEDIF
 70
    70
  9
$TILEMODE
 70
     1
  9
$MAXACTVP
 70
    64
  9
$PINSBASE
 10
0.0
 20
0.0
 30
0.0
  9
$PLIMCHECK
 70
     0
  9
$PEXTMIN
 10
1.00000000000000E+20
 20
1.00000000000000E+20
 30
1.00000000000000E+20
  9
$PEXTMAX
 10
-1.00000000000000E+20
 20
-1.00000000000000E+20
 30
-1.00000000000000E+20
  9
$PLIMMIN
 10
0.0
 20
0.0
  9
$PLIMMAX
 10
12.0
 20
9.0
  9
$UNITMODE
 70
     0
  9
$VISRETAIN
 70
     1
  9
$PLINEGEN
 70
     0
  9
$PSLTSCALE
 70
     1
  9
$TREEDEPTH
 70
  3020
  9
$CMLSTYLE
  2
Standard
  9
$CMLJUST
 70
     0
  9
$CMLSCALE
 40
1.0
  9
$PROXYGRAPHICS
 70
     1
  9
$MEASUREMENT
 70
     1
  9
$CELWEIGHT
370
    -1
  9
$ENDCAPS
280
     0
  9
$JOINSTYLE
280
     0
  9
$LWDISPLAY
290
     0
  9
$INSUNITS
 70
     4
  9
$HYPERLINKBASE
  1

  9
$STYLESHEET
  1

  9
$XEDIT
290
     1
  9
$CEPSNTYPE
380
     0
  9
$PSTYLEMODE
290
     1
  9
$FINGERPRINTGUID
  2
{7bc3117b-2ebf-44ea-b24d-e14fcef4bf8e}
  9
$VERSIONGUID
  2
{FAEB1C32-E019-11D5-929B-00C0DF256EC4}
  9
$EXTNAMES
290
     1
  9
$PSVPSCALE
 40
0.0
  9
$OLESTARTUP
290
     0
  9
$SORTENTS
280
   127
  9
$INDEXCTL
280
     0
  9
$HIDETEXT
280
     1
  9
$XCLIPFRAME
280
     2
  9
$HALOGAP
280
     0
  9
$OBSCOLOR
 70
   257
  9
$OBSLTYPE
280
     0
  9
$INTERSECTIONDISPLAY
280
     0
  9
$INTERSECTIONCOLOR
 70
   257
  9
$DIMASSOC
280
     2
  9
$PROJECTNAME
  1

  9
$CAMERADISPLAY
290
     0
  9
$LENSLENGTH
 40
50.0
  9
$CAMERAHEIGHT
 40
0.0
  9
$STEPSPERSEC
 40
2.0
  9
$STEPSIZE
 40
6.0
  9
$3DDWFPREC
 40
2.0
  9
$PSOLWIDTH
 40
0.25
  9
$PSOLHEIGHT
 40
4.0
  9
$LOFTANG1
 40
1.5707963267949
  9
$LOFTANG2
 40
1.5707963267949
  9
$LOFTMAG1
 40
0.0
  9
$LOFTMAG2
 40
0.0
  9
$LOFTPARAM
 70
     7
  9
$LOFTNORMALS
280
     1
  9
$LATITUDE
 40
37.795
  9
$LONGITUDE
 40
-122.394
  9
$NORTHDIRECTION
 40
0.0
  9
$TIMEZONE
 70
 -8000
  9
$LIGHTGLYPHDISPLAY
280
     1
  9
$TILEMODELIGHTSYNCH
280
     1
  9
$CMATERIAL
347
44
  9
$SOLIDHIST
280
     0
  9
$SHOWHIST
280
     1
  9
$DWFFRAME
280
     2
  9
$DGNFRAME
280
     2
  9
$REALWORLDSCALE
290
     1
  9
$INTERFERECOLOR
 62
   256
  9
$CSHADOW
280
     0
  9
$SHADOWPLANELOCATION
 40
0.0
  0
ENDSEC
  0
SECTION
  2
CLASSES
  0
CLASS
  1
ACDBDICTIONARYWDFLT
  2
AcDbDictionaryWithDefault
  3
ObjectDBX Classes
 90
        0
 91
        3
280
     0
281
     0
  0
CLASS
  1
VISUALSTYLE
  2
AcDbVisualStyle
  3
ObjectDBX Classes
 90
     4095
 91
        3
280
     0
281
     0
  0
CLASS
  1
MATERIAL
  2
AcDbMaterial
  3
ObjectDBX Classes
 90
     1153
 91
        3
280
     0
281
     0
  0
CLASS
  1
SCALE
  2
AcDbScale
  3
ObjectDBX Classes
 90
     1153
 91
        3
280
     0
281
     0
  0
CLASS
  1
TABLESTYLE
  2
AcDbTableStyle
  3
ObjectDBX Classes
 90
     4095
 91
        3
280
     0
281
     0
  0
CLASS
  1
MLEADERSTYLE
  2
AcDbMLeaderStyle
  3
ACDB_MLEADERSTYLE_CLASS
 90
     4095
 91
        3
280
     0
281
     0
  0
CLASS
  1
SUN
  2
AcDbSun
  3
SCENEOE
 90
     1153
 91
        3
280
     0
281
     0
  0
CLASS
  1
DICTIONARYVAR
  2
AcDbDictionaryVar
  3
ObjectDBX Classes
 90
        0
 91
        3
280
     0
281
     0
  0
CLASS
  1
CELLSTYLEMAP
  2
AcDbCellStyleMap
  3
ObjectDBX Classes
 90
     1152
 91
        3
280
     0
281
     0
  0
ENDSEC
  0
SECTION
  2
TABLES
  0
TABLE
  2
VPORT
  5
8
330
0
100
AcDbSymbolTable
 70
     1
  0
VPORT
  5
29
330
8
100
AcDbSymbolTableRecord
100
AcDbViewportTableRecord
  2
*Active
 70
     0
 10
0.0
 20
0.0
 11
1.0
 21
1.0
 12
30.25855919972653
 22
-390.6291670351318
 13
0.0
 23
0.0
 14
0.5
 24
0.5
 15
0.5
 25
0.5
 16
0.0
 26
0.0
 36
1.0
 17
0.0
 27
0.0
 37
0.0
 40
956.01112180826
 41
1.60267857142857
 42
50.0
 43
0.0
 44
0.0
 50
0.0
 51
0.0
 71
     0
 72
   100
 73
     1
 74
     3
 75
     0
 76
     0
 77
     0
 78
     0
281
     0
 65
     1
110
0.0
120
0.0
130
0.0
111
1.0
121
0.0
131
0.0
112
0.0
122
1.0
132
0.0
 79
     0
146
0.0
348
2F
 60
     3
 61
     5
292
     1
282
     1
141
0.0
142
0.0
 63
   250
361
5D
  0
ENDTAB
  0
TABLE
  2
LTYPE
  5
5
330
0
100
AcDbSymbolTable
 70
     8
  0
LTYPE
  5
14
330
5
100
AcDbSymbolTableRecord
100
AcDbLinetypeTableRecord
  2
ByBlock
 70
     0
  3

 72
    65
 73
     0
 40
0.0
  0
LTYPE
  5
15
330
5
100
AcDbSymbolTableRecord
100
AcDbLinetypeTableRecord
  2
ByLayer
 70
     0
  3

 72
    65
 73
     0
 40
0.0
  0
LTYPE
  5
16
330
5
100
AcDbSymbolTableRecord
100
AcDbLinetypeTableRecord
  2
Continuous
 70
     0
  3
Solid line
 72
    65
 73
     0
 40
0.0
  0
LTYPE
  5
5E
330
5
100
AcDbSymbolTableRecord
100
AcDbLinetypeTableRecord
  2
DASHED
 70
     0
  3
Dashed
 72
    65
 73
     2
 40
15.0
 49
7.0
 74
     0
 49
-8.0
 74
     0
  0
LTYPE
  5
5F
330
5
100
AcDbSymbolTableRecord
100
AcDbLinetypeTableRecord
  2
DOTTED
 70
     0
  3
Dotted
 72
    65
 73
     2
 40
1.0
 49
0.0
 74
     0
 49
-1.0
 74
     0
  0
LTYPE
  5
60
330
5
100
AcDbSymbolTableRecord
100
AcDbLinetypeTableRecord
  2
DOT_CENTER
 70
     0
  3
Dot_Center
 72
    65
 73
     4
 40
14.0
 49
12.0
 74
     0
 49
-1.0
 74
     0
 49
0.0
 74
     0
 49
-1.0
 74
     0
  0
LTYPE
  5
61
330
5
100
AcDbSymbolTableRecord
100
AcDbLinetypeTableRecord
  2
LONG_DASHED
 70
     0
  3
Long_Dashed
 72
    65
 73
     2
 40
15.0
 49
10.0
 74
     0
 49
-5.0
 74
     0
  0
LTYPE
  5
62
330
5
100
AcDbSymbolTableRecord
100
AcDbLinetypeTableRecord
  2
DASH_CENTER
 70
     0
  3
Dash_Center
 72
    65
 73
     4
 40
14.0
 49
11.0
 74
     0
 49
-1.0
 74
     0
 49
1.0
 74
     0
 49
-1.0
 74
     0
  0
LTYPE
  5
63
330
5
100
AcDbSymbolTableRecord
100
AcDbLinetypeTableRecord
  2
PHANTOM
 70
     0
  3
Phantom
 72
    65
 73
     6
 40
13.0
 49
10.0
 74
     0
 49
-1.0
 74
     0
 49
0.0
 74
     0
 49
-1.0
 74
     0
 49
0.0
 74
     0
 49
-1.0
 74
     0
  0
LTYPE
  5
64
330
5
100
AcDbSymbolTableRecord
100
AcDbLinetypeTableRecord
  2
CENTER_DASH_DASH
 70
     0
  3
Center_Dash_Dash
 72
    65
 73
     6
 40
14.0
 49
9.0
 74
     0
 49
-1.0
 74
     0
 49
1.0
 74
     0
 49
-1.0
 74
     0
 49
1.0
 74
     0
 49
-1.0
 74
     0
  0
ENDTAB
  0
TABLE
  2
LAYER
  5
2
330
0
100
AcDbSymbolTable
 70
     8
  0
LAYER
  5
10
330
2
100
AcDbSymbolTableRecord
100
AcDbLayerTableRecord
  2
0
 70
     0
 62
     7
  6
Continuous
370
    -3
390
F
347
46
348
0
  0
LAYER
  5
65
330
2
100
AcDbSymbolTableRecord
100
AcDbLayerTableRecord
  2
1
 70
     0
 62
     7
  6
Continuous
370
    -3
390
F
347
46
348
0
  0
LAYER
  5
66
330
2
100
AcDbSymbolTableRecord
100
AcDbLayerTableRecord
  2
LC-001-002-----0
 70
     0
 62
     7
  6
Continuous
370
    -3
390
F
347
46
348
0
  0
LAYER
  5
67
330
2
100
AcDbSymbolTableRecord
100
AcDbLayerTableRecord
  2
LC-002-002-----0
 70
     0
 62
     7
  6
Continuous
370
    -3
390
F
347
46
348
0
  0
LAYER
  5
68
330
2
100
AcDbSymbolTableRecord
100
AcDbLayerTableRecord
  2
LC-003-002-----0
 70
     0
 62
     7
  6
Continuous
370
    -3
390
F
347
46
348
0
  0
LAYER
  5
69
330
2
100
AcDbSymbolTableRecord
100
AcDbLayerTableRecord
  2
LC-003-002-RND-0
 70
     0
 62
     7
  6
Continuous
370
    -3
390
F
347
46
348
0
  0
LAYER
  5
6A
330
2
100
AcDbSymbolTableRecord
100
AcDbLayerTableRecord
  2
LC-004-002-RND-0
 70
     0
 62
     7
  6
Continuous
370
    -3
390
F
347
46
348
0
  0
LAYER
  5
6B
330
2
100
AcDbSymbolTableRecord
100
AcDbLayerTableRecord
  2
LC-009-002-RND-0
 70
     0
 62
     7
  6
Continuous
370
    -3
390
F
347
46
348
0
  0
ENDTAB
  0
TABLE
  2
STYLE
  5
3
330
0
100
AcDbSymbolTable
 70
     2
  0
STYLE
  5
11
330
3
100
AcDbSymbolTableRecord
100
AcDbTextStyleTableRecord
  2
Standard
 70
     0
 40
0.0
 41
1.0
 50
0.0
 71
     0
 42
0.2
  3
txt
  4

  0
STYLE
  5
1CD
330
3
100
AcDbSymbolTableRecord
100
AcDbTextStyleTableRecord
  2
CONVERTER_11
 70
     0
 40
0.0
 41
0.9
 50
0.0
 71
     0
 42
0.2
  3
txt.shx
  4

  0
ENDTAB
  0
TABLE
  2
VIEW
  5
6
330
0
100
AcDbSymbolTable
 70
     0
  0
ENDTAB
  0
TABLE
  2
UCS
  5
7
330
0
100
AcDbSymbolTable
 70
     0
  0
ENDTAB
  0
TABLE
  2
APPID
  5
9
330
0
100
AcDbSymbolTable
 70
     1
  0
APPID
  5
12
330
9
100
AcDbSymbolTableRecord
100
AcDbRegAppTableRecord
  2
ACAD
 70
     0
  0
ENDTAB
  0
TABLE
  2
DIMSTYLE
  5
A
330
0
100
AcDbSymbolTable
 70
     7
100
AcDbDimStyleTable
  0
DIMSTYLE
105
27
330
A
100
AcDbSymbolTableRecord
100
AcDbDimStyleTableRecord
  2
Standard
 70
     0
178
     0
340
11
  0
DIMSTYLE
105
1D1
102
{ACAD_REACTORS
330
1D2
102
}
330
A
100
AcDbSymbolTableRecord
100
AcDbDimStyleTableRecord
  2
ME10_DIM_10
 70
     0
 41
10.0
 42
0.0
 44
2.0
 73
     0
 74
     0
 77
     1
 78
     8
140
10.0
147
2.0
172
     1
173
     1
174
     1
175
     1
176
     4
177
     4
271
     0
178
     1
271
     0
340
1CD
  0
DIMSTYLE
105
1DC
102
{ACAD_REACTORS
330
1DD
102
}
330
A
100
AcDbSymbolTableRecord
100
AcDbDimStyleTableRecord
  2
ME10_DIM_11
 70
     0
  3
17-<>
 41
10.0
 42
0.0
 44
2.0
 73
     0
 74
     0
 77
     1
 78
     8
140
10.0
147
2.0
172
     1
173
     1
174
     1
175
     1
176
     4
177
     4
271
     2
178
     1
271
     2
340
1CD
  0
DIMSTYLE
105
1E7
102
{ACAD_REACTORS
330
1E8
102
}
330
A
100
AcDbSymbolTableRecord
100
AcDbDimStyleTableRecord
  2
ME10_DIM_12
 70
     0
  3
150x<>
 41
10.0
 42
0.0
 44
2.0
 73
     0
 74
     0
 77
     1
 78
     8
140
10.0
147
2.0
172
     1
173
     1
174
     1
175
     1
176
     4
177
     4
271
     2
178
     1
271
     2
340
1CD
  0
DIMSTYLE
105
1F2
102
{ACAD_REACTORS
330
1F3
102
}
330
A
100
AcDbSymbolTableRecord
100
AcDbDimStyleTableRecord
  2
ME10_DIM_13
 70
     0
  3
<>x500
 41
10.0
 42
0.0
 44
2.0
 73
     0
 74
     0
 77
     1
 78
     8
140
10.0
147
2.0
172
     1
173
     1
174
     1
175
     1
176
     4
177
     4
271
     2
178
     1
271
     2
340
1CD
  0
DIMSTYLE
105
1FD
102
{ACAD_REACTORS
330
1FE
102
}
330
A
100
AcDbSymbolTableRecord
100
AcDbDimStyleTableRecord
  2
ME10_DIM_14
 70
     0
  3
DN<>
 41
10.0
 42
0.0
 44
2.0
 73
     0
 74
     0
 77
     1
 78
     8
140
10.0
147
2.0
172
     1
173
     1
174
     1
175
     1
176
     4
177
     4
271
     2
178
     1
271
     2
340
1CD
  0
DIMSTYLE
105
208
102
{ACAD_REACTORS
330
209
102
}
330
A
100
AcDbSymbolTableRecord
100
AcDbDimStyleTableRecord
  2
ME10_DIM_15
 70
     0
  3
DN<>
 41
10.0
 42
0.0
 44
2.0
 73
     0
 74
     0
 77
     1
 78
     8
140
10.0
147
2.0
172
     1
173
     1
174
     1
175
     1
176
     4
177
     4
271
     2
178
     1
271
     2
340
1CD
  0
ENDTAB
  0
TABLE
  2
BLOCK_RECORD
  5
1
330
0
100
AcDbSymbolTable
 70
    32
  0
BLOCK_RECORD
  5
1F
330
1
100
AcDbSymbolTableRecord
100
AcDbBlockTableRecord
  2
*Model_Space
340
22
 70
     0
280
     1
281
     0
  0
BLOCK_RECORD
  5
1B
330
1
100
AcDbSymbolTableRecord
100
AcDbBlockTableRecord
  2
*Paper_Space
340
1E
 70
     0
280
     1
281
     0
  0
BLOCK_RECORD
  5
23
330
1
100
AcDbSymbolTableRecord
100
AcDbBlockTableRecord
  2
*Paper_Space0
340
26
 70
     0
280
     1
281
     0
  0
BLOCK_RECORD
  5
6C
330
1
100
AcDbSymbolTableRecord
100
AcDbBlockTableRecord
  2
0317_4E_Reduktion
340
0
102
{BLKREFS
331
70
102
}
 70
     0
280
     1
281
     0
  0
BLOCK_RECORD
  5
6F
330
1
100
AcDbSymbolTableRecord
100
AcDbBlockTableRecord
  2
HL_64_1_Flachdachablauf__1
340
0
102
{BLKREFS
331
74
102
}
 70
     0
280
     1
281
     0
  0
BLOCK_RECORD
  5
73
330
1
100
AcDbSymbolTableRecord
100
AcDbBlockTableRecord
  2
HL_64_1_Flachdachablauf__2
340
0
102
{BLKREFS
331
78
102
}
 70
     0
280
     1
281
     0
  0
BLOCK_RECORD
  5
77
330
1
100
AcDbSymbolTableRecord
100
AcDbBlockTableRecord
  2
HL_64_Flachdachablauf__3
340
0
102
{BLKREFS
331
8B
102
}
 70
     0
280
     1
281
     0
  0
BLOCK_RECORD
  5
7B
330
1
100
AcDbSymbolTableRecord
100
AcDbBlockTableRecord
  2
HL_72_Kellerablauf_DN110
340
0
102
{BLKREFS
331
86
102
}
 70
     0
280
     1
281
     0
  0
BLOCK_RECORD
  5
7E
330
1
100
AcDbSymbolTableRecord
100
AcDbBlockTableRecord
  2
HL_64_1B_Flachdachablauf
340
0
102
{BLKREFS
331
82
102
}
 70
     0
280
     1
281
     0
  0
BLOCK_RECORD
  5
81
330
1
100
AcDbSymbolTableRecord
100
AcDbBlockTableRecord
  2
HL_64_Flachdachablauf__4
340
0
102
{BLKREFS
331
87
102
}
 70
     0
280
     1
281
     0
  0
BLOCK_RECORD
  5
85
330
1
100
AcDbSymbolTableRecord
100
AcDbBlockTableRecord
  2
HL_64_1B_Flachdachablauf_DN75_110__5
340
0
102
{BLKREFS
331
8C
102
}
 70
     0
280
     1
281
     0
  0
BLOCK_RECORD
  5
8A
330
1
100
AcDbSymbolTableRecord
100
AcDbBlockTableRecord
  2
HL_64B_Flachdachablauf
340
0
102
{BLKREFS
331
9F
102
}
 70
     0
280
     1
281
     0
  0
BLOCK_RECORD
  5
8F
330
1
100
AcDbSymbolTableRecord
100
AcDbBlockTableRecord
  2
Bitumenmanschette
340
0
102
{BLKREFS
331
93
102
}
 70
     0
280
     1
281
     0
  0
BLOCK_RECORD
  5
92
330
1
100
AcDbSymbolTableRecord
100
AcDbBlockTableRecord
  2
HL62_1H_koerper
340
0
102
{BLKREFS
331
97
102
}
 70
     0
280
     1
281
     0
  0
BLOCK_RECORD
  5
96
330
1
100
AcDbSymbolTableRecord
100
AcDbBlockTableRecord
  2
HL62B
340
0
102
{BLKREFS
331
9B
102
}
 70
     0
280
     1
281
     0
  0
BLOCK_RECORD
  5
9A
330
1
100
AcDbSymbolTableRecord
100
AcDbBlockTableRecord
  2
HL_62BH_1_DN110_Dachablauf
340
0
102
{BLKREFS
331
A0
102
}
 70
     0
280
     1
281
     0
  0
BLOCK_RECORD
  5
9E
330
1
100
AcDbSymbolTableRecord
100
AcDbBlockTableRecord
  2
HL_64_1B_Flachdachablauf_DN75_110__6
340
0
102
{BLKREFS
331
C6
102
}
 70
     0
280
     1
281
     0
  0
BLOCK_RECORD
  5
A3
330
1
100
AcDbSymbolTableRecord
100
AcDbBlockTableRecord
  2
Reduzierung
340
0
102
{BLKREFS
331
C7
102
}
 70
     0
280
     1
281
     0
  0
BLOCK_RECORD
  5
A6
330
1
100
AcDbSymbolTableRecord
100
AcDbBlockTableRecord
  2
HL0317_1E_Einlaufrost
340
0
102
{BLKREFS
331
C8
102
}
 70
     0
280
     1
281
     0
  0
BLOCK_RECORD
  5
A9
330
1
100
AcDbSymbolTableRecord
100
AcDbBlockTableRecord
  2
HL062B_2E_Aufsatzrahmen
340
0
102
{BLKREFS
331
C9
102
}
 70
     0
280
     1
281
     0
  0
BLOCK_RECORD
  5
AC
330
1
100
AcDbSymbolTableRecord
100
AcDbBlockTableRecord
  2
Metallring
340
0
102
{BLKREFS
331
CA
102
}
 70
     0
280
     1
281
     0
  0
BLOCK_RECORD
  5
AF
330
1
100
AcDbSymbolTableRecord
100
AcDbBlockTableRecord
  2
Dichtung_unten
340
0
102
{BLKREFS
331
CB
102
}
 70
     0
280
     1
281
     0
  0
BLOCK_RECORD
  5
B2
330
1
100
AcDbSymbolTableRecord
100
AcDbBlockTableRecord
  2
62_1H_Koerper
340
0
102
{BLKREFS
331
CC
102
}
 70
     0
280
     1
281
     0
  0
BLOCK_RECORD
  5
B5
330
1
100
AcDbSymbolTableRecord
100
AcDbBlockTableRecord
  2
Dichtring
340
0
102
{BLKREFS
331
CD
102
}
 70
     0
280
     1
281
     0
  0
BLOCK_RECORD
  5
B8
330
1
100
AcDbSymbolTableRecord
100
AcDbBlockTableRecord
  2
HL062B_3E_Tragring
340
0
102
{BLKREFS
331
CE
102
}
 70
     0
280
     1
281
     0
  0
BLOCK_RECORD
  5
BB
330
1
100
AcDbSymbolTableRecord
100
AcDbBlockTableRecord
  2
HL64H_Körper
340
0
102
{BLKREFS
331
BF
102
}
 70
     0
280
     1
281
     0
  0
BLOCK_RECORD
  5
BE
330
1
100
AcDbSymbolTableRecord
100
AcDbBlockTableRecord
  2
HL64BH__7
340
0
102
{BLKREFS
331
C3
102
}
 70
     0
280
     1
281
     0
  0
BLOCK_RECORD
  5
C2
330
1
100
AcDbSymbolTableRecord
100
AcDbBlockTableRecord
  2
HL_64_1BH_Flachdachablauf_DN75_110
340
0
102
{BLKREFS
331
CF
102
}
 70
     0
280
     1
281
     0
  0
BLOCK_RECORD
  5
1C7
330
1
100
AcDbSymbolTableRecord
100
AcDbBlockTableRecord
  2
*D26
340
0
 70
     0
280
     1
281
     0
  0
BLOCK_RECORD
  5
1D3
330
1
100
AcDbSymbolTableRecord
100
AcDbBlockTableRecord
  2
*D27
340
0
 70
     0
280
     1
281
     0
  0
BLOCK_RECORD
  5
1DE
330
1
100
AcDbSymbolTableRecord
100
AcDbBlockTableRecord
  2
*D28
340
0
 70
     0
280
     1
281
     0
  0
BLOCK_RECORD
  5
1E9
330
1
100
AcDbSymbolTableRecord
100
AcDbBlockTableRecord
  2
*D29
340
0
 70
     0
280
     1
281
     0
  0
BLOCK_RECORD
  5
1F4
330
1
100
AcDbSymbolTableRecord
100
AcDbBlockTableRecord
  2
*D30
340
0
 70
     0
280
     1
281
     0
  0
BLOCK_RECORD
  5
1FF
330
1
100
AcDbSymbolTableRecord
100
AcDbBlockTableRecord
  2
*D31
340
0
 70
     0
280
     1
281
     0
  0
ENDTAB
  0
ENDSEC
  0
SECTION
  2
BLOCKS
  0
BLOCK
  5
20
330
1F
100
AcDbEntity
  8
0
100
AcDbBlockBegin
  2
*Model_Space
 70
     0
 10
0.0
 20
0.0
 30
0.0
  3
*Model_Space
  1

  0
ENDBLK
  5
21
330
1F
100
AcDbEntity
  8
0
100
AcDbBlockEnd
  0
BLOCK
  5
1C
330
1B
100
AcDbEntity
 67
     1
  8
0
100
AcDbBlockBegin
  2
*Paper_Space
 70
     0
 10
0.0
 20
0.0
 30
0.0
  3
*Paper_Space
  1

  0
ENDBLK
  5
1D
330
1B
100
AcDbEntity
 67
     1
  8
0
100
AcDbBlockEnd
  0
BLOCK
  5
24
330
23
100
AcDbEntity
  8
0
100
AcDbBlockBegin
  2
*Paper_Space0
 70
     0
 10
0.0
 20
0.0
 30
0.0
  3
*Paper_Space0
  1

  0
ENDBLK
  5
25
330
23
100
AcDbEntity
  8
0
100
AcDbBlockEnd
  0
BLOCK
  5
6D
330
6C
100
AcDbEntity
  8
0
100
AcDbBlockBegin
  2
0317_4E_Reduktion
 70
     0
 10
251.0377104671869
 20
-183.1987996500062
 30
0.0
  3
0317_4E_Reduktion
  1

  0
LINE
  5
D0
330
6C
100
AcDbEntity
  8
1
  6
Continuous
 62
     7
100
AcDbLine
 10
205.046402467187
 20
-214.4844401500062
 30
0.0
 11
209.2332794671869
 21
-134.5940771500061
 31
0.0
  0
LINE
  5
D1
330
6C
100
AcDbEntity
  8
1
  6
Continuous
 62
     7
100
AcDbLine
 10
288.8308584671869
 20
-239.9042171500062
 30
0.0
 11
294.5878134671868
 21
-130.0549681500062
 31
0.0
  0
LINE
  5
D2
330
6C
100
AcDbEntity
  8
1
  6
Continuous
 62
     7
100
AcDbLine
 10
219.8165014671869
 20
-219.2639981500062
 30
0.0
 11
224.4220664671869
 21
-131.3845981500061
 31
0.0
  0
LINE
  5
D3
330
6C
100
AcDbEntity
  8
1
  6
Continuous
 62
     7
100
AcDbLine
 10
226.6810053796729
 20
-126.4961230804972
 30
0.0
 11
294.5878134671868
 21
-130.0549681500062
 31
0.0
  0
LINE
  5
D4
330
6C
100
AcDbEntity
  8
LC-002-002-----0
  6
Continuous
 62
     7
100
AcDbLine
 10
205.7380754671869
 20
-134.4109011500061
 30
0.0
 11
205.6334034671869
 21
-136.4081601500063
 31
0.0
  0
LINE
  5
D5
330
6C
100
AcDbEntity
  8
LC-002-002-----0
  6
Continuous
 62
     7
100
AcDbLine
 10
205.7380754671869
 20
-134.4109011500061
 30
0.0
 11
209.2332794671869
 21
-134.5940771500061
 31
0.0
  0
LINE
  5
D6
330
6C
100
AcDbEntity
  8
LC-002-002-----0
  6
Continuous
 62
     7
100
AcDbLine
 10
209.2332794671869
 20
-134.5940771500061
 30
0.0
 11
211.8980374671869
 21
-132.1947181500062
 31
0.0
  0
LINE
  5
D7
330
6C
100
AcDbEntity
  8
LC-002-002-----0
  6
Continuous
 62
     7
100
AcDbLine
 10
201.6558714671869
 20
-212.3040051500062
 30
0.0
 11
201.5511994671868
 21
-214.3012641500063
 31
0.0
  0
LINE
  5
D8
330
6C
100
AcDbEntity
  8
LC-002-002-----0
  6
Continuous
 62
     7
100
AcDbLine
 10
219.0314624671869
 20
-234.2434411500062
 30
0.0
 11
219.8165014671869
 21
-219.2639981500062
 31
0.0
  0
LINE
  5
D9
330
6C
100
AcDbEntity
  8
LC-002-002-----0
  6
Continuous
 62
     7
100
AcDbLine
 10
210.8998064671869
 20
-218.7966931500062
 30
0.0
 11
219.8165014671869
 21
-219.2639981500062
 31
0.0
  0
LINE
  5
DA
330
6C
100
AcDbEntity
  8
LC-002-002-----0
  6
Continuous
 62
     7
100
AcDbLine
 10
205.046402467187
 20
-214.4844401500062
 30
0.0
 11
207.4457624671869
 21
-217.1491991500062
 31
0.0
  0
LINE
  5
DB
330
6C
100
AcDbEntity
  8
LC-002-002-----0
  6
Continuous
 62
     7
100
AcDbLine
 10
201.5511994671868
 20
-214.3012641500063
 30
0.0
 11
205.046402467187
 21
-214.4844401500062
 31
0.0
  0
LINE
  5
DC
330
6C
100
AcDbEntity
  8
LC-002-002-----0
  6
Continuous
 62
     7
100
AcDbLine
 10
300.524221467187
 20
-131.4254951500063
 30
0.0
 11
297.4917694671869
 21
-189.2881261500062
 31
0.0
  0
LINE
  5
DD
330
6C
100
AcDbEntity
  8
LC-002-002-----0
  6
Continuous
 62
     7
100
AcDbLine
 10
294.8780044671869
 20
-239.1617201500063
 30
0.0
 11
297.4917694671869
 21
-189.2881261500062
 31
0.0
  0
LINE
  5
DE
330
6C
100
AcDbEntity
  8
LC-002-002-----0
  6
Continuous
 62
     7
100
AcDbLine
 10
224.5790734671868
 20
-128.3887101500062
 30
0.0
 11
224.4220664671869
 21
-131.3845981500061
 31
0.0
  0
LINE
  5
DF
330
6C
100
AcDbEntity
  8
LC-002-002-----0
  6
Continuous
 62
     7
100
AcDbLine
 10
215.5053704671869
 20
-130.9172941500062
 30
0.0
 11
224.4220664671869
 21
-131.3845981500061
 31
0.0
  0
LINE
  5
E0
330
6C
100
AcDbEntity
  8
LC-002-002-----0
  6
Continuous
 62
     7
100
AcDbLine
 10
294.5878134671868
 20
-130.0549681500062
 30
0.0
 11
300.524221467187
 21
-131.4254951500063
 31
0.0
  0
LINE
  5
E1
330
6C
100
AcDbEntity
  8
LC-002-002-----0
  6
Continuous
 62
     7
100
AcDbLine
 10
220.9240494671869
 20
-236.3453721500062
 30
0.0
 11
288.8308584671869
 21
-239.9042171500062
 31
0.0
  0
LINE
  5
E2
330
6C
100
AcDbEntity
  8
LC-002-002-----0
  6
Continuous
 62
     7
100
AcDbLine
 10
288.8308584671869
 20
-239.9042171500062
 30
0.0
 11
294.8780044671869
 21
-239.1617201500063
 31
0.0
  0
LINE
  5
E3
330
6C
100
AcDbEntity
  8
1
  6
Continuous
 62
     7
100
AcDbLine
 10
201.6558714671869
 20
-212.3040051500062
 30
0.0
 11
205.6334034671869
 21
-136.4081601500063
 31
0.0
  0
LINE
  5
E4
330
6C
100
AcDbEntity
  8
1
  6
PHANTOM
 62
     2
100
AcDbLine
 10
217.6711915772155
 20
-181.0994179247398
 30
0.0
 11
300.4115909354696
 21
-185.4356584415652
 31
0.0
  0
LINE
  5
E5
330
6C
100
AcDbEntity
  8
1
  6
PHANTOM
 62
     2
100
AcDbLine
 10
201.6206663035815
 20
-174.2500111359964
 30
0.0
 11
225.0637684376003
 21
-175.4786114381301
 31
0.0
  0
ARC
  5
E6
330
6C
100
AcDbEntity
  8
LC-003-002-RND-0
  6
Continuous
 62
     7
100
AcDbCircle
 10
211.1614864671869
 20
-213.8035461500063
 30
0.0
 40
4.999999999999774
100
AcDbArc
 50
221.9999999999965
 51
266.9999999999957
  0
ARC
  5
E7
330
6C
100
AcDbEntity
  8
LC-003-002-RND-0
  6
Continuous
 62
     7
100
AcDbCircle
 10
226.5763334671869
 20
-128.4933821500061
 30
0.0
 40
1.999999999999772
100
AcDbArc
 50
86.99999999999652
 51
176.9999999999991
  0
ARC
  5
E8
330
6C
100
AcDbEntity
  8
LC-003-002-RND-0
  6
Continuous
 62
     7
100
AcDbCircle
 10
215.2436904671869
 20
-135.9104421500062
 30
0.0
 40
5.000000000000135
100
AcDbArc
 50
86.99999999999807
 51
131.9999999999982
  0
ARC
  5
E9
330
6C
100
AcDbEntity
  8
LC-003-002-RND-0
  6
Continuous
 62
     7
100
AcDbCircle
 10
221.0287214671869
 20
-234.3481121500062
 30
0.0
 40
1.999999999999932
100
AcDbArc
 50
177.0000000000024
 51
266.999999999997
  0
ENDBLK
  5
6E
330
6C
100
AcDbEntity
  8
0
100
AcDbBlockEnd
  0
BLOCK
  5
71
330
6F
100
AcDbEntity
  8
0
100
AcDbBlockBegin
  2
HL_64_1_Flachdachablauf__1
 70
     0
 10
251.0377104671869
 20
-183.1987996500062
 30
0.0
  3
HL_64_1_Flachdachablauf__1
  1

  0
INSERT
  5
70
330
6F
100
AcDbEntity
  8
1
100
AcDbBlockReference
  2
0317_4E_Reduktion
 10
251.0377104671869
 20
-183.1987996500062
 30
0.0
  0
ENDBLK
  5
72
330
6F
100
AcDbEntity
  8
0
100
AcDbBlockEnd
  0
BLOCK
  5
75
330
73
100
AcDbEntity
  8
0
100
AcDbBlockBegin
  2
HL_64_1_Flachdachablauf__2
 70
     0
 10
251.0377104671869
 20
-183.1987996500062
 30
0.0
  3
HL_64_1_Flachdachablauf__2
  1

  0
INSERT
  5
74
330
73
100
AcDbEntity
  8
0
100
AcDbBlockReference
  2
HL_64_1_Flachdachablauf__1
 10
251.0377104671869
 20
-183.1987996500062
 30
0.0
  0
ENDBLK
  5
76
330
73
100
AcDbEntity
  8
0
100
AcDbBlockEnd
  0
BLOCK
  5
79
330
77
100
AcDbEntity
  8
0
100
AcDbBlockBegin
  2
HL_64_Flachdachablauf__3
 70
     0
 10
251.0377104671869
 20
-183.1987996500062
 30
0.0
  3
HL_64_Flachdachablauf__3
  1

  0
INSERT
  5
78
330
77
100
AcDbEntity
  8
0
100
AcDbBlockReference
  2
HL_64_1_Flachdachablauf__2
 10
251.0377104671869
 20
-183.1987996500062
 30
0.0
  0
ENDBLK
  5
7A
330
77
100
AcDbEntity
  8
0
100
AcDbBlockEnd
  0
BLOCK
  5
7C
330
7B
100
AcDbEntity
  8
0
100
AcDbBlockBegin
  2
HL_72_Kellerablauf_DN110
 70
     0
 10
0.00000000000006
 20
-32.5
 30
0.0
  3
HL_72_Kellerablauf_DN110
  1

  0
POINT
  5
EA
330
7B
100
AcDbEntity
  8
0
 62
     7
100
AcDbPoint
 10
-73.5
 20
0.0
 30
0.0
  0
POINT
  5
EB
330
7B
100
AcDbEntity
  8
0
 62
     7
100
AcDbPoint
 10
73.50000000000011
 20
0.0
 30
0.0
  0
POINT
  5
EC
330
7B
100
AcDbEntity
  8
0
 62
     7
100
AcDbPoint
 10
73.50000000000011
 20
0.0
 30
0.0
  0
LINE
  5
ED
330
7B
100
AcDbEntity
  8
LC-003-002-----0
  6
Continuous
 62
     7
100
AcDbLine
 10
-73.5
 20
0.0
 30
0.0
 11
73.50000000000011
 21
0.0
 31
0.0
  0
LINE
  5
EE
330
7B
100
AcDbEntity
  8
1
  6
PHANTOM
 62
     2
100
AcDbLine
 10
0.0
 20
0.0
 30
0.0
 11
0.0
 21
-65.0
 31
0.0
  0
LINE
  5
EF
330
7B
100
AcDbEntity
  8
1
  6
Continuous
 62
     7
100
AcDbLine
 10
-72.0
 20
-62.5
 30
0.0
 11
72.00000000000011
 21
-62.5
 31
0.0
  0
LINE
  5
F0
330
7B
100
AcDbEntity
  8
1
  6
Continuous
 62
     7
100
AcDbLine
 10
-72.0
 20
-60.5
 30
0.0
 11
72.00000000000011
 21
-60.5
 31
0.0
  0
LINE
  5
F1
330
7B
100
AcDbEntity
  8
1
  6
Continuous
 62
     7
100
AcDbLine
 10
-72.0
 20
-58.0
 30
0.0
 11
72.00000000000011
 21
-58.0
 31
0.0
  0
LINE
  5
F2
330
7B
100
AcDbEntity
  8
1
  6
Continuous
 62
     7
100
AcDbLine
 10
-72.0
 20
-56.0
 30
0.0
 11
72.00000000000011
 21
-56.0
 31
0.0
  0
LINE
  5
F3
330
7B
100
AcDbEntity
  8
1
  6
Continuous
 62
     7
100
AcDbLine
 10
-72.0
 20
-53.5
 30
0.0
 11
72.00000000000011
 21
-53.5
 31
0.0
  0
LINE
  5
F4
330
7B
100
AcDbEntity
  8
1
  6
Continuous
 62
     7
100
AcDbLine
 10
-72.0
 20
-51.5
 30
0.0
 11
72.00000000000011
 21
-51.5
 31
0.0
  0
LINE
  5
F5
330
7B
100
AcDbEntity
  8
1
  6
Continuous
 62
     7
100
AcDbLine
 10
-72.0
 20
-49.0
 30
0.0
 11
72.00000000000011
 21
-49.0
 31
0.0
  0
LINE
  5
F6
330
7B
100
AcDbEntity
  8
1
  6
Continuous
 62
     7
100
AcDbLine
 10
-72.0
 20
-47.0
 30
0.0
 11
72.00000000000011
 21
-47.0
 31
0.0
  0
LINE
  5
F7
330
7B
100
AcDbEntity
  8
1
  6
Continuous
 62
     7
100
AcDbLine
 10
-72.0
 20
-44.5
 30
0.0
 11
72.00000000000011
 21
-44.5
 31
0.0
  0
LINE
  5
F8
330
7B
100
AcDbEntity
  8
1
  6
Continuous
 62
     7
100
AcDbLine
 10
-72.0
 20
-42.5
 30
0.0
 11
72.00000000000011
 21
-42.5
 31
0.0
  0
LINE
  5
F9
330
7B
100
AcDbEntity
  8
1
  6
Continuous
 62
     7
100
AcDbLine
 10
-72.0
 20
-40.0
 30
0.0
 11
72.00000000000011
 21
-40.0
 31
0.0
  0
LINE
  5
FA
330
7B
100
AcDbEntity
  8
1
  6
Continuous
 62
     7
100
AcDbLine
 10
-72.0
 20
-38.0
 30
0.0
 11
72.00000000000011
 21
-38.0
 31
0.0
  0
LINE
  5
FB
330
7B
100
AcDbEntity
  8
1
  6
Continuous
 62
     7
100
AcDbLine
 10
-72.0
 20
-35.5
 30
0.0
 11
72.00000000000011
 21
-35.5
 31
0.0
  0
LINE
  5
FC
330
7B
100
AcDbEntity
  8
1
  6
Continuous
 62
     7
100
AcDbLine
 10
-72.0
 20
-33.5
 30
0.0
 11
72.00000000000011
 21
-33.5
 31
0.0
  0
LINE
  5
FD
330
7B
100
AcDbEntity
  8
1
  6
Continuous
 62
     7
100
AcDbLine
 10
-72.0
 20
-31.0
 30
0.0
 11
72.00000000000011
 21
-31.0
 31
0.0
  0
LINE
  5
FE
330
7B
100
AcDbEntity
  8
1
  6
Continuous
 62
     7
100
AcDbLine
 10
-72.0
 20
-29.0
 30
0.0
 11
72.00000000000011
 21
-29.0
 31
0.0
  0
LINE
  5
FF
330
7B
100
AcDbEntity
  8
1
  6
Continuous
 62
     7
100
AcDbLine
 10
-72.0
 20
-26.5
 30
0.0
 11
72.00000000000011
 21
-26.5
 31
0.0
  0
LINE
  5
100
330
7B
100
AcDbEntity
  8
1
  6
Continuous
 62
     7
100
AcDbLine
 10
-72.0
 20
-24.5
 30
0.0
 11
72.00000000000011
 21
-24.5
 31
0.0
  0
LINE
  5
101
330
7B
100
AcDbEntity
  8
1
  6
Continuous
 62
     7
100
AcDbLine
 10
72.00000000000011
 20
-22.0
 30
0.0
 11
-72.0
 21
-22.0
 31
0.0
  0
LINE
  5
102
330
7B
100
AcDbEntity
  8
1
  6
Continuous
 62
     7
100
AcDbLine
 10
-72.5
 20
-19.0
 30
0.0
 11
72.50000000000011
 21
-19.0
 31
0.0
  0
LINE
  5
103
330
7B
100
AcDbEntity
  8
1
  6
Continuous
 62
     7
100
AcDbLine
 10
-72.5
 20
-17.0
 30
0.0
 11
72.50000000000011
 21
-17.0
 31
0.0
  0
LINE
  5
104
330
7B
100
AcDbEntity
  8
1
  6
Continuous
 62
     7
100
AcDbLine
 10
-72.5
 20
-14.0
 30
0.0
 11
72.50000000000011
 21
-14.0
 31
0.0
  0
LINE
  5
105
330
7B
100
AcDbEntity
  8
LC-003-002-----0
  6
Continuous
 62
     7
100
AcDbLine
 10
-73.5
 20
0.0
 30
0.0
 11
-73.5
 21
-14.0
 31
0.0
  0
LINE
  5
106
330
7B
100
AcDbEntity
  8
LC-003-002-----0
  6
Continuous
 62
     7
100
AcDbLine
 10
-73.0
 20
-17.0
 30
0.0
 11
-72.5
 21
-17.0
 31
0.0
  0
LINE
  5
107
330
7B
100
AcDbEntity
  8
LC-003-002-----0
  6
Continuous
 62
     7
100
AcDbLine
 10
-72.5
 20
-14.0
 30
0.0
 11
-73.5
 21
-14.0
 31
0.0
  0
LINE
  5
108
330
7B
100
AcDbEntity
  8
LC-003-002-----0
  6
Continuous
 62
     7
100
AcDbLine
 10
-73.0
 20
-19.0
 30
0.0
 11
-72.5
 21
-19.0
 31
0.0
  0
LINE
  5
109
330
7B
100
AcDbEntity
  8
LC-003-002-----0
  6
Continuous
 62
     7
100
AcDbLine
 10
-73.0
 20
-17.0
 30
0.0
 11
-73.0
 21
-19.0
 31
0.0
  0
LINE
  5
10A
330
7B
100
AcDbEntity
  8
LC-003-002-----0
  6
Continuous
 62
     7
100
AcDbLine
 10
-72.5
 20
-19.0
 30
0.0
 11
-72.5
 21
-21.5
 31
0.0
  0
LINE
  5
10B
330
7B
100
AcDbEntity
  8
LC-003-002-----0
  6
Continuous
 62
     7
100
AcDbLine
 10
-72.0
 20
-62.5
 30
0.0
 11
-72.0
 21
-62.5
 31
0.0
  0
LINE
  5
10C
330
7B
100
AcDbEntity
  8
LC-003-002-----0
  6
Continuous
 62
     7
100
AcDbLine
 10
-72.0
 20
-58.0
 30
0.0
 11
-72.0
 21
-58.0
 31
0.0
  0
LINE
  5
10D
330
7B
100
AcDbEntity
  8
LC-003-002-----0
  6
Continuous
 62
     7
100
AcDbLine
 10
-72.0
 20
-53.5
 30
0.0
 11
-72.0
 21
-53.5
 31
0.0
  0
LINE
  5
10E
330
7B
100
AcDbEntity
  8
LC-003-002-----0
  6
Continuous
 62
     7
100
AcDbLine
 10
-72.0
 20
-49.0
 30
0.0
 11
-72.0
 21
-49.0
 31
0.0
  0
LINE
  5
10F
330
7B
100
AcDbEntity
  8
LC-003-002-----0
  6
Continuous
 62
     7
100
AcDbLine
 10
-72.0
 20
-44.5
 30
0.0
 11
-72.0
 21
-44.5
 31
0.0
  0
LINE
  5
110
330
7B
100
AcDbEntity
  8
LC-003-002-----0
  6
Continuous
 62
     7
100
AcDbLine
 10
-72.0
 20
-40.0
 30
0.0
 11
-72.0
 21
-40.0
 31
0.0
  0
LINE
  5
111
330
7B
100
AcDbEntity
  8
LC-003-002-----0
  6
Continuous
 62
     7
100
AcDbLine
 10
-72.0
 20
-35.5
 30
0.0
 11
-72.0
 21
-35.5
 31
0.0
  0
LINE
  5
112
330
7B
100
AcDbEntity
  8
LC-003-002-----0
  6
Continuous
 62
     7
100
AcDbLine
 10
-72.0
 20
-31.0
 30
0.0
 11
-72.0
 21
-31.0
 31
0.0
  0
LINE
  5
113
330
7B
100
AcDbEntity
  8
LC-003-002-----0
  6
Continuous
 62
     7
100
AcDbLine
 10
-72.0
 20
-26.5
 30
0.0
 11
-72.0
 21
-26.5
 31
0.0
  0
LINE
  5
114
330
7B
100
AcDbEntity
  8
LC-003-002-----0
  6
Continuous
 62
     7
100
AcDbLine
 10
-72.0
 20
-22.0
 30
0.0
 11
-72.0
 21
-22.0
 31
0.0
  0
LINE
  5
115
330
7B
100
AcDbEntity
  8
LC-003-002-----0
  6
Continuous
 62
     7
100
AcDbLine
 10
-72.0
 20
-60.5
 30
0.0
 11
-72.0
 21
-60.5
 31
0.0
  0
LINE
  5
116
330
7B
100
AcDbEntity
  8
LC-003-002-----0
  6
Continuous
 62
     7
100
AcDbLine
 10
-72.0
 20
-56.0
 30
0.0
 11
-72.0
 21
-56.0
 31
0.0
  0
LINE
  5
117
330
7B
100
AcDbEntity
  8
LC-003-002-----0
  6
Continuous
 62
     7
100
AcDbLine
 10
-72.0
 20
-51.5
 30
0.0
 11
-72.0
 21
-51.5
 31
0.0
  0
LINE
  5
118
330
7B
100
AcDbEntity
  8
LC-003-002-----0
  6
Continuous
 62
     7
100
AcDbLine
 10
-72.0
 20
-47.0
 30
0.0
 11
-72.0
 21
-47.0
 31
0.0
  0
LINE
  5
119
330
7B
100
AcDbEntity
  8
LC-003-002-----0
  6
Continuous
 62
     7
100
AcDbLine
 10
-72.0
 20
-42.5
 30
0.0
 11
-72.0
 21
-42.5
 31
0.0
  0
LINE
  5
11A
330
7B
100
AcDbEntity
  8
LC-003-002-----0
  6
Continuous
 62
     7
100
AcDbLine
 10
-72.0
 20
-38.0
 30
0.0
 11
-72.0
 21
-38.0
 31
0.0
  0
LINE
  5
11B
330
7B
100
AcDbEntity
  8
LC-003-002-----0
  6
Continuous
 62
     7
100
AcDbLine
 10
-72.0
 20
-33.5
 30
0.0
 11
-72.0
 21
-33.5
 31
0.0
  0
LINE
  5
11C
330
7B
100
AcDbEntity
  8
LC-003-002-----0
  6
Continuous
 62
     7
100
AcDbLine
 10
-72.0
 20
-29.0
 30
0.0
 11
-72.0
 21
-29.0
 31
0.0
  0
LINE
  5
11D
330
7B
100
AcDbEntity
  8
LC-003-002-----0
  6
Continuous
 62
     7
100
AcDbLine
 10
-72.0
 20
-24.5
 30
0.0
 11
-72.0
 21
-24.5
 31
0.0
  0
LINE
  5
11E
330
7B
100
AcDbEntity
  8
LC-003-002-----0
  6
Continuous
 62
     7
100
AcDbLine
 10
-72.5
 20
-61.0
 30
0.0
 11
-72.5
 21
-62.0
 31
0.0
  0
LINE
  5
11F
330
7B
100
AcDbEntity
  8
LC-003-002-----0
  6
Continuous
 62
     7
100
AcDbLine
 10
-72.5
 20
-56.5
 30
0.0
 11
-72.5
 21
-57.5
 31
0.0
  0
LINE
  5
120
330
7B
100
AcDbEntity
  8
LC-003-002-----0
  6
Continuous
 62
     7
100
AcDbLine
 10
-72.5
 20
-52.0
 30
0.0
 11
-72.5
 21
-53.0
 31
0.0
  0
LINE
  5
121
330
7B
100
AcDbEntity
  8
LC-003-002-----0
  6
Continuous
 62
     7
100
AcDbLine
 10
-72.5
 20
-47.5
 30
0.0
 11
-72.5
 21
-48.5
 31
0.0
  0
LINE
  5
122
330
7B
100
AcDbEntity
  8
LC-003-002-----0
  6
Continuous
 62
     7
100
AcDbLine
 10
-72.5
 20
-43.0
 30
0.0
 11
-72.5
 21
-44.0
 31
0.0
  0
LINE
  5
123
330
7B
100
AcDbEntity
  8
LC-003-002-----0
  6
Continuous
 62
     7
100
AcDbLine
 10
-72.5
 20
-38.5
 30
0.0
 11
-72.5
 21
-39.5
 31
0.0
  0
LINE
  5
124
330
7B
100
AcDbEntity
  8
LC-003-002-----0
  6
Continuous
 62
     7
100
AcDbLine
 10
-72.5
 20
-34.0
 30
0.0
 11
-72.5
 21
-35.0
 31
0.0
  0
LINE
  5
125
330
7B
100
AcDbEntity
  8
LC-003-002-----0
  6
Continuous
 62
     7
100
AcDbLine
 10
-72.5
 20
-29.5
 30
0.0
 11
-72.5
 21
-30.5
 31
0.0
  0
LINE
  5
126
330
7B
100
AcDbEntity
  8
LC-003-002-----0
  6
Continuous
 62
     7
100
AcDbLine
 10
-72.5
 20
-25.0
 30
0.0
 11
-72.5
 21
-26.0
 31
0.0
  0
LINE
  5
127
330
7B
100
AcDbEntity
  8
LC-003-002-----0
  6
Continuous
 62
     7
100
AcDbLine
 10
-72.5
 20
-14.0
 30
0.0
 11
-72.5
 21
-17.0
 31
0.0
  0
LINE
  5
128
330
7B
100
AcDbEntity
  8
LC-003-002-----0
  6
Continuous
 62
     7
100
AcDbLine
 10
73.50000000000011
 20
0.0
 30
0.0
 11
73.50000000000011
 21
-14.0
 31
0.0
  0
LINE
  5
129
330
7B
100
AcDbEntity
  8
LC-003-002-----0
  6
Continuous
 62
     7
100
AcDbLine
 10
73.00000000000011
 20
-17.0
 30
0.0
 11
72.50000000000011
 21
-17.0
 31
0.0
  0
LINE
  5
12A
330
7B
100
AcDbEntity
  8
LC-003-002-----0
  6
Continuous
 62
     7
100
AcDbLine
 10
72.50000000000011
 20
-14.0
 30
0.0
 11
73.50000000000011
 21
-14.0
 31
0.0
  0
LINE
  5
12B
330
7B
100
AcDbEntity
  8
LC-003-002-----0
  6
Continuous
 62
     7
100
AcDbLine
 10
73.00000000000011
 20
-19.0
 30
0.0
 11
72.50000000000011
 21
-19.0
 31
0.0
  0
LINE
  5
12C
330
7B
100
AcDbEntity
  8
LC-003-002-----0
  6
Continuous
 62
     7
100
AcDbLine
 10
73.00000000000011
 20
-17.0
 30
0.0
 11
73.00000000000011
 21
-19.0
 31
0.0
  0
LINE
  5
12D
330
7B
100
AcDbEntity
  8
LC-003-002-----0
  6
Continuous
 62
     7
100
AcDbLine
 10
72.50000000000011
 20
-19.0
 30
0.0
 11
72.50000000000011
 21
-21.5
 31
0.0
  0
LINE
  5
12E
330
7B
100
AcDbEntity
  8
LC-003-002-----0
  6
Continuous
 62
     7
100
AcDbLine
 10
72.00000000000011
 20
-62.5
 30
0.0
 11
72.00000000000011
 21
-62.5
 31
0.0
  0
LINE
  5
12F
330
7B
100
AcDbEntity
  8
LC-003-002-----0
  6
Continuous
 62
     7
100
AcDbLine
 10
72.00000000000011
 20
-58.0
 30
0.0
 11
72.00000000000011
 21
-58.0
 31
0.0
  0
LINE
  5
130
330
7B
100
AcDbEntity
  8
LC-003-002-----0
  6
Continuous
 62
     7
100
AcDbLine
 10
72.00000000000011
 20
-53.5
 30
0.0
 11
72.00000000000011
 21
-53.5
 31
0.0
  0
LINE
  5
131
330
7B
100
AcDbEntity
  8
LC-003-002-----0
  6
Continuous
 62
     7
100
AcDbLine
 10
72.00000000000011
 20
-49.0
 30
0.0
 11
72.00000000000011
 21
-49.0
 31
0.0
  0
LINE
  5
132
330
7B
100
AcDbEntity
  8
LC-003-002-----0
  6
Continuous
 62
     7
100
AcDbLine
 10
72.00000000000011
 20
-44.5
 30
0.0
 11
72.00000000000011
 21
-44.5
 31
0.0
  0
LINE
  5
133
330
7B
100
AcDbEntity
  8
LC-003-002-----0
  6
Continuous
 62
     7
100
AcDbLine
 10
72.00000000000011
 20
-40.0
 30
0.0
 11
72.00000000000011
 21
-40.0
 31
0.0
  0
LINE
  5
134
330
7B
100
AcDbEntity
  8
LC-003-002-----0
  6
Continuous
 62
     7
100
AcDbLine
 10
72.00000000000011
 20
-35.5
 30
0.0
 11
72.00000000000011
 21
-35.5
 31
0.0
  0
LINE
  5
135
330
7B
100
AcDbEntity
  8
LC-003-002-----0
  6
Continuous
 62
     7
100
AcDbLine
 10
72.00000000000011
 20
-31.0
 30
0.0
 11
72.00000000000011
 21
-31.0
 31
0.0
  0
LINE
  5
136
330
7B
100
AcDbEntity
  8
LC-003-002-----0
  6
Continuous
 62
     7
100
AcDbLine
 10
72.00000000000011
 20
-26.5
 30
0.0
 11
72.00000000000011
 21
-26.5
 31
0.0
  0
LINE
  5
137
330
7B
100
AcDbEntity
  8
LC-003-002-----0
  6
Continuous
 62
     7
100
AcDbLine
 10
72.00000000000011
 20
-22.0
 30
0.0
 11
72.00000000000011
 21
-22.0
 31
0.0
  0
LINE
  5
138
330
7B
100
AcDbEntity
  8
LC-003-002-----0
  6
Continuous
 62
     7
100
AcDbLine
 10
72.00000000000011
 20
-60.5
 30
0.0
 11
72.00000000000011
 21
-60.5
 31
0.0
  0
LINE
  5
139
330
7B
100
AcDbEntity
  8
LC-003-002-----0
  6
Continuous
 62
     7
100
AcDbLine
 10
72.00000000000011
 20
-56.0
 30
0.0
 11
72.00000000000011
 21
-56.0
 31
0.0
  0
LINE
  5
13A
330
7B
100
AcDbEntity
  8
LC-003-002-----0
  6
Continuous
 62
     7
100
AcDbLine
 10
72.00000000000011
 20
-51.5
 30
0.0
 11
72.00000000000011
 21
-51.5
 31
0.0
  0
LINE
  5
13B
330
7B
100
AcDbEntity
  8
LC-003-002-----0
  6
Continuous
 62
     7
100
AcDbLine
 10
72.00000000000011
 20
-47.0
 30
0.0
 11
72.00000000000011
 21
-47.0
 31
0.0
  0
LINE
  5
13C
330
7B
100
AcDbEntity
  8
LC-003-002-----0
  6
Continuous
 62
     7
100
AcDbLine
 10
72.00000000000011
 20
-42.5
 30
0.0
 11
72.00000000000011
 21
-42.5
 31
0.0
  0
LINE
  5
13D
330
7B
100
AcDbEntity
  8
LC-003-002-----0
  6
Continuous
 62
     7
100
AcDbLine
 10
72.00000000000011
 20
-38.0
 30
0.0
 11
72.00000000000011
 21
-38.0
 31
0.0
  0
LINE
  5
13E
330
7B
100
AcDbEntity
  8
LC-003-002-----0
  6
Continuous
 62
     7
100
AcDbLine
 10
72.00000000000011
 20
-33.5
 30
0.0
 11
72.00000000000011
 21
-33.5
 31
0.0
  0
LINE
  5
13F
330
7B
100
AcDbEntity
  8
LC-003-002-----0
  6
Continuous
 62
     7
100
AcDbLine
 10
72.00000000000011
 20
-29.0
 30
0.0
 11
72.00000000000011
 21
-29.0
 31
0.0
  0
LINE
  5
140
330
7B
100
AcDbEntity
  8
LC-003-002-----0
  6
Continuous
 62
     7
100
AcDbLine
 10
72.00000000000011
 20
-24.5
 30
0.0
 11
72.00000000000011
 21
-24.5
 31
0.0
  0
LINE
  5
141
330
7B
100
AcDbEntity
  8
LC-003-002-----0
  6
Continuous
 62
     7
100
AcDbLine
 10
72.50000000000011
 20
-61.0
 30
0.0
 11
72.50000000000011
 21
-62.0
 31
0.0
  0
LINE
  5
142
330
7B
100
AcDbEntity
  8
LC-003-002-----0
  6
Continuous
 62
     7
100
AcDbLine
 10
72.50000000000011
 20
-56.5
 30
0.0
 11
72.50000000000011
 21
-57.5
 31
0.0
  0
LINE
  5
143
330
7B
100
AcDbEntity
  8
LC-003-002-----0
  6
Continuous
 62
     7
100
AcDbLine
 10
72.50000000000011
 20
-52.0
 30
0.0
 11
72.50000000000011
 21
-53.0
 31
0.0
  0
LINE
  5
144
330
7B
100
AcDbEntity
  8
LC-003-002-----0
  6
Continuous
 62
     7
100
AcDbLine
 10
72.50000000000011
 20
-47.5
 30
0.0
 11
72.50000000000011
 21
-48.5
 31
0.0
  0
LINE
  5
145
330
7B
100
AcDbEntity
  8
LC-003-002-----0
  6
Continuous
 62
     7
100
AcDbLine
 10
72.50000000000011
 20
-43.0
 30
0.0
 11
72.50000000000011
 21
-44.0
 31
0.0
  0
LINE
  5
146
330
7B
100
AcDbEntity
  8
LC-003-002-----0
  6
Continuous
 62
     7
100
AcDbLine
 10
72.50000000000011
 20
-38.5
 30
0.0
 11
72.50000000000011
 21
-39.5
 31
0.0
  0
LINE
  5
147
330
7B
100
AcDbEntity
  8
LC-003-002-----0
  6
Continuous
 62
     7
100
AcDbLine
 10
72.50000000000011
 20
-34.0
 30
0.0
 11
72.50000000000011
 21
-35.0
 31
0.0
  0
LINE
  5
148
330
7B
100
AcDbEntity
  8
LC-003-002-----0
  6
Continuous
 62
     7
100
AcDbLine
 10
72.50000000000011
 20
-29.5
 30
0.0
 11
72.50000000000011
 21
-30.5
 31
0.0
  0
LINE
  5
149
330
7B
100
AcDbEntity
  8
LC-003-002-----0
  6
Continuous
 62
     7
100
AcDbLine
 10
72.50000000000011
 20
-25.0
 30
0.0
 11
72.50000000000011
 21
-26.0
 31
0.0
  0
LINE
  5
14A
330
7B
100
AcDbEntity
  8
LC-003-002-----0
  6
Continuous
 62
     7
100
AcDbLine
 10
72.50000000000011
 20
-14.0
 30
0.0
 11
72.50000000000011
 21
-17.0
 31
0.0
  0
ARC
  5
14B
330
7B
100
AcDbEntity
  8
LC-003-002-----0
  6
Continuous
 62
     7
100
AcDbCircle
 10
72.00000000000011
 20
-63.75
 30
0.0
 40
1.25
100
AcDbArc
 50
90.0
 51
191.5636419799885
  0
ARC
  5
14C
330
7B
100
AcDbEntity
  8
LC-003-002-----0
  6
Continuous
 62
     7
100
AcDbCircle
 10
-72.0
 20
-63.75
 30
0.0
 40
1.249999999999995
100
AcDbArc
 50
348.4363580200115
 51
90.0
  0
ARC
  5
14D
330
7B
100
AcDbEntity
  8
LC-003-002-----0
  6
Continuous
 62
     7
100
AcDbCircle
 10
-72.0
 20
-59.25
 30
0.0
 40
1.25
100
AcDbArc
 50
270.0
 51
90.0
  0
ARC
  5
14E
330
7B
100
AcDbEntity
  8
LC-003-002-----0
  6
Continuous
 62
     7
100
AcDbCircle
 10
-72.0
 20
-54.75
 30
0.0
 40
1.25
100
AcDbArc
 50
270.0
 51
90.0
  0
ARC
  5
14F
330
7B
100
AcDbEntity
  8
LC-003-002-----0
  6
Continuous
 62
     7
100
AcDbCircle
 10
-72.0
 20
-50.25
 30
0.0
 40
1.25
100
AcDbArc
 50
270.0
 51
90.0
  0
ARC
  5
150
330
7B
100
AcDbEntity
  8
LC-003-002-----0
  6
Continuous
 62
     7
100
AcDbCircle
 10
-72.0
 20
-45.75
 30
0.0
 40
1.25
100
AcDbArc
 50
270.0
 51
90.0
  0
ARC
  5
151
330
7B
100
AcDbEntity
  8
LC-003-002-----0
  6
Continuous
 62
     7
100
AcDbCircle
 10
-72.0
 20
-41.25
 30
0.0
 40
1.25
100
AcDbArc
 50
270.0
 51
90.0
  0
ARC
  5
152
330
7B
100
AcDbEntity
  8
LC-003-002-----0
  6
Continuous
 62
     7
100
AcDbCircle
 10
-72.0
 20
-36.75
 30
0.0
 40
1.25
100
AcDbArc
 50
270.0
 51
90.0
  0
ARC
  5
153
330
7B
100
AcDbEntity
  8
LC-003-002-----0
  6
Continuous
 62
     7
100
AcDbCircle
 10
-72.0
 20
-32.25
 30
0.0
 40
1.25
100
AcDbArc
 50
270.0
 51
90.0
  0
ARC
  5
154
330
7B
100
AcDbEntity
  8
LC-003-002-----0
  6
Continuous
 62
     7
100
AcDbCircle
 10
-72.0
 20
-27.75
 30
0.0
 40
1.25
100
AcDbArc
 50
270.0
 51
90.0
  0
ARC
  5
155
330
7B
100
AcDbEntity
  8
LC-003-002-----0
  6
Continuous
 62
     7
100
AcDbCircle
 10
-72.0
 20
-23.25
 30
0.0
 40
1.25
100
AcDbArc
 50
270.0
 51
90.0
  0
ARC
  5
156
330
7B
100
AcDbEntity
  8
LC-009-002-RND-0
  6
Continuous
 62
     7
100
AcDbCircle
 10
-72.0
 20
-61.0
 30
0.0
 40
0.5
100
AcDbArc
 50
90.0
 51
180.0
  0
ARC
  5
157
330
7B
100
AcDbEntity
  8
LC-009-002-RND-0
  6
Continuous
 62
     7
100
AcDbCircle
 10
-72.0
 20
-56.5
 30
0.0
 40
0.5
100
AcDbArc
 50
90.0
 51
180.0
  0
ARC
  5
158
330
7B
100
AcDbEntity
  8
LC-009-002-RND-0
  6
Continuous
 62
     7
100
AcDbCircle
 10
-72.0
 20
-52.0
 30
0.0
 40
0.5
100
AcDbArc
 50
90.0
 51
180.0
  0
ARC
  5
159
330
7B
100
AcDbEntity
  8
LC-009-002-RND-0
  6
Continuous
 62
     7
100
AcDbCircle
 10
-72.0
 20
-47.5
 30
0.0
 40
0.5
100
AcDbArc
 50
90.0
 51
180.0
  0
ARC
  5
15A
330
7B
100
AcDbEntity
  8
LC-009-002-RND-0
  6
Continuous
 62
     7
100
AcDbCircle
 10
-72.0
 20
-43.0
 30
0.0
 40
0.5
100
AcDbArc
 50
90.0
 51
180.0
  0
ARC
  5
15B
330
7B
100
AcDbEntity
  8
LC-009-002-RND-0
  6
Continuous
 62
     7
100
AcDbCircle
 10
-72.0
 20
-38.5
 30
0.0
 40
0.5
100
AcDbArc
 50
90.0
 51
180.0
  0
ARC
  5
15C
330
7B
100
AcDbEntity
  8
LC-009-002-RND-0
  6
Continuous
 62
     7
100
AcDbCircle
 10
-72.0
 20
-34.0
 30
0.0
 40
0.5
100
AcDbArc
 50
90.0
 51
180.0
  0
ARC
  5
15D
330
7B
100
AcDbEntity
  8
LC-009-002-RND-0
  6
Continuous
 62
     7
100
AcDbCircle
 10
-72.0
 20
-29.5
 30
0.0
 40
0.5
100
AcDbArc
 50
90.0
 51
180.0
  0
ARC
  5
15E
330
7B
100
AcDbEntity
  8
LC-009-002-RND-0
  6
Continuous
 62
     7
100
AcDbCircle
 10
-72.0
 20
-25.0
 30
0.0
 40
0.5
100
AcDbArc
 50
90.0
 51
180.0
  0
ARC
  5
15F
330
7B
100
AcDbEntity
  8
LC-009-002-RND-0
  6
Continuous
 62
     7
100
AcDbCircle
 10
-72.0
 20
-21.5
 30
0.0
 40
0.5
100
AcDbArc
 50
180.0
 51
270.0
  0
ARC
  5
160
330
7B
100
AcDbEntity
  8
LC-009-002-RND-0
  6
Continuous
 62
     7
100
AcDbCircle
 10
-72.0
 20
-26.0
 30
0.0
 40
0.5
100
AcDbArc
 50
180.0
 51
270.0
  0
ARC
  5
161
330
7B
100
AcDbEntity
  8
LC-009-002-RND-0
  6
Continuous
 62
     7
100
AcDbCircle
 10
-72.0
 20
-30.5
 30
0.0
 40
0.5
100
AcDbArc
 50
180.0
 51
270.0
  0
ARC
  5
162
330
7B
100
AcDbEntity
  8
LC-009-002-RND-0
  6
Continuous
 62
     7
100
AcDbCircle
 10
-72.0
 20
-35.0
 30
0.0
 40
0.5
100
AcDbArc
 50
180.0
 51
270.0
  0
ARC
  5
163
330
7B
100
AcDbEntity
  8
LC-009-002-RND-0
  6
Continuous
 62
     7
100
AcDbCircle
 10
-72.0
 20
-39.5
 30
0.0
 40
0.5
100
AcDbArc
 50
180.0
 51
270.0
  0
ARC
  5
164
330
7B
100
AcDbEntity
  8
LC-009-002-RND-0
  6
Continuous
 62
     7
100
AcDbCircle
 10
-72.0
 20
-44.0
 30
0.0
 40
0.5
100
AcDbArc
 50
180.0
 51
270.0
  0
ARC
  5
165
330
7B
100
AcDbEntity
  8
LC-009-002-RND-0
  6
Continuous
 62
     7
100
AcDbCircle
 10
-72.0
 20
-48.5
 30
0.0
 40
0.5
100
AcDbArc
 50
180.0
 51
270.0
  0
ARC
  5
166
330
7B
100
AcDbEntity
  8
LC-009-002-RND-0
  6
Continuous
 62
     7
100
AcDbCircle
 10
-72.0
 20
-57.5
 30
0.0
 40
0.5
100
AcDbArc
 50
180.0
 51
270.0
  0
ARC
  5
167
330
7B
100
AcDbEntity
  8
LC-009-002-RND-0
  6
Continuous
 62
     7
100
AcDbCircle
 10
-72.0
 20
-53.0
 30
0.0
 40
0.5
100
AcDbArc
 50
180.0
 51
270.0
  0
ARC
  5
168
330
7B
100
AcDbEntity
  8
LC-009-002-RND-0
  6
Continuous
 62
     7
100
AcDbCircle
 10
-72.0
 20
-62.0
 30
0.0
 40
0.5
100
AcDbArc
 50
180.0
 51
270.0
  0
ARC
  5
169
330
7B
100
AcDbEntity
  8
LC-003-002-----0
  6
Continuous
 62
     7
100
AcDbCircle
 10
72.00000000000011
 20
-59.25
 30
0.0
 40
1.25
100
AcDbArc
 50
90.0
 51
270.0
  0
ARC
  5
16A
330
7B
100
AcDbEntity
  8
LC-003-002-----0
  6
Continuous
 62
     7
100
AcDbCircle
 10
72.00000000000011
 20
-54.75
 30
0.0
 40
1.25
100
AcDbArc
 50
90.0
 51
270.0
  0
ARC
  5
16B
330
7B
100
AcDbEntity
  8
LC-003-002-----0
  6
Continuous
 62
     7
100
AcDbCircle
 10
72.00000000000011
 20
-50.25
 30
0.0
 40
1.25
100
AcDbArc
 50
90.0
 51
270.0
  0
ARC
  5
16C
330
7B
100
AcDbEntity
  8
LC-003-002-----0
  6
Continuous
 62
     7
100
AcDbCircle
 10
72.00000000000011
 20
-45.75
 30
0.0
 40
1.25
100
AcDbArc
 50
90.0
 51
270.0
  0
ARC
  5
16D
330
7B
100
AcDbEntity
  8
LC-003-002-----0
  6
Continuous
 62
     7
100
AcDbCircle
 10
72.00000000000011
 20
-41.25
 30
0.0
 40
1.25
100
AcDbArc
 50
90.0
 51
270.0
  0
ARC
  5
16E
330
7B
100
AcDbEntity
  8
LC-003-002-----0
  6
Continuous
 62
     7
100
AcDbCircle
 10
72.00000000000011
 20
-36.75
 30
0.0
 40
1.25
100
AcDbArc
 50
90.0
 51
270.0
  0
ARC
  5
16F
330
7B
100
AcDbEntity
  8
LC-003-002-----0
  6
Continuous
 62
     7
100
AcDbCircle
 10
72.00000000000011
 20
-32.25
 30
0.0
 40
1.25
100
AcDbArc
 50
90.0
 51
270.0
  0
ARC
  5
170
330
7B
100
AcDbEntity
  8
LC-003-002-----0
  6
Continuous
 62
     7
100
AcDbCircle
 10
72.00000000000011
 20
-27.75
 30
0.0
 40
1.25
100
AcDbArc
 50
90.0
 51
270.0
  0
ARC
  5
171
330
7B
100
AcDbEntity
  8
LC-003-002-----0
  6
Continuous
 62
     7
100
AcDbCircle
 10
72.00000000000011
 20
-23.25
 30
0.0
 40
1.25
100
AcDbArc
 50
90.0
 51
270.0
  0
ARC
  5
172
330
7B
100
AcDbEntity
  8
LC-009-002-RND-0
  6
Continuous
 62
     7
100
AcDbCircle
 10
72.00000000000011
 20
-61.0
 30
0.0
 40
0.5
100
AcDbArc
 50
0.0
 51
90.0
  0
ARC
  5
173
330
7B
100
AcDbEntity
  8
LC-009-002-RND-0
  6
Continuous
 62
     7
100
AcDbCircle
 10
72.00000000000011
 20
-56.5
 30
0.0
 40
0.5
100
AcDbArc
 50
0.0
 51
90.0
  0
ARC
  5
174
330
7B
100
AcDbEntity
  8
LC-009-002-RND-0
  6
Continuous
 62
     7
100
AcDbCircle
 10
72.00000000000011
 20
-52.0
 30
0.0
 40
0.5
100
AcDbArc
 50
0.0
 51
90.0
  0
ARC
  5
175
330
7B
100
AcDbEntity
  8
LC-009-002-RND-0
  6
Continuous
 62
     7
100
AcDbCircle
 10
72.00000000000011
 20
-47.5
 30
0.0
 40
0.5
100
AcDbArc
 50
0.0
 51
90.0
  0
ARC
  5
176
330
7B
100
AcDbEntity
  8
LC-009-002-RND-0
  6
Continuous
 62
     7
100
AcDbCircle
 10
72.00000000000011
 20
-43.0
 30
0.0
 40
0.5
100
AcDbArc
 50
0.0
 51
90.0
  0
ARC
  5
177
330
7B
100
AcDbEntity
  8
LC-009-002-RND-0
  6
Continuous
 62
     7
100
AcDbCircle
 10
72.00000000000011
 20
-38.5
 30
0.0
 40
0.5
100
AcDbArc
 50
0.0
 51
90.0
  0
ARC
  5
178
330
7B
100
AcDbEntity
  8
LC-009-002-RND-0
  6
Continuous
 62
     7
100
AcDbCircle
 10
72.00000000000011
 20
-34.0
 30
0.0
 40
0.5
100
AcDbArc
 50
0.0
 51
90.0
  0
ARC
  5
179
330
7B
100
AcDbEntity
  8
LC-009-002-RND-0
  6
Continuous
 62
     7
100
AcDbCircle
 10
72.00000000000011
 20
-29.5
 30
0.0
 40
0.5
100
AcDbArc
 50
0.0
 51
90.0
  0
ARC
  5
17A
330
7B
100
AcDbEntity
  8
LC-009-002-RND-0
  6
Continuous
 62
     7
100
AcDbCircle
 10
72.00000000000011
 20
-25.0
 30
0.0
 40
0.5
100
AcDbArc
 50
0.0
 51
90.0
  0
ARC
  5
17B
330
7B
100
AcDbEntity
  8
LC-009-002-RND-0
  6
Continuous
 62
     7
100
AcDbCircle
 10
72.00000000000011
 20
-21.5
 30
0.0
 40
0.5
100
AcDbArc
 50
270.0
 51
0.0
  0
ARC
  5
17C
330
7B
100
AcDbEntity
  8
LC-009-002-RND-0
  6
Continuous
 62
     7
100
AcDbCircle
 10
72.00000000000011
 20
-26.0
 30
0.0
 40
0.5
100
AcDbArc
 50
270.0
 51
0.0
  0
ARC
  5
17D
330
7B
100
AcDbEntity
  8
LC-009-002-RND-0
  6
Continuous
 62
     7
100
AcDbCircle
 10
72.00000000000011
 20
-30.5
 30
0.0
 40
0.5
100
AcDbArc
 50
270.0
 51
0.0
  0
ARC
  5
17E
330
7B
100
AcDbEntity
  8
LC-009-002-RND-0
  6
Continuous
 62
     7
100
AcDbCircle
 10
72.00000000000011
 20
-35.0
 30
0.0
 40
0.5
100
AcDbArc
 50
270.0
 51
0.0
  0
ARC
  5
17F
330
7B
100
AcDbEntity
  8
LC-009-002-RND-0
  6
Continuous
 62
     7
100
AcDbCircle
 10
72.00000000000011
 20
-39.5
 30
0.0
 40
0.5
100
AcDbArc
 50
270.0
 51
0.0
  0
ARC
  5
180
330
7B
100
AcDbEntity
  8
LC-009-002-RND-0
  6
Continuous
 62
     7
100
AcDbCircle
 10
72.00000000000011
 20
-44.0
 30
0.0
 40
0.5
100
AcDbArc
 50
270.0
 51
0.0
  0
ARC
  5
181
330
7B
100
AcDbEntity
  8
LC-009-002-RND-0
  6
Continuous
 62
     7
100
AcDbCircle
 10
72.00000000000011
 20
-48.5
 30
0.0
 40
0.5
100
AcDbArc
 50
270.0
 51
0.0
  0
ARC
  5
182
330
7B
100
AcDbEntity
  8
LC-009-002-RND-0
  6
Continuous
 62
     7
100
AcDbCircle
 10
72.00000000000011
 20
-57.5
 30
0.0
 40
0.5
100
AcDbArc
 50
270.0
 51
0.0
  0
ARC
  5
183
330
7B
100
AcDbEntity
  8
LC-009-002-RND-0
  6
Continuous
 62
     7
100
AcDbCircle
 10
72.00000000000011
 20
-53.0
 30
0.0
 40
0.5
100
AcDbArc
 50
270.0
 51
0.0
  0
ARC
  5
184
330
7B
100
AcDbEntity
  8
LC-009-002-RND-0
  6
Continuous
 62
     7
100
AcDbCircle
 10
72.00000000000011
 20
-62.0
 30
0.0
 40
0.5
100
AcDbArc
 50
270.0
 51
0.0
  0
ENDBLK
  5
7D
330
7B
100
AcDbEntity
  8
0
100
AcDbBlockEnd
  0
BLOCK
  5
7F
330
7E
100
AcDbEntity
  8
0
100
AcDbBlockBegin
  2
HL_64_1B_Flachdachablauf
 70
     0
 10
0.00000000000004
 20
-112.120371814741
 30
0.0
  3
HL_64_1B_Flachdachablauf
  1

  0
POINT
  5
185
330
7E
100
AcDbEntity
  8
0
 62
     7
100
AcDbPoint
 10
159.0395280000001
 20
-136.9214045295123
 30
0.0
  0
POINT
  5
186
330
7E
100
AcDbEntity
  8
0
 62
     7
100
AcDbPoint
 10
-104.0
 20
-101.3215855295122
 30
0.0
  0
POINT
  5
187
330
7E
100
AcDbEntity
  8
0
 62
     7
100
AcDbPoint
 10
-175.4999939999998
 20
-68.00064752951232
 30
0.0
  0
POINT
  5
188
330
7E
100
AcDbEntity
  8
0
 62
     7
100
AcDbPoint
 10
-33.306425
 20
-213.3215855295123
 30
0.0
  0
POINT
  5
189
330
7E
100
AcDbEntity
  8
0
 62
     7
100
AcDbPoint
 10
-177.4999829999999
 20
-71.00854552951216
 30
0.0
  0
POINT
  5
18A
330
7E
100
AcDbEntity
  8
0
 62
     7
100
AcDbPoint
 10
176.5000040000002
 20
-70.99904452951216
 30
0.0
  0
LINE
  5
18B
330
7E
100
AcDbEntity
  8
LC-001-002-----0
  6
Continuous
 62
     7
100
AcDbLine
 10
249.9327440000001
 20
-64.00057034302529
 30
0.0
 11
147.5271119999999
 21
-64.00057034302529
 31
0.0
  0
LINE
  5
18C
330
7E
100
AcDbEntity
  8
LC-001-002-----0
  6
Continuous
 62
     7
100
AcDbLine
 10
249.932736
 20
-68.00057034302529
 30
0.0
 11
147.362993
 21
-68.00057034302529
 31
0.0
  0
LINE
  5
18D
330
7E
100
AcDbEntity
  8
LC-001-002-----0
  6
Continuous
 62
     7
100
AcDbLine
 10
249.932736
 20
-68.00057034302529
 30
0.0
 11
249.9327440000001
 21
-64.00057034302529
 31
0.0
  0
LINE
  5
18E
330
7E
100
AcDbEntity
  8
LC-002-002-----0
  6
Continuous
 62
     7
100
AcDbLine
 10
-90.60746728525024
 20
-68.00033440925091
 30
0.0
 11
174.4971337374188
 21
-67.99935658911545
 31
0.0
  0
LINE
  5
18F
330
7E
100
AcDbEntity
  8
LC-001-002-----0
  6
Continuous
 62
     7
100
AcDbLine
 10
-249.932744
 20
-64.00057034302529
 30
0.0
 11
-249.932736
 21
-68.00057034302529
 31
0.0
  0
LINE
  5
190
330
7E
100
AcDbEntity
  8
LC-001-002-----0
  6
Continuous
 62
     7
100
AcDbLine
 10
-147.362993
 20
-68.00057034302529
 30
0.0
 11
-249.932736
 21
-68.00057034302529
 31
0.0
  0
LINE
  5
191
330
7E
100
AcDbEntity
  8
LC-001-002-----0
  6
Continuous
 62
     7
100
AcDbLine
 10
147.5271119999999
 20
-64.00057034302529
 30
0.0
 11
-249.932744
 21
-64.00057034302529
 31
0.0
  0
LINE
  5
192
330
7E
100
AcDbEntity
  8
1
  6
PHANTOM
 62
     2
100
AcDbLine
 10
89.26792078579652
 20
-168.3276940183717
 30
0.0
 11
160.540814575298
 21
-172.0629486287689
 31
0.0
  0
LINE
  5
193
330
7E
100
AcDbEntity
  8
1
  6
Continuous
 62
     7
100
AcDbLine
 10
150.7523470000001
 20
-209.0803875295123
 30
0.0
 11
154.6753450000001
 21
-134.2251215295123
 31
0.0
  0
LINE
  5
194
330
7E
100
AcDbEntity
  8
LC-002-002-----0
  6
Continuous
 62
     7
100
AcDbLine
 10
154.8029590000001
 20
-208.2194025295123
 30
0.0
 11
158.5395280000001
 21
-136.9214045295123
 31
0.0
  0
LINE
  5
195
330
7E
100
AcDbEntity
  8
LC-002-002-----0
  6
Continuous
 62
     7
100
AcDbLine
 10
150.7523470000001
 20
-209.0803875295123
 30
0.0
 11
154.8029590000001
 21
-208.2194025295123
 31
0.0
  0
LINE
  5
196
330
7E
100
AcDbEntity
  8
LC-002-002-----0
  6
Continuous
 62
     7
100
AcDbLine
 10
158.5395280000001
 20
-136.9214045295123
 30
0.0
 11
158.61377
 21
-135.5047925295123
 31
0.0
  0
LINE
  5
197
330
7E
100
AcDbEntity
  8
LC-002-002-----0
  6
Continuous
 62
     7
100
AcDbLine
 10
154.6753450000001
 20
-134.2251215295123
 30
0.0
 11
158.61377
 21
-135.5047925295123
 31
0.0
  0
LINE
  5
198
330
7E
100
AcDbEntity
  8
LC-002-002-----0
  6
Continuous
 62
     7
100
AcDbLine
 10
87.3046950000001
 20
-205.7882765295123
 30
0.0
 11
150.7523470000001
 21
-209.0803875295123
 31
0.0
  0
LINE
  5
199
330
7E
100
AcDbEntity
  8
LC-002-002-----0
  6
Continuous
 62
     7
100
AcDbLine
 10
91.23114700000002
 20
-130.8671115295123
 30
0.0
 11
154.6753450000001
 21
-134.2251215295123
 31
0.0
  0
LINE
  5
19A
330
7E
100
AcDbEntity
  8
LC-002-002-----0
  6
Continuous
 62
     7
100
AcDbLine
 10
-87.0
 20
-101.3215855295122
 30
0.0
 11
-104.0
 21
-101.3215855295122
 31
0.0
  0
LINE
  5
19B
330
7E
100
AcDbEntity
  8
LC-002-002-----0
  6
Continuous
 62
     7
100
AcDbLine
 10
-86.33012699999995
 20
-126.4818395295122
 30
0.0
 11
-37.63655199999995
 21
-210.8215855295123
 31
0.0
  0
LINE
  5
19C
330
7E
100
AcDbEntity
  8
LC-002-002-----0
  6
Continuous
 62
     7
100
AcDbLine
 10
104.0000000000001
 20
-101.3215855295122
 30
0.0
 11
104.0000000000001
 21
-80.54952652951226
 31
0.0
  0
LINE
  5
19D
330
7E
100
AcDbEntity
  8
LC-002-002-----0
  6
Continuous
 62
     7
100
AcDbLine
 10
87.00000000000011
 20
-208.3215855295123
 30
0.0
 11
87.00000000000011
 21
-201.3611329991041
 31
0.0
  0
LINE
  5
19E
330
7E
100
AcDbEntity
  8
LC-002-002-----0
  6
Continuous
 62
     7
100
AcDbLine
 10
-104.0
 20
-80.54952652951226
 30
0.0
 11
-104.0
 21
-101.3215855295122
 31
0.0
  0
LINE
  5
19F
330
7E
100
AcDbEntity
  8
LC-002-002-----0
  6
Continuous
 62
     7
100
AcDbLine
 10
-87.0
 20
-101.3215855295122
 30
0.0
 11
-87.0
 21
-123.9818395295122
 31
0.0
  0
LINE
  5
1A0
330
7E
100
AcDbEntity
  8
LC-002-002-----0
  6
Continuous
 62
     7
100
AcDbLine
 10
-33.306425
 20
-213.3215855295123
 30
0.0
 11
82.00000000000011
 21
-213.3215855295123
 31
0.0
  0
LINE
  5
1A1
330
7E
100
AcDbEntity
  8
LC-002-002-----0
  6
Continuous
 62
     7
100
AcDbLine
 10
89.25000000000011
 20
-101.3215855295122
 30
0.0
 11
104.0000000000001
 21
-101.3215855295122
 31
0.0
  0
LINE
  5
1A2
330
7E
100
AcDbEntity
  8
LC-002-002-----0
  6
Continuous
 62
     7
100
AcDbLine
 10
-125.2300659999999
 20
-73.3828075295122
 30
0.0
 11
-105.5396679999999
 21
-80.54952652951226
 31
0.0
  0
LINE
  5
1A3
330
7E
100
AcDbEntity
  8
LC-002-002-----0
  6
Continuous
 62
     7
100
AcDbLine
 10
-104.0
 20
-80.54952652951226
 30
0.0
 11
-105.5396679999999
 21
-80.54952652951226
 31
0.0
  0
LINE
  5
1A4
330
7E
100
AcDbEntity
  8
LC-002-002-----0
  6
Continuous
 62
     7
100
AcDbLine
 10
-125.2300659999999
 20
-73.3828075295122
 30
0.0
 11
-124.9362209999999
 21
-72.57547652951223
 31
0.0
  0
LINE
  5
1A5
330
7E
100
AcDbEntity
  8
LC-002-002-----0
  6
Continuous
 62
     7
100
AcDbLine
 10
87.00000000000011
 20
-101.3215855295122
 30
0.0
 11
89.25000000000011
 21
-101.3215855295122
 31
0.0
  0
LINE
  5
1A6
330
7E
100
AcDbEntity
  8
LC-002-002-----0
  6
Continuous
 62
     7
100
AcDbLine
 10
125.2300660000003
 20
-73.3828075295122
 30
0.0
 11
105.539668
 21
-80.54952652951226
 31
0.0
  0
LINE
  5
1A7
330
7E
100
AcDbEntity
  8
LC-002-002-----0
  6
Continuous
 62
     7
100
AcDbLine
 10
104.0000000000001
 20
-80.54952652951226
 30
0.0
 11
105.539668
 21
-80.54952652951226
 31
0.0
  0
LINE
  5
1A8
330
7E
100
AcDbEntity
  8
LC-002-002-----0
  6
Continuous
 62
     7
100
AcDbLine
 10
125.2300660000003
 20
-73.3828075295122
 30
0.0
 11
124.9362210000002
 21
-72.57547652951223
 31
0.0
  0
LINE
  5
1A9
330
7E
100
AcDbEntity
  8
LC-002-002-----0
  6
Continuous
 62
     7
100
AcDbLine
 10
126.7004340000001
 20
-70.99911552951232
 30
0.0
 11
122.3621684629459
 21
-72.57547652951223
 31
0.0
  0
LINE
  5
1AA
330
7E
100
AcDbEntity
  8
LC-002-002-----0
  6
Continuous
 62
     7
100
AcDbLine
 10
90.73114700000008
 20
-130.8671115295122
 30
0.0
 11
90.2892230000001
 21
-130.3763055295123
 31
0.0
  0
LINE
  5
1AB
330
7E
100
AcDbEntity
  8
LC-002-002-----0
  6
Continuous
 62
     7
100
AcDbLine
 10
176.4998210000001
 20
-70.99904452951216
 30
0.0
 11
126.7004340000001
 21
-70.99911552951232
 31
0.0
  0
LINE
  5
1AC
330
7E
100
AcDbEntity
  8
LC-002-002-----0
  6
Continuous
 62
     7
100
AcDbLine
 10
176.5000040000002
 20
-69.99935452951229
 30
0.0
 11
176.5000040000002
 21
-70.99904452951216
 31
0.0
  0
LINE
  5
1AD
330
7E
100
AcDbEntity
  8
LC-002-002-----0
  6
Continuous
 62
     7
100
AcDbLine
 10
-177.4999819999998
 20
-71.00065452951219
 30
0.0
 11
-127.6967029999998
 21
-71.00047152951231
 31
0.0
  0
LINE
  5
1AE
330
7E
100
AcDbEntity
  8
LC-002-002-----0
  6
Continuous
 62
     7
100
AcDbLine
 10
-175.4999939999998
 20
-68.00064752951232
 30
0.0
 11
-90.60746728525024
 21
-68.00033440925091
 31
0.0
  0
LINE
  5
1AF
330
7E
100
AcDbEntity
  8
LC-002-002-----0
  6
Continuous
 62
     7
100
AcDbLine
 10
-177.4999869999999
 20
-70.00065652951218
 30
0.0
 11
-177.4999829999999
 21
-71.00854552951216
 31
0.0
  0
LINE
  5
1B0
330
7E
100
AcDbEntity
  8
LC-002-002-----0
  6
Continuous
 62
     7
100
AcDbLine
 10
87.00000000000011
 20
-130.2021926798051
 30
0.0
 11
90.2892230000001
 21
-130.3763055295123
 31
0.0
  0
LINE
  5
1B1
330
7E
100
AcDbEntity
  8
1
  6
Continuous
 62
     7
100
AcDbLine
 10
90.73114700000008
 20
-130.8671115295122
 30
0.0
 11
87.00000000000011
 21
-201.3611329991041
 31
0.0
  0
LINE
  5
1B2
330
7E
100
AcDbEntity
  8
LC-002-002-----0
  6
Continuous
 62
     7
100
AcDbLine
 10
87.00000000000011
 20
-201.3611329991041
 30
0.0
 11
87.00000000000011
 21
-192.5208838000207
 31
0.0
  0
LINE
  5
1B3
330
7E
100
AcDbEntity
  8
1
  6
Continuous
 62
     7
100
AcDbLine
 10
90.2892230000001
 20
-130.3763055295123
 30
0.0
 11
87.00000000000011
 21
-192.5208838000207
 31
0.0
  0
LINE
  5
1B4
330
7E
100
AcDbEntity
  8
LC-002-002-----0
  6
Continuous
 62
     7
100
AcDbLine
 10
87.00000000000011
 20
-192.5208838000207
 30
0.0
 11
87.00000000000011
 21
-101.3215855295122
 31
0.0
  0
LINE
  5
1B5
330
7E
100
AcDbEntity
  8
1
  6
Continuous
 62
     7
100
AcDbLine
 10
124.9362210000002
 20
-72.57547652951223
 30
0.0
 11
122.3621684629459
 21
-72.57547652951223
 31
0.0
  0
LINE
  5
1B6
330
7E
100
AcDbEntity
  8
1
  6
Continuous
 62
     7
100
AcDbLine
 10
-87.0
 20
-101.3215855295122
 30
0.0
 11
87.00000000000011
 21
-101.3215855295122
 31
0.0
  0
LINE
  5
1B7
330
7E
100
AcDbEntity
  8
1
  6
Continuous
 62
     7
100
AcDbLine
 10
104.0000000000001
 20
-80.54952652951226
 30
0.0
 11
-104.0
 21
-80.54952652951226
 31
0.0
  0
LINE
  5
1B8
330
7E
100
AcDbEntity
  8
1
  6
Continuous
 62
     7
100
AcDbLine
 10
122.3621684629459
 20
-72.57547652951223
 30
0.0
 11
-124.9362209999999
 21
-72.57547652951223
 31
0.0
  0
LINE
  5
1B9
330
7E
100
AcDbEntity
  8
1
  6
Continuous
 62
     7
100
AcDbLine
 10
125.2300660000003
 20
-73.3828075295122
 30
0.0
 11
-125.2300659999999
 21
-73.3828075295122
 31
0.0
  0
LINE
  5
1BA
330
7E
100
AcDbEntity
  8
1
  6
PHANTOM
 62
     2
100
AcDbLine
 10
0.0
 20
2.05748356711592
 30
0.0
 11
0.0
 21
-226.298227196598
 31
0.0
  0
LINE
  5
1BB
330
7E
100
AcDbEntity
  8
LC-002-002-----0
  6
Continuous
 62
     7
100
AcDbLine
 10
-122.3621684629459
 20
-72.57547652951223
 30
0.0
 11
-126.7004340000001
 21
-70.99911552951232
 31
0.0
  0
LINE
  5
1BC
330
7E
100
AcDbEntity
  8
1
  6
Continuous
 62
     7
100
AcDbLine
 10
126.7004340000001
 20
-70.99911552951232
 30
0.0
 11
-127.6967029999998
 21
-70.99911552951232
 31
0.0
  0
ARC
  5
1BD
330
7E
100
AcDbEntity
  8
LC-004-002-RND-0
  6
Continuous
 62
     7
100
AcDbCircle
 10
-82.0
 20
-123.9818395295122
 30
0.0
 40
5.0
100
AcDbArc
 50
180.0
 51
210.0000000000012
  0
ARC
  5
1BE
330
7E
100
AcDbEntity
  8
LC-004-002-RND-0
  6
Continuous
 62
     7
100
AcDbCircle
 10
-33.306425
 20
-208.3215855295123
 30
0.0
 40
4.99999999999982
100
AcDbArc
 50
210.0000000000012
 51
270.0
  0
ARC
  5
1BF
330
7E
100
AcDbEntity
  8
LC-004-002-RND-0
  6
Continuous
 62
     7
100
AcDbCircle
 10
82.00000000000011
 20
-208.3215855295123
 30
0.0
 40
5.0
100
AcDbArc
 50
270.0
 51
0.0
  0
ARC
  5
1C0
330
7E
100
AcDbEntity
  8
LC-002-002-----0
  6
Continuous
 62
     7
100
AcDbCircle
 10
-175.4999869999999
 20
-70.00064752951232
 30
0.0
 40
1.999999999999821
100
AcDbArc
 50
90.00021199999952
 51
180.0002479999963
  0
ARC
  5
1C1
330
7E
100
AcDbEntity
  8
LC-004-002-RND-0
  6
Continuous
 62
     7
100
AcDbCircle
 10
174.5000040000002
 20
-69.99935452951229
 30
0.0
 40
2.0
100
AcDbArc
 50
0.0
 51
90.08222699422961
  0
ENDBLK
  5
80
330
7E
100
AcDbEntity
  8
0
100
AcDbBlockEnd
  0
BLOCK
  5
83
330
81
100
AcDbEntity
  8
0
100
AcDbBlockBegin
  2
HL_64_Flachdachablauf__4
 70
     0
 10
0.00000000000004
 20
-112.120371814741
 30
0.0
  3
HL_64_Flachdachablauf__4
  1

  0
INSERT
  5
82
330
81
100
AcDbEntity
  8
1
100
AcDbBlockReference
  2
HL_64_1B_Flachdachablauf
 10
0.00000000000004
 20
-112.120371814741
 30
0.0
  0
ENDBLK
  5
84
330
81
100
AcDbEntity
  8
0
100
AcDbBlockEnd
  0
BLOCK
  5
88
330
85
100
AcDbEntity
  8
0
100
AcDbBlockBegin
  2
HL_64_1B_Flachdachablauf_DN75_110__5
 70
     0
 10
0.00000000000004
 20
-112.120371814741
 30
0.0
  3
HL_64_1B_Flachdachablauf_DN75_110__5
  1

  0
INSERT
  5
86
330
85
100
AcDbEntity
  8
1
100
AcDbBlockReference
  2
HL_72_Kellerablauf_DN110
 10
0.00000000000006
 20
-32.5
 30
0.0
  0
INSERT
  5
87
330
85
100
AcDbEntity
  8
0
100
AcDbBlockReference
  2
HL_64_Flachdachablauf__4
 10
0.00000000000004
 20
-112.120371814741
 30
0.0
  0
ENDBLK
  5
89
330
85
100
AcDbEntity
  8
0
100
AcDbBlockEnd
  0
BLOCK
  5
8D
330
8A
100
AcDbEntity
  8
0
100
AcDbBlockBegin
  2
HL_64B_Flachdachablauf
 70
     0
 10
25.29573873359348
 20
-118.9233667914451
 30
0.0
  3
HL_64B_Flachdachablauf
  1

  0
INSERT
  5
8B
330
8A
100
AcDbEntity
  8
0
100
AcDbBlockReference
  2
HL_64_Flachdachablauf__3
 10
251.0377104671869
 20
-183.1987996500062
 30
0.0
  0
INSERT
  5
8C
330
8A
100
AcDbEntity
  8
0
100
AcDbBlockReference
  2
HL_64_1B_Flachdachablauf_DN75_110__5
 10
0.00000000000004
 20
-112.120371814741
 30
0.0
  0
ENDBLK
  5
8E
330
8A
100
AcDbEntity
  8
0
100
AcDbBlockEnd
  0
BLOCK
  5
90
330
8F
100
AcDbEntity
  8
0
100
AcDbBlockBegin
  2
Bitumenmanschette
 70
     0
 10
20.98327056688589
 20
-563.243833023061
 30
0.0
  3
Bitumenmanschette
  1

  0
LINE
  5
1C2
330
8F
100
AcDbEntity
  8
1
  6
Continuous
 62
     7
100
AcDbLine
 10
-250.0000445062595
 20
-813.2438330230614
 30
0.0
 11
249.999955493741
 21
-813.2438330230614
 31
0.0
  0
LINE
  5
1C3
330
8F
100
AcDbEntity
  8
1
  6
Continuous
 62
     7
100
AcDbLine
 10
249.999955493741
 20
-813.2438330230614
 30
0.0
 11
249.999955493741
 21
-313.2438330230609
 31
0.0
  0
LINE
  5
1C4
330
8F
100
AcDbEntity
  8
1
  6
Continuous
 62
     7
100
AcDbLine
 10
249.999955493741
 20
-313.2438330230609
 30
0.0
 11
-250.0000445062595
 21
-313.2438330230609
 31
0.0
  0
LINE
  5
1C5
330
8F
100
AcDbEntity
  8
1
  6
Continuous
 62
     7
100
AcDbLine
 10
-250.0000445062595
 20
-313.2438330230609
 30
0.0
 11
-250.0000445062595
 21
-813.2438330230614
 31
0.0
  0
CIRCLE
  5
1C6
330
8F
100
AcDbEntity
  8
0
  6
Continuous
 62
     3
100
AcDbCircle
 10
-0.00004450625923
 20
-563.2438330230611
 30
0.0
 40
110.6643171948393
  0
ENDBLK
  5
91
330
8F
100
AcDbEntity
  8
0
100
AcDbBlockEnd
  0
BLOCK
  5
94
330
92
100
AcDbEntity
  8
0
100
AcDbBlockBegin
  2
HL62_1H_koerper
 70
     0
 10
20.98327056688589
 20
-563.243833023061
 30
0.0
  3
HL62_1H_koerper
  1

  0
INSERT
  5
93
330
92
100
AcDbEntity
  8
0
100
AcDbBlockReference
  2
Bitumenmanschette
 10
20.98327056688589
 20
-563.243833023061
 30
0.0
  0
ENDBLK
  5
95
330
92
100
AcDbEntity
  8
0
100
AcDbBlockEnd
  0
BLOCK
  5
98
330
96
100
AcDbEntity
  8
0
100
AcDbBlockBegin
  2
HL62B
 70
     0
 10
20.98327056688589
 20
-563.243833023061
 30
0.0
  3
HL62B
  1

  0
INSERT
  5
97
330
96
100
AcDbEntity
  8
0
100
AcDbBlockReference
  2
HL62_1H_koerper
 10
20.98327056688589
 20
-563.243833023061
 30
0.0
  0
ENDBLK
  5
99
330
96
100
AcDbEntity
  8
0
100
AcDbBlockEnd
  0
BLOCK
  5
9C
330
9A
100
AcDbEntity
  8
0
100
AcDbBlockBegin
  2
HL_62BH_1_DN110_Dachablauf
 70
     0
 10
20.98327056688589
 20
-563.243833023061
 30
0.0
  3
HL_62BH_1_DN110_Dachablauf
  1

  0
INSERT
  5
9B
330
9A
100
AcDbEntity
  8
0
100
AcDbBlockReference
  2
HL62B
 10
20.98327056688589
 20
-563.243833023061
 30
0.0
  0
ENDBLK
  5
9D
330
9A
100
AcDbEntity
  8
0
100
AcDbBlockEnd
  0
BLOCK
  5
A1
330
9E
100
AcDbEntity
  8
0
100
AcDbBlockBegin
  2
HL_64_1B_Flachdachablauf_DN75_110__6
 70
     0
 10
25.46708968505695
 20
-397.1612450726738
 30
0.0
  3
HL_64_1B_Flachdachablauf_DN75_110__6
  1

  0
INSERT
  5
9F
330
9E
100
AcDbEntity
  8
0
100
AcDbBlockReference
  2
HL_64B_Flachdachablauf
 10
25.29573873359348
 20
-118.9233667914451
 30
0.0
  0
INSERT
  5
A0
330
9E
100
AcDbEntity
  8
0
100
AcDbBlockReference
  2
HL_62BH_1_DN110_Dachablauf
 10
20.98327056688589
 20
-563.243833023061
 30
0.0
  0
DIMENSION
  5
1D2
330
9E
100
AcDbEntity
  8
1
100
AcDbDimension
280
     0
  2
*D26
 10
-192.3757748646486
 20
-213.3215855295123
 30
0.0
 11
-199.3757748646486
 21
-147.311926845907
 31
0.0
 70
    32
  1
<>
 71
     5
 42
-1.0
 73
     0
 74
     0
 75
     0
 53
90.0
  3
ME10_DIM_10
100
AcDbAlignedDimension
 13
-175.4999939999998
 23
-68.00064752951232
 33
0.0
 14
-33.306425
 24
-213.3215855295123
 34
0.0
 50
90.0
100
AcDbRotatedDimension
  0
DIMENSION
  5
1DD
330
9E
100
AcDbEntity
  8
1
100
AcDbDimension
280
     0
  2
*D27
 10
-192.3757748646486
 20
0.0
 30
0.0
 11
-199.3757748646486
 21
-34.13940139847603
 31
0.0
 70
    32
  1
<>
 71
     5
 42
-1.0
 73
     0
 74
     0
 75
     0
 53
90.0
  3
ME10_DIM_11
100
AcDbAlignedDimension
 13
-175.4999939999998
 23
-68.00064752951232
 33
0.0
 14
-73.5
 24
0.0
 34
0.0
 50
90.0
100
AcDbRotatedDimension
  0
DIMENSION
  5
1E8
330
9E
100
AcDbEntity
  8
1
100
AcDbDimension
280
     0
  2
*D28
 10
73.50000000000011
 20
10.91040988325403
 30
0.0
 11
-21.73788682057977
 21
17.91040988325403
 31
0.0
 70
    32
  1
150x150
 71
     5
 42
-1.0
 73
     0
 74
     0
 75
     0
 53
0.00013888888889
  3
ME10_DIM_12
100
AcDbAlignedDimension
 13
-73.5
 23
0.0
 33
0.0
 14
73.50000000000011
 24
0.0
 34
0.0
100
AcDbRotatedDimension
  0
DIMENSION
  5
1F3
330
9E
100
AcDbEntity
  8
1
100
AcDbDimension
280
     0
  2
*D29
 10
249.9327440000001
 20
31.9213428777137
 30
0.0
 11
11.68859748878822
 21
38.9213428777137
 31
0.0
 70
    32
  1
500x500
 71
     5
 42
-1.0
 73
     0
 74
     0
 75
     0
 53
0.00013888888889
  3
ME10_DIM_13
100
AcDbAlignedDimension
 13
-249.932744
 23
-64.00057034302529
 33
0.0
 14
249.9327440000001
 24
-64.00057034302529
 34
0.0
100
AcDbRotatedDimension
  0
DIMENSION
  5
1FE
330
9E
100
AcDbEntity
  8
1
100
AcDbDimension
280
     0
  2
*D30
 10
184.3079085977351
 20
-135.7780985999148
 30
0.0
 11
175.4221677076379
 21
-171.576871758896
 31
0.0
 70
    32
  1
DN75
 71
     5
 42
-1.0
 73
     0
 74
     0
 75
     0
 53
86.99999958006347
  3
ME10_DIM_14
100
AcDbAlignedDimension
 13
150.7523470000001
 23
-209.0803875295123
 33
0.0
 14
154.6753450000001
 24
-134.2251215295123
 34
0.0
 50
86.99999958006347
100
AcDbRotatedDimension
  0
DIMENSION
  5
209
330
9E
100
AcDbEntity
  8
1
100
AcDbDimension
280
     0
  2
*D31
 10
323.9369648068744
 20
-131.5930919985111
 30
0.0
 11
314.2393531035104
 21
-182.8832880907577
 31
0.0
 70
    32
  1
<>
 71
     5
 42
-1.0
 73
     0
 74
     0
 75
     0
 53
86.99999999425671
  3
ME10_DIM_15
100
AcDbAlignedDimension
 13
288.8308584671869
 23
-239.9042171500062
 33
0.0
 14
294.5878134671868
 24
-130.0549681500062
 34
0.0
 50
86.99999999425671
100
AcDbRotatedDimension
  0
ENDBLK
  5
A2
330
9E
100
AcDbEntity
  8
0
100
AcDbBlockEnd
  0
BLOCK
  5
A4
330
A3
100
AcDbEntity
  8
0
100
AcDbBlockBegin
  2
Reduzierung
 70
     0
 10
272.199572463036
 20
-563.2438330230611
 30
0.0
  3
Reduzierung
  1

  0
LINE
  5
20A
330
A3
100
AcDbEntity
  8
1
  6
Continuous
 62
     7
100
AcDbLine
 10
295.524221467187
 20
-618.2438330230611
 30
0.0
 11
295.524221467187
 21
-508.2438330230611
 31
0.0
  0
LINE
  5
20B
330
A3
100
AcDbEntity
  8
1
  6
Continuous
 62
     7
100
AcDbLine
 10
295.524221467187
 20
-618.2438330230611
 30
0.0
 11
249.9999554937409
 21
-618.2438330230611
 31
0.0
  0
LINE
  5
20C
330
A3
100
AcDbEntity
  8
1
  6
Continuous
 62
     7
100
AcDbLine
 10
300.524221467187
 20
-616.9040870609056
 30
0.0
 11
295.524221467187
 21
-618.2438330230611
 31
0.0
  0
LINE
  5
20D
330
A3
100
AcDbEntity
  8
1
  6
Continuous
 62
     7
100
AcDbLine
 10
300.524221467187
 20
-509.5835789852168
 30
0.0
 11
300.524221467187
 21
-616.9040870609056
 31
0.0
  0
LINE
  5
20E
330
A3
100
AcDbEntity
  8
1
  6
Continuous
 62
     7
100
AcDbLine
 10
295.524221467187
 20
-508.2438330230611
 30
0.0
 11
300.524221467187
 21
-509.5835789852168
 31
0.0
  0
LINE
  5
20F
330
A3
100
AcDbEntity
  8
1
  6
Continuous
 62
     7
100
AcDbLine
 10
249.999955493741
 20
-508.2438330230611
 30
0.0
 11
295.524221467187
 21
-508.2438330230611
 31
0.0
  0
ENDBLK
  5
A5
330
A3
100
AcDbEntity
  8
0
100
AcDbBlockEnd
  0
BLOCK
  5
A7
330
A6
100
AcDbEntity
  8
0
100
AcDbBlockBegin
  2
HL0317_1E_Einlaufrost
 70
     0
 10
-0.07346280597917
 20
-563.2218330230609
 30
0.0
  3
HL0317_1E_Einlaufrost
  1

  0
LINE
  5
210
330
A6
100
AcDbEntity
  8
0
  6
Continuous
 62
     3
100
AcDbLine
 10
-65.26146280597928
 20
-629.6998330230608
 30
0.0
 11
65.11453719402097
 21
-629.6998330230608
 31
0.0
  0
LINE
  5
211
330
A6
100
AcDbEntity
  8
0
  6
Continuous
 62
     7
100
AcDbLine
 10
65.11453719402097
 20
-632.1998330230608
 30
0.0
 11
-65.26146280597928
 21
-632.1998330230608
 31
0.0
  0
LINE
  5
212
330
A6
100
AcDbEntity
  8
0
  6
Continuous
 62
     3
100
AcDbLine
 10
65.11453719402094
 20
-496.7438330230608
 30
0.0
 11
-65.26146280597928
 21
-496.7438330230608
 31
0.0
  0
LINE
  5
213
330
A6
100
AcDbEntity
  8
0
  6
Continuous
 62
     3
100
AcDbLine
 10
-40.57346280598456
 20
-625.1998330231045
 30
0.0
 11
-40.57346280598456
 21
-622.6998330231045
 31
0.0
  0
LINE
  5
214
330
A6
100
AcDbEntity
  8
0
  6
Continuous
 62
     3
100
AcDbLine
 10
-46.57346280598456
 20
-619.1998330231045
 30
0.0
 11
-44.07346280598506
 21
-619.1998330231045
 31
0.0
  0
LINE
  5
215
330
A6
100
AcDbEntity
  8
0
  6
Continuous
 62
     3
100
AcDbLine
 10
-40.57346280598456
 20
-615.6998330231045
 30
0.0
 11
-40.57346280598456
 21
-613.1998330231045
 31
0.0
  0
LINE
  5
216
330
A6
100
AcDbEntity
  8
0
  6
Continuous
 62
     7
100
AcDbLine
 10
-40.57346280598456
 20
-622.6998330231045
 30
0.0
 11
40.42653719401542
 21
-622.6998330231049
 31
0.0
  0
LINE
  5
217
330
A6
100
AcDbEntity
  8
0
  6
Continuous
 62
     7
100
AcDbLine
 10
40.42653719401542
 20
-615.6998330230949
 30
0.0
 11
-40.57346280598456
 21
-615.6998330231045
 31
0.0
  0
LINE
  5
218
330
A6
100
AcDbEntity
  8
0
  6
Continuous
 62
     3
100
AcDbLine
 10
40.42653719401542
 20
-622.6998330231049
 30
0.0
 11
40.42653719401542
 21
-625.1998330231045
 31
0.0
  0
LINE
  5
219
330
A6
100
AcDbEntity
  8
0
  6
Continuous
 62
     3
100
AcDbLine
 10
40.42653719401542
 20
-613.1998330231045
 30
0.0
 11
40.42653719401542
 21
-615.6998330230949
 31
0.0
  0
LINE
  5
21A
330
A6
100
AcDbEntity
  8
0
  6
Continuous
 62
     3
100
AcDbLine
 10
46.42653719401541
 20
-619.1998330231045
 30
0.0
 11
43.92653719401541
 21
-619.1998330231045
 31
0.0
  0
LINE
  5
21B
330
A6
100
AcDbEntity
  8
0
  6
Continuous
 62
     3
100
AcDbLine
 10
17.90453719404276
 20
-571.7218330230853
 30
0.0
 11
17.90453719404276
 21
-554.7218330230853
 31
0.0
  0
LINE
  5
21C
330
A6
100
AcDbEntity
  8
0
  6
Continuous
 62
     7
100
AcDbLine
 10
20.40453719404139
 20
-554.7218330230853
 30
0.0
 11
20.40453719404276
 21
-571.7218330230853
 31
0.0
  0
LINE
  5
21D
330
A6
100
AcDbEntity
  8
0
  6
Continuous
 62
     7
100
AcDbLine
 10
-8.57346280597642
 20
-542.7438330230593
 30
0.0
 11
8.42653719402313
 21
-542.7438330230607
 31
0.0
  0
LINE
  5
21E
330
A6
100
AcDbEntity
  8
0
  6
Continuous
 62
     3
100
AcDbLine
 10
8.42653719402314
 20
-545.2438330230607
 30
0.0
 11
-8.57346280597642
 21
-545.2438330230607
 31
0.0
  0
LINE
  5
21F
330
A6
100
AcDbEntity
  8
0
  6
Continuous
 62
     3
100
AcDbLine
 10
24.4265371940245
 20
-529.2438330230607
 30
0.0
 11
-24.57346280597551
 21
-529.2438330230607
 31
0.0
  0
LINE
  5
220
330
A6
100
AcDbEntity
  8
0
  6
Continuous
 62
     3
100
AcDbLine
 10
-24.57346280598324
 20
-609.1998330231045
 30
0.0
 11
-24.57346280598324
 21
-606.6998330230899
 31
0.0
  0
LINE
  5
221
330
A6
100
AcDbEntity
  8
0
  6
Continuous
 62
     3
100
AcDbLine
 10
24.42653719401678
 20
-606.6998330231049
 30
0.0
 11
24.42653719401678
 21
-609.1998330231045
 31
0.0
  0
LINE
  5
222
330
A6
100
AcDbEntity
  8
0
  6
Continuous
 62
     3
100
AcDbLine
 10
30.42653719401678
 20
-603.1998330231045
 30
0.0
 11
27.92653719401678
 21
-603.1998330231045
 31
0.0
  0
LINE
  5
223
330
A6
100
AcDbEntity
  8
0
  6
Continuous
 62
     3
100
AcDbLine
 10
24.42653719401678
 20
-597.1998330231045
 30
0.0
 11
24.42653719401678
 21
-599.6998330231104
 31
0.0
  0
LINE
  5
224
330
A6
100
AcDbEntity
  8
0
  6
Continuous
 62
     3
100
AcDbLine
 10
-30.57346280598327
 20
-603.1998330231045
 30
0.0
 11
-28.07346280598233
 21
-603.1998330231045
 31
0.0
  0
LINE
  5
225
330
A6
100
AcDbEntity
  8
0
  6
Continuous
 62
     3
100
AcDbLine
 10
-24.57346280598324
 20
-599.6998330231049
 30
0.0
 11
-24.57346280598324
 21
-597.1998330231045
 31
0.0
  0
LINE
  5
226
330
A6
100
AcDbEntity
  8
0
  6
Continuous
 62
     3
100
AcDbLine
 10
-8.57346280598188
 20
-583.6998330231045
 30
0.0
 11
-8.57346280598188
 21
-581.1998330231045
 31
0.0
  0
LINE
  5
227
330
A6
100
AcDbEntity
  8
0
  6
Continuous
 62
     3
100
AcDbLine
 10
-8.57346280598188
 20
-581.1998330231045
 30
0.0
 11
8.42653719401813
 21
-581.1998330231045
 31
0.0
  0
LINE
  5
228
330
A6
100
AcDbEntity
  8
0
  6
Continuous
 62
     7
100
AcDbLine
 10
8.42653719401813
 20
-583.6998330231045
 30
0.0
 11
-8.57346280598188
 21
-583.6998330231045
 31
0.0
  0
LINE
  5
229
330
A6
100
AcDbEntity
  8
0
  6
Continuous
 62
     3
100
AcDbLine
 10
-14.57346280598187
 20
-587.1998330231045
 30
0.0
 11
-12.07346280598187
 21
-587.1998330231045
 31
0.0
  0
LINE
  5
22A
330
A6
100
AcDbEntity
  8
0
  6
Continuous
 62
     3
100
AcDbLine
 10
-8.57346280598188
 20
-590.6998330231045
 30
0.0
 11
-8.57346280598188
 21
-593.1998330231045
 31
0.0
  0
LINE
  5
22B
330
A6
100
AcDbEntity
  8
0
  6
Continuous
 62
     3
100
AcDbLine
 10
8.42653719401813
 20
-590.6998330231045
 30
0.0
 11
8.42653719401813
 21
-593.1998330231045
 31
0.0
  0
LINE
  5
22C
330
A6
100
AcDbEntity
  8
0
  6
Continuous
 62
     3
100
AcDbLine
 10
8.42653719401813
 20
-593.1998330231045
 30
0.0
 11
-8.57346280598188
 21
-593.1998330231045
 31
0.0
  0
LINE
  5
22D
330
A6
100
AcDbEntity
  8
0
  6
Continuous
 62
     7
100
AcDbLine
 10
-8.57346280598188
 20
-590.6998330231045
 30
0.0
 11
8.42653719401813
 21
-590.6998330231045
 31
0.0
  0
LINE
  5
22E
330
A6
100
AcDbEntity
  8
0
  6
Continuous
 62
     3
100
AcDbLine
 10
-24.57346280598324
 20
-597.1998330231045
 30
0.0
 11
24.42653719401678
 21
-597.1998330231045
 31
0.0
  0
LINE
  5
22F
330
A6
100
AcDbEntity
  8
0
  6
Continuous
 62
     3
100
AcDbLine
 10
24.42653719401678
 20
-609.1998330231045
 30
0.0
 11
-24.57346280598324
 21
-609.1998330231045
 31
0.0
  0
LINE
  5
230
330
A6
100
AcDbEntity
  8
0
  6
Continuous
 62
     7
100
AcDbLine
 10
-24.57346280598324
 20
-606.6998330230899
 30
0.0
 11
24.42653719401678
 21
-606.6998330231049
 31
0.0
  0
LINE
  5
231
330
A6
100
AcDbEntity
  8
0
  6
Continuous
 62
     7
100
AcDbLine
 10
24.42653719401678
 20
-599.6998330231104
 30
0.0
 11
-24.57346280598324
 21
-599.6998330231049
 31
0.0
  0
LINE
  5
232
330
A6
100
AcDbEntity
  8
0
  6
Continuous
 62
     3
100
AcDbLine
 10
40.42653719401542
 20
-625.1998330231045
 30
0.0
 11
-40.57346280598456
 21
-625.1998330231045
 31
0.0
  0
LINE
  5
233
330
A6
100
AcDbEntity
  8
0
  6
Continuous
 62
     3
100
AcDbLine
 10
-40.57346280598456
 20
-613.1998330231045
 30
0.0
 11
40.42653719401542
 21
-613.1998330231045
 31
0.0
  0
LINE
  5
234
330
A6
100
AcDbEntity
  8
0
  6
Continuous
 62
     3
100
AcDbLine
 10
33.90453719404276
 20
-538.7218330230862
 30
0.0
 11
36.40453719403775
 21
-538.7218330230862
 31
0.0
  0
LINE
  5
235
330
A6
100
AcDbEntity
  8
0
  6
Continuous
 62
     3
100
AcDbLine
 10
49.90453719404275
 20
-522.7218330230883
 30
0.0
 11
52.40453719404707
 21
-522.7218330230883
 31
0.0
  0
LINE
  5
236
330
A6
100
AcDbEntity
  8
0
  6
Continuous
 62
     3
100
AcDbLine
 10
55.90453719404276
 20
-516.7218330230883
 30
0.0
 11
55.90453719404276
 21
-519.2218330230883
 31
0.0
  0
LINE
  5
237
330
A6
100
AcDbEntity
  8
0
  6
Continuous
 62
     3
100
AcDbLine
 10
66.40453719402092
 20
-628.4098330230609
 30
0.0
 11
66.4045371940209
 21
-498.0338330230609
 31
0.0
  0
LINE
  5
238
330
A6
100
AcDbEntity
  8
0
  6
Continuous
 62
     3
100
AcDbLine
 10
14.42653719401813
 20
-587.1998330231045
 30
0.0
 11
11.92653719401813
 21
-587.1998330231045
 31
0.0
  0
LINE
  5
239
330
A6
100
AcDbEntity
  8
0
  6
Continuous
 62
     3
100
AcDbLine
 10
8.42653719401813
 20
-581.1998330231045
 30
0.0
 11
8.42653719401813
 21
-583.6998330231045
 31
0.0
  0
LINE
  5
23A
330
A6
100
AcDbEntity
  8
0
  6
Continuous
 62
     3
100
AcDbLine
 10
55.90453719404277
 20
-609.721833023088
 30
0.0
 11
55.90453719404276
 21
-607.2218330230885
 31
0.0
  0
LINE
  5
23B
330
A6
100
AcDbEntity
  8
0
  6
Continuous
 62
     3
100
AcDbLine
 10
49.90453719404275
 20
-603.721833023088
 30
0.0
 11
52.40453719404275
 21
-603.721833023088
 31
0.0
  0
LINE
  5
23C
330
A6
100
AcDbEntity
  8
0
  6
Continuous
 62
     3
100
AcDbLine
 10
33.90453719404276
 20
-587.7218330230862
 30
0.0
 11
36.40453719404276
 21
-587.7218330230862
 31
0.0
  0
LINE
  5
23D
330
A6
100
AcDbEntity
  8
0
  6
Continuous
 62
     3
100
AcDbLine
 10
39.90453719404276
 20
-593.7218330230862
 30
0.0
 11
39.90453719404275
 21
-591.2218330230867
 31
0.0
  0
LINE
  5
23E
330
A6
100
AcDbEntity
  8
0
  6
Continuous
 62
     3
100
AcDbLine
 10
59.40453719404274
 20
-522.7218330230883
 30
0.0
 11
61.90453719404274
 21
-522.7218330230883
 31
0.0
  0
LINE
  5
23F
330
A6
100
AcDbEntity
  8
0
  6
Continuous
 62
     3
100
AcDbLine
 10
29.90453719404276
 20
-554.7218330230853
 30
0.0
 11
29.90453719404276
 21
-571.7218330230853
 31
0.0
  0
LINE
  5
240
330
A6
100
AcDbEntity
  8
0
  6
Continuous
 62
     3
100
AcDbLine
 10
43.40453719404298
 20
-538.7218330230862
 30
0.0
 11
45.90453719404275
 21
-538.7218330230862
 31
0.0
  0
LINE
  5
241
330
A6
100
AcDbEntity
  8
0
  6
Continuous
 62
     3
100
AcDbLine
 10
45.90453719404275
 20
-538.7218330230862
 30
0.0
 11
45.90453719404276
 21
-587.7218330230862
 31
0.0
  0
LINE
  5
242
330
A6
100
AcDbEntity
  8
0
  6
Continuous
 62
     7
100
AcDbLine
 10
43.40453719404275
 20
-587.7218330230862
 30
0.0
 11
43.40453719404298
 21
-538.7218330230862
 31
0.0
  0
LINE
  5
243
330
A6
100
AcDbEntity
  8
0
  6
Continuous
 62
     3
100
AcDbLine
 10
45.90453719404276
 20
-587.7218330230862
 30
0.0
 11
43.40453719404275
 21
-587.7218330230862
 31
0.0
  0
LINE
  5
244
330
A6
100
AcDbEntity
  8
0
  6
Continuous
 62
     3
100
AcDbLine
 10
61.90453719404276
 20
-603.721833023088
 30
0.0
 11
59.40453719404844
 21
-603.721833023088
 31
0.0
  0
LINE
  5
245
330
A6
100
AcDbEntity
  8
0
  6
Continuous
 62
     3
100
AcDbLine
 10
61.90453719404274
 20
-522.7218330230883
 30
0.0
 11
61.90453719404276
 21
-603.721833023088
 31
0.0
  0
LINE
  5
246
330
A6
100
AcDbEntity
  8
0
  6
Continuous
 62
     3
100
AcDbLine
 10
39.90453719404275
 20
-532.7218330230862
 30
0.0
 11
39.90453719404275
 21
-535.2218330230862
 31
0.0
  0
LINE
  5
247
330
A6
100
AcDbEntity
  8
0
  6
Continuous
 62
     3
100
AcDbLine
 10
29.90453719404276
 20
-571.7218330230853
 30
0.0
 11
27.40453719404139
 21
-571.7218330230853
 31
0.0
  0
LINE
  5
248
330
A6
100
AcDbEntity
  8
0
  6
Continuous
 62
     3
100
AcDbLine
 10
29.90453719404276
 20
-554.7218330230853
 30
0.0
 11
27.40453719404254
 21
-554.7218330230853
 31
0.0
  0
LINE
  5
249
330
A6
100
AcDbEntity
  8
0
  6
Continuous
 62
     7
100
AcDbLine
 10
27.40453719404139
 20
-571.7218330230853
 30
0.0
 11
27.40453719404254
 21
-554.7218330230853
 31
0.0
  0
LINE
  5
24A
330
A6
100
AcDbEntity
  8
0
  6
Continuous
 62
     3
100
AcDbLine
 10
17.90453719404276
 20
-571.7218330230853
 30
0.0
 11
20.40453719404276
 21
-571.7218330230853
 31
0.0
  0
LINE
  5
24B
330
A6
100
AcDbEntity
  8
0
  6
Continuous
 62
     3
100
AcDbLine
 10
23.90453719404276
 20
-577.7218330230853
 30
0.0
 11
23.90453719404276
 21
-575.2218330230849
 31
0.0
  0
LINE
  5
24C
330
A6
100
AcDbEntity
  8
0
  6
Continuous
 62
     3
100
AcDbLine
 10
33.90453719404276
 20
-587.7218330230862
 30
0.0
 11
33.90453719404276
 21
-538.7218330230862
 31
0.0
  0
LINE
  5
24D
330
A6
100
AcDbEntity
  8
0
  6
Continuous
 62
     7
100
AcDbLine
 10
36.40453719403775
 20
-538.7218330230862
 30
0.0
 11
36.40453719404276
 21
-587.7218330230862
 31
0.0
  0
LINE
  5
24E
330
A6
100
AcDbEntity
  8
0
  6
Continuous
 62
     3
100
AcDbLine
 10
49.90453719404275
 20
-603.721833023088
 30
0.0
 11
49.90453719404275
 21
-522.7218330230883
 31
0.0
  0
LINE
  5
24F
330
A6
100
AcDbEntity
  8
0
  6
Continuous
 62
     7
100
AcDbLine
 10
68.90453719402092
 20
-498.0338330230609
 30
0.0
 11
68.90453719402093
 21
-628.4098330230609
 31
0.0
  0
LINE
  5
250
330
A6
100
AcDbEntity
  8
0
  6
Continuous
 62
     3
100
AcDbLine
 10
-24.57346280597551
 20
-529.2438330230607
 30
0.0
 11
-24.57346280597551
 21
-526.7438330230611
 31
0.0
  0
LINE
  5
251
330
A6
100
AcDbEntity
  8
0
  6
Continuous
 62
     3
100
AcDbLine
 10
-18.05146280600104
 20
-571.7218330230799
 30
0.0
 11
-20.55146280600195
 21
-571.7218330230799
 31
0.0
  0
LINE
  5
252
330
A6
100
AcDbEntity
  8
0
  6
Continuous
 62
     3
100
AcDbLine
 10
-18.05146280600104
 20
-554.7218330230799
 30
0.0
 11
-18.05146280600104
 21
-571.7218330230799
 31
0.0
  0
LINE
  5
253
330
A6
100
AcDbEntity
  8
0
  6
Continuous
 62
     7
100
AcDbLine
 10
-20.55146280600195
 20
-571.7218330230799
 30
0.0
 11
-20.55146280600195
 21
-554.7218330230799
 31
0.0
  0
LINE
  5
254
330
A6
100
AcDbEntity
  8
0
  6
Continuous
 62
     3
100
AcDbLine
 10
-8.57346280597642
 20
-545.2438330230607
 30
0.0
 11
-8.57346280597642
 21
-542.7438330230593
 31
0.0
  0
LINE
  5
255
330
A6
100
AcDbEntity
  8
0
  6
Continuous
 62
     3
100
AcDbLine
 10
-14.57346280597642
 20
-539.2438330230607
 30
0.0
 11
-12.07346280597642
 21
-539.2438330230607
 31
0.0
  0
LINE
  5
256
330
A6
100
AcDbEntity
  8
0
  6
Continuous
 62
     3
100
AcDbLine
 10
-34.05146280600087
 20
-587.721833023079
 30
0.0
 11
-36.55146280600536
 21
-587.721833023079
 31
0.0
  0
LINE
  5
257
330
A6
100
AcDbEntity
  8
0
  6
Continuous
 62
     3
100
AcDbLine
 10
-34.05146280600107
 20
-538.721833023079
 30
0.0
 11
-34.05146280600087
 21
-587.721833023079
 31
0.0
  0
LINE
  5
258
330
A6
100
AcDbEntity
  8
0
  6
Continuous
 62
     7
100
AcDbLine
 10
-36.55146280600536
 20
-587.721833023079
 30
0.0
 11
-36.55146280600087
 21
-538.721833023079
 31
0.0
  0
LINE
  5
259
330
A6
100
AcDbEntity
  8
0
  6
Continuous
 62
     3
100
AcDbLine
 10
-40.05146280600107
 20
-593.7218330230794
 30
0.0
 11
-40.05146280600107
 21
-591.2218330230794
 31
0.0
  0
LINE
  5
25A
330
A6
100
AcDbEntity
  8
0
  6
Continuous
 62
     7
100
AcDbLine
 10
-27.5514628059999
 20
-554.7218330230799
 30
0.0
 11
-27.55146280600081
 21
-571.7218330230799
 31
0.0
  0
LINE
  5
25B
330
A6
100
AcDbEntity
  8
0
  6
Continuous
 62
     3
100
AcDbLine
 10
-30.05146280600107
 20
-571.7218330230799
 30
0.0
 11
-27.55146280600081
 21
-571.7218330230799
 31
0.0
  0
LINE
  5
25C
330
A6
100
AcDbEntity
  8
0
  6
Continuous
 62
     7
100
AcDbLine
 10
-52.55146280600147
 20
-603.7218330230771
 30
0.0
 11
-52.55146280600147
 21
-522.7218330230771
 31
0.0
  0
LINE
  5
25D
330
A6
100
AcDbEntity
  8
0
  6
Continuous
 62
     3
100
AcDbLine
 10
-46.05146280600107
 20
-538.721833023079
 30
0.0
 11
-43.55146280600467
 21
-538.721833023079
 31
0.0
  0
LINE
  5
25E
330
A6
100
AcDbEntity
  8
0
  6
Continuous
 62
     3
100
AcDbLine
 10
-46.05146280600128
 20
-587.721833023079
 30
0.0
 11
-43.55146280600107
 21
-587.721833023079
 31
0.0
  0
LINE
  5
25F
330
A6
100
AcDbEntity
  8
0
  6
Continuous
 62
     3
100
AcDbLine
 10
-18.05146280600104
 20
-554.7218330230799
 30
0.0
 11
-20.55146280600195
 21
-554.7218330230799
 31
0.0
  0
LINE
  5
260
330
A6
100
AcDbEntity
  8
0
  6
Continuous
 62
     3
100
AcDbLine
 10
-30.05146280600107
 20
-571.7218330230799
 30
0.0
 11
-30.05146280600107
 21
-554.7218330230799
 31
0.0
  0
LINE
  5
261
330
A6
100
AcDbEntity
  8
0
  6
Continuous
 62
     7
100
AcDbLine
 10
-43.55146280600467
 20
-538.721833023079
 30
0.0
 11
-43.55146280600107
 21
-587.721833023079
 31
0.0
  0
LINE
  5
262
330
A6
100
AcDbEntity
  8
0
  6
Continuous
 62
     3
100
AcDbLine
 10
-24.05146280600104
 20
-548.7218330230799
 30
0.0
 11
-24.05146280600104
 21
-551.2218330230799
 31
0.0
  0
LINE
  5
263
330
A6
100
AcDbEntity
  8
0
  6
Continuous
 62
     3
100
AcDbLine
 10
-30.05146280600107
 20
-554.7218330230799
 30
0.0
 11
-27.5514628059999
 21
-554.7218330230799
 31
0.0
  0
LINE
  5
264
330
A6
100
AcDbEntity
  8
0
  6
Continuous
 62
     3
100
AcDbLine
 10
-34.05146280600107
 20
-538.721833023079
 30
0.0
 11
-36.55146280600087
 21
-538.721833023079
 31
0.0
  0
LINE
  5
265
330
A6
100
AcDbEntity
  8
0
  6
Continuous
 62
     3
100
AcDbLine
 10
-46.05146280600128
 20
-587.721833023079
 30
0.0
 11
-46.05146280600107
 21
-538.721833023079
 31
0.0
  0
LINE
  5
266
330
A6
100
AcDbEntity
  8
0
  6
Continuous
 62
     3
100
AcDbLine
 10
-40.05146280600107
 20
-532.721833023079
 30
0.0
 11
-40.05146280600107
 21
-535.221833023079
 31
0.0
  0
LINE
  5
267
330
A6
100
AcDbEntity
  8
0
  6
Continuous
 62
     3
100
AcDbLine
 10
-62.05146280600128
 20
-603.7218330230771
 30
0.0
 11
-62.05146280600128
 21
-522.7218330230771
 31
0.0
  0
LINE
  5
268
330
A6
100
AcDbEntity
  8
0
  6
Continuous
 62
     7
100
AcDbLine
 10
-59.55146280600266
 20
-522.7218330230771
 30
0.0
 11
-59.55146280600128
 21
-603.7218330230771
 31
0.0
  0
LINE
  5
269
330
A6
100
AcDbEntity
  8
0
  6
Continuous
 62
     3
100
AcDbLine
 10
-50.05146280600128
 20
-522.7218330230771
 30
0.0
 11
-50.05146280600128
 21
-603.7218330230771
 31
0.0
  0
LINE
  5
26A
330
A6
100
AcDbEntity
  8
0
  6
Continuous
 62
     3
100
AcDbLine
 10
-56.05146280600128
 20
-516.7218330230776
 30
0.0
 11
-56.05146280600128
 21
-519.2218330230776
 31
0.0
  0
LINE
  5
26B
330
A6
100
AcDbEntity
  8
0
  6
Continuous
 62
     3
100
AcDbLine
 10
-52.55146280600147
 20
-522.7218330230771
 30
0.0
 11
-50.05146280600128
 21
-522.7218330230771
 31
0.0
  0
LINE
  5
26C
330
A6
100
AcDbEntity
  8
0
  6
Continuous
 62
     3
100
AcDbLine
 10
-62.05146280600128
 20
-522.7218330230771
 30
0.0
 11
-59.55146280600266
 21
-522.7218330230771
 31
0.0
  0
LINE
  5
26D
330
A6
100
AcDbEntity
  8
0
  6
Continuous
 62
     3
100
AcDbLine
 10
-24.05146280600104
 20
-577.7218330230799
 30
0.0
 11
-24.05146280600104
 21
-575.2218330230799
 31
0.0
  0
LINE
  5
26E
330
A6
100
AcDbEntity
  8
0
  6
Continuous
 62
     3
100
AcDbLine
 10
-56.05146280600128
 20
-609.7218330230771
 30
0.0
 11
-56.05146280600128
 21
-607.2218330230771
 31
0.0
  0
LINE
  5
26F
330
A6
100
AcDbEntity
  8
0
  6
Continuous
 62
     3
100
AcDbLine
 10
-62.05146280600128
 20
-603.7218330230771
 30
0.0
 11
-59.55146280600128
 21
-603.7218330230771
 31
0.0
  0
LINE
  5
270
330
A6
100
AcDbEntity
  8
0
  6
Continuous
 62
     3
100
AcDbLine
 10
-50.05146280600128
 20
-603.7218330230771
 30
0.0
 11
-52.55146280600147
 21
-603.7218330230771
 31
0.0
  0
LINE
  5
271
330
A6
100
AcDbEntity
  8
0
  6
Continuous
 62
     7
100
AcDbLine
 10
-69.05146280597896
 20
-628.4098330230609
 30
0.0
 11
-69.05146280597927
 21
-498.0338330230609
 31
0.0
  0
LINE
  5
272
330
A6
100
AcDbEntity
  8
0
  6
Continuous
 62
     3
100
AcDbLine
 10
-66.55146280597927
 20
-498.0338330230609
 30
0.0
 11
-66.55146280597927
 21
-628.4098330230609
 31
0.0
  0
LINE
  5
273
330
A6
100
AcDbEntity
  8
0
  6
Continuous
 62
     3
100
AcDbLine
 10
23.90453719404276
 20
-548.7218330230853
 30
0.0
 11
23.90453719404276
 21
-551.2218330230853
 31
0.0
  0
LINE
  5
274
330
A6
100
AcDbEntity
  8
0
  6
Continuous
 62
     3
100
AcDbLine
 10
17.90453719404276
 20
-554.7218330230853
 30
0.0
 11
20.40453719404139
 21
-554.7218330230853
 31
0.0
  0
LINE
  5
275
330
A6
100
AcDbEntity
  8
0
  6
Continuous
 62
     3
100
AcDbLine
 10
-30.57346280597546
 20
-523.2438330230607
 30
0.0
 11
-28.07346280597551
 21
-523.2438330230607
 31
0.0
  0
LINE
  5
276
330
A6
100
AcDbEntity
  8
0
  6
Continuous
 62
     7
100
AcDbLine
 10
-24.57346280597551
 20
-526.7438330230611
 30
0.0
 11
24.42653719402449
 21
-526.7438330230611
 31
0.0
  0
LINE
  5
277
330
A6
100
AcDbEntity
  8
0
  6
Continuous
 62
     3
100
AcDbLine
 10
-40.57346280597366
 20
-510.7438330230607
 30
0.0
 11
-40.57346280597366
 21
-513.2438330230607
 31
0.0
  0
LINE
  5
278
330
A6
100
AcDbEntity
  8
0
  6
Continuous
 62
     3
100
AcDbLine
 10
40.42653719402633
 20
-513.2438330230607
 30
0.0
 11
-40.57346280597366
 21
-513.2438330230607
 31
0.0
  0
LINE
  5
279
330
A6
100
AcDbEntity
  8
0
  6
Continuous
 62
     3
100
AcDbLine
 10
40.42653719402633
 20
-513.2438330230607
 30
0.0
 11
40.42653719402633
 21
-510.7438330230607
 31
0.0
  0
LINE
  5
27A
330
A6
100
AcDbEntity
  8
0
  6
Continuous
 62
     3
100
AcDbLine
 10
46.42653719402633
 20
-507.2438330230608
 30
0.0
 11
43.92653719402633
 21
-507.2438330230608
 31
0.0
  0
LINE
  5
27B
330
A6
100
AcDbEntity
  8
0
  6
Continuous
 62
     3
100
AcDbLine
 10
-46.57346280597366
 20
-507.2438330230608
 30
0.0
 11
-44.07346280597366
 21
-507.2438330230608
 31
0.0
  0
LINE
  5
27C
330
A6
100
AcDbEntity
  8
0
  6
Continuous
 62
     3
100
AcDbLine
 10
-24.57346280597551
 20
-519.7438330230609
 30
0.0
 11
-24.57346280597551
 21
-517.2438330230607
 31
0.0
  0
LINE
  5
27D
330
A6
100
AcDbEntity
  8
0
  6
Continuous
 62
     3
100
AcDbLine
 10
-8.57346280597642
 20
-533.2438330230607
 30
0.0
 11
8.42653719402313
 21
-533.2438330230607
 31
0.0
  0
LINE
  5
27E
330
A6
100
AcDbEntity
  8
0
  6
Continuous
 62
     3
100
AcDbLine
 10
-24.57346280597551
 20
-517.2438330230607
 30
0.0
 11
24.4265371940245
 21
-517.2438330230607
 31
0.0
  0
LINE
  5
27F
330
A6
100
AcDbEntity
  8
0
  6
Continuous
 62
     3
100
AcDbLine
 10
24.42653719402449
 20
-526.7438330230611
 30
0.0
 11
24.4265371940245
 21
-529.2438330230607
 31
0.0
  0
LINE
  5
280
330
A6
100
AcDbEntity
  8
0
  6
Continuous
 62
     3
100
AcDbLine
 10
30.4265371940245
 20
-523.2438330230607
 30
0.0
 11
27.92653719402496
 21
-523.2438330230607
 31
0.0
  0
LINE
  5
281
330
A6
100
AcDbEntity
  8
0
  6
Continuous
 62
     3
100
AcDbLine
 10
-8.57346280597642
 20
-535.7438330230611
 30
0.0
 11
-8.57346280597642
 21
-533.2438330230607
 31
0.0
  0
LINE
  5
282
330
A6
100
AcDbEntity
  8
0
  6
Continuous
 62
     3
100
AcDbLine
 10
8.42653719402313
 20
-542.7438330230607
 30
0.0
 11
8.42653719402314
 21
-545.2438330230607
 31
0.0
  0
LINE
  5
283
330
A6
100
AcDbEntity
  8
0
  6
Continuous
 62
     7
100
AcDbLine
 10
8.42653719402313
 20
-535.7438330230557
 30
0.0
 11
-8.57346280597642
 21
-535.7438330230611
 31
0.0
  0
LINE
  5
284
330
A6
100
AcDbEntity
  8
0
  6
Continuous
 62
     7
100
AcDbLine
 10
24.4265371940245
 20
-519.7438330230552
 30
0.0
 11
-24.57346280597551
 21
-519.7438330230609
 31
0.0
  0
LINE
  5
285
330
A6
100
AcDbEntity
  8
0
  6
Continuous
 62
     3
100
AcDbLine
 10
-40.57346280597366
 20
-501.2438330230608
 30
0.0
 11
-40.57346280597366
 21
-503.7438330230609
 31
0.0
  0
LINE
  5
286
330
A6
100
AcDbEntity
  8
0
  6
Continuous
 62
     3
100
AcDbLine
 10
8.42653719402313
 20
-533.2438330230607
 30
0.0
 11
8.42653719402313
 21
-535.7438330230557
 31
0.0
  0
LINE
  5
287
330
A6
100
AcDbEntity
  8
0
  6
Continuous
 62
     3
100
AcDbLine
 10
14.42653719402314
 20
-539.2438330230607
 30
0.0
 11
11.92653719402381
 21
-539.2438330230607
 31
0.0
  0
LINE
  5
288
330
A6
100
AcDbEntity
  8
0
  6
Continuous
 62
     3
100
AcDbLine
 10
40.42653719402633
 20
-501.2438330230608
 30
0.0
 11
40.42653719402633
 21
-503.7438330230608
 31
0.0
  0
LINE
  5
289
330
A6
100
AcDbEntity
  8
0
  6
Continuous
 62
     3
100
AcDbLine
 10
24.4265371940245
 20
-517.2438330230607
 30
0.0
 11
24.4265371940245
 21
-519.7438330230552
 31
0.0
  0
LINE
  5
28A
330
A6
100
AcDbEntity
  8
0
  6
Continuous
 62
     7
100
AcDbLine
 10
40.42653719402633
 20
-503.7438330230608
 30
0.0
 11
-40.57346280597366
 21
-503.7438330230609
 31
0.0
  0
LINE
  5
28B
330
A6
100
AcDbEntity
  8
0
  6
Continuous
 62
     7
100
AcDbLine
 10
-40.57346280597366
 20
-510.7438330230607
 30
0.0
 11
40.42653719402633
 21
-510.7438330230607
 31
0.0
  0
LINE
  5
28C
330
A6
100
AcDbEntity
  8
0
  6
Continuous
 62
     3
100
AcDbLine
 10
-40.57346280597366
 20
-501.2438330230608
 30
0.0
 11
40.42653719402633
 21
-501.2438330230608
 31
0.0
  0
LINE
  5
28D
330
A6
100
AcDbEntity
  8
0
  6
Continuous
 62
     7
100
AcDbLine
 10
-65.26146280597928
 20
-494.2438330230611
 30
0.0
 11
65.11453719402095
 21
-494.2438330230609
 31
0.0
  0
LINE
  5
28E
330
A6
100
AcDbEntity
  8
0
  6
Continuous
 62
     3
100
AcDbLine
 10
-66.17363055370987
 20
-497.1216652753302
 30
0.0
 11
-67.94139750667577
 21
-495.3538983223643
 31
0.0
  0
LINE
  5
28F
330
A6
100
AcDbEntity
  8
0
  6
Continuous
 62
     3
100
AcDbLine
 10
-65.26146280597928
 20
-494.2438330230611
 30
0.0
 11
-65.26146280597928
 21
-496.7438330230608
 31
0.0
  0
LINE
  5
290
330
A6
100
AcDbEntity
  8
0
  6
Continuous
 62
     3
100
AcDbLine
 10
-66.55146280597927
 20
-498.0338330230609
 30
0.0
 11
-69.05146280597927
 21
-498.0338330230609
 31
0.0
  0
LINE
  5
291
330
A6
100
AcDbEntity
  8
0
  6
Continuous
 62
     3
100
AcDbLine
 10
66.02670494175152
 20
-497.1216652753302
 30
0.0
 11
67.79447189471796
 21
-495.3538983223639
 31
0.0
  0
LINE
  5
292
330
A6
100
AcDbEntity
  8
0
  6
Continuous
 62
     3
100
AcDbLine
 10
68.90453719402092
 20
-498.0338330230609
 30
0.0
 11
66.4045371940209
 21
-498.0338330230609
 31
0.0
  0
LINE
  5
293
330
A6
100
AcDbEntity
  8
0
  6
Continuous
 62
     3
100
AcDbLine
 10
65.11453719402095
 20
-494.2438330230609
 30
0.0
 11
65.11453719402094
 21
-496.7438330230608
 31
0.0
  0
LINE
  5
294
330
A6
100
AcDbEntity
  8
0
  6
Continuous
 62
     7
100
AcDbLine
 10
52.40453719404707
 20
-522.7218330230883
 30
0.0
 11
52.40453719404275
 21
-603.721833023088
 31
0.0
  0
LINE
  5
295
330
A6
100
AcDbEntity
  8
0
  6
Continuous
 62
     7
100
AcDbLine
 10
59.40453719404844
 20
-603.721833023088
 30
0.0
 11
59.40453719404274
 21
-522.7218330230883
 31
0.0
  0
LINE
  5
296
330
A6
100
AcDbEntity
  8
0
  6
Continuous
 62
     3
100
AcDbLine
 10
65.11453719402097
 20
-632.1998330230608
 30
0.0
 11
65.11453719402097
 21
-629.6998330230608
 31
0.0
  0
LINE
  5
297
330
A6
100
AcDbEntity
  8
0
  6
Continuous
 62
     3
100
AcDbLine
 10
66.02670494175155
 20
-629.3220007707914
 30
0.0
 11
67.79447189471819
 21
-631.0897677237581
 31
0.0
  0
LINE
  5
298
330
A6
100
AcDbEntity
  8
0
  6
Continuous
 62
     3
100
AcDbLine
 10
66.40453719402092
 20
-628.4098330230609
 30
0.0
 11
68.90453719402093
 21
-628.4098330230609
 31
0.0
  0
LINE
  5
299
330
A6
100
AcDbEntity
  8
0
  6
Continuous
 62
     3
100
AcDbLine
 10
-66.17363055370987
 20
-629.3220007707914
 30
0.0
 11
-67.94139750667577
 21
-631.0897677237576
 31
0.0
  0
LINE
  5
29A
330
A6
100
AcDbEntity
  8
0
  6
Continuous
 62
     3
100
AcDbLine
 10
-65.26146280597928
 20
-629.6998330230608
 30
0.0
 11
-65.26146280597928
 21
-632.1998330230608
 31
0.0
  0
LINE
  5
29B
330
A6
100
AcDbEntity
  8
0
  6
Continuous
 62
     3
100
AcDbLine
 10
-69.05146280597896
 20
-628.4098330230609
 30
0.0
 11
-66.55146280597927
 21
-628.4098330230609
 31
0.0
  0
ARC
  5
29C
330
A6
100
AcDbEntity
  8
0
  6
Continuous
 62
     3
100
AcDbCircle
 10
-40.57346280598456
 20
-619.1998330231049
 30
0.0
 40
6.0
100
AcDbArc
 50
179.9999999999957
 51
270.0
  0
ARC
  5
29D
330
A6
100
AcDbEntity
  8
0
  6
Continuous
 62
     7
100
AcDbCircle
 10
-40.57346280598456
 20
-619.1998330231049
 30
0.0
 40
3.500000000000497
100
AcDbArc
 50
179.9999999999926
 51
270.0
  0
ARC
  5
29E
330
A6
100
AcDbEntity
  8
0
  6
Continuous
 62
     7
100
AcDbCircle
 10
-40.57346280598456
 20
-619.1998330231049
 30
0.0
 40
3.500000000000455
100
AcDbArc
 50
90.0
 51
179.9999999999926
  0
ARC
  5
29F
330
A6
100
AcDbEntity
  8
0
  6
Continuous
 62
     3
100
AcDbCircle
 10
40.42653719401537
 20
-619.1998330231045
 30
0.0
 40
6.000000000000043
100
AcDbArc
 50
0.0
 51
89.99999999999953
  0
ARC
  5
2A0
330
A6
100
AcDbEntity
  8
0
  6
Continuous
 62
     7
100
AcDbCircle
 10
40.42653719401064
 20
-619.1998330230999
 30
0.0
 40
3.500000000004768
100
AcDbArc
 50
359.9999999999255
 51
89.99999999992183
  0
ARC
  5
2A1
330
A6
100
AcDbEntity
  8
0
  6
Continuous
 62
     7
100
AcDbCircle
 10
40.42653719401537
 20
-619.1998330231045
 30
0.0
 40
3.500000000000455
100
AcDbArc
 50
270.0000000000008
 51
0.0
  0
ARC
  5
2A2
330
A6
100
AcDbEntity
  8
0
  6
Continuous
 62
     3
100
AcDbCircle
 10
40.42653719401537
 20
-619.1998330231045
 30
0.0
 40
6.0
100
AcDbArc
 50
270.0000000000005
 51
0.0
  0
ARC
  5
2A3
330
A6
100
AcDbEntity
  8
0
  6
Continuous
 62
     3
100
AcDbCircle
 10
-24.57346280598324
 20
-603.1998330231045
 30
0.0
 40
6.000000000000028
100
AcDbArc
 50
180.0
 51
270.0
  0
ARC
  5
2A4
330
A6
100
AcDbEntity
  8
0
  6
Continuous
 62
     7
100
AcDbCircle
 10
23.90453719404298
 20
-554.7218330230853
 30
0.0
 40
3.499999999999559
100
AcDbArc
 50
0.0
 51
90.00000000000362
  0
ARC
  5
2A5
330
A6
100
AcDbEntity
  8
0
  6
Continuous
 62
     3
100
AcDbCircle
 10
23.90453719404298
 20
-554.7218330230853
 30
0.0
 40
5.99999999999978
100
AcDbArc
 50
0.0
 51
90.00000000000212
  0
ARC
  5
2A6
330
A6
100
AcDbEntity
  8
0
  6
Continuous
 62
     7
100
AcDbCircle
 10
-8.57346280597687
 20
-539.2438330230611
 30
0.0
 40
3.5
100
AcDbArc
 50
89.99999999999255
 51
179.9999999999926
  0
ARC
  5
2A7
330
A6
100
AcDbEntity
  8
0
  6
Continuous
 62
     3
100
AcDbCircle
 10
-8.57346280597687
 20
-539.2438330230611
 30
0.0
 40
6.000000000000455
100
AcDbArc
 50
89.99999999999567
 51
179.9999999999957
  0
ARC
  5
2A8
330
A6
100
AcDbEntity
  8
0
  6
Continuous
 62
     7
100
AcDbCircle
 10
24.42653719401678
 20
-603.1998330231045
 30
0.0
 40
3.500000000000455
100
AcDbArc
 50
270.0
 51
0.0
  0
ARC
  5
2A9
330
A6
100
AcDbEntity
  8
0
  6
Continuous
 62
     7
100
AcDbCircle
 10
24.42653719401964
 20
-603.1998330231072
 30
0.0
 40
3.49999999999714
100
AcDbArc
 50
0.00000000004467
 51
90.00000000004682
  0
ARC
  5
2AA
330
A6
100
AcDbEntity
  8
0
  6
Continuous
 62
     3
100
AcDbCircle
 10
24.42653719401678
 20
-603.1998330231045
 30
0.0
 40
6.0
100
AcDbArc
 50
0.0
 51
90.0
  0
ARC
  5
2AB
330
A6
100
AcDbEntity
  8
0
  6
Continuous
 62
     3
100
AcDbCircle
 10
24.42653719401678
 20
-603.1998330231045
 30
0.0
 40
6.0
100
AcDbArc
 50
270.0
 51
0.0
  0
ARC
  5
2AC
330
A6
100
AcDbEntity
  8
0
  6
Continuous
 62
     3
100
AcDbCircle
 10
-24.57346280598324
 20
-603.1998330231045
 30
0.0
 40
6.0
100
AcDbArc
 50
90.0
 51
180.0
  0
ARC
  5
2AD
330
A6
100
AcDbEntity
  8
0
  6
Continuous
 62
     7
100
AcDbCircle
 10
-24.57346280598324
 20
-603.1998330231045
 30
0.0
 40
3.499999999999545
100
AcDbArc
 50
90.0
 51
180.0
  0
ARC
  5
2AE
330
A6
100
AcDbEntity
  8
0
  6
Continuous
 62
     7
100
AcDbCircle
 10
-24.57346280599023
 20
-603.1998330230977
 30
0.0
 40
3.499999999992102
100
AcDbArc
 50
180.0000000001116
 51
270.0000000001144
  0
ARC
  5
2AF
330
A6
100
AcDbEntity
  8
0
  6
Continuous
 62
     7
100
AcDbCircle
 10
-8.57346280598165
 20
-587.1998330231045
 30
0.0
 40
3.500000000000222
100
AcDbArc
 50
180.0
 51
269.9999999999963
  0
ARC
  5
2B0
330
A6
100
AcDbEntity
  8
0
  6
Continuous
 62
     3
100
AcDbCircle
 10
-8.57346280598165
 20
-587.1998330231045
 30
0.0
 40
6.0
100
AcDbArc
 50
90.00000000000217
 51
180.0
  0
ARC
  5
2B1
330
A6
100
AcDbEntity
  8
0
  6
Continuous
 62
     7
100
AcDbCircle
 10
-8.57346280598165
 20
-587.1998330231045
 30
0.0
 40
3.5
100
AcDbArc
 50
90.00000000000374
 51
180.0
  0
ARC
  5
2B2
330
A6
100
AcDbEntity
  8
0
  6
Continuous
 62
     3
100
AcDbCircle
 10
8.42653719401813
 20
-587.1998330231045
 30
0.0
 40
6.0
100
AcDbArc
 50
270.0
 51
0.0
  0
ARC
  5
2B3
330
A6
100
AcDbEntity
  8
0
  6
Continuous
 62
     7
100
AcDbCircle
 10
8.42653719401813
 20
-587.1998330231045
 30
0.0
 40
3.5
100
AcDbArc
 50
270.0
 51
0.0
  0
ARC
  5
2B4
330
A6
100
AcDbEntity
  8
0
  6
Continuous
 62
     3
100
AcDbCircle
 10
-8.57346280598165
 20
-587.1998330231045
 30
0.0
 40
6.000000000000222
100
AcDbArc
 50
180.0
 51
269.9999999999978
  0
ARC
  5
2B5
330
A6
100
AcDbEntity
  8
0
  6
Continuous
 62
     3
100
AcDbCircle
 10
39.90453719404275
 20
-538.7218330230862
 30
0.0
 40
6.0
100
AcDbArc
 50
90.0
 51
180.0
  0
ARC
  5
2B6
330
A6
100
AcDbEntity
  8
0
  6
Continuous
 62
     3
100
AcDbCircle
 10
55.90453719404277
 20
-522.7218330230883
 30
0.0
 40
6.0
100
AcDbArc
 50
90.00000000000009
 51
180.0
  0
ARC
  5
2B7
330
A6
100
AcDbEntity
  8
0
  6
Continuous
 62
     3
100
AcDbCircle
 10
55.90453719404277
 20
-522.7218330230883
 30
0.0
 40
5.999999999999972
100
AcDbArc
 50
0.0
 51
90.00000000000009
  0
ARC
  5
2B8
330
A6
100
AcDbEntity
  8
0
  6
Continuous
 62
     7
100
AcDbCircle
 10
8.42653719401813
 20
-587.1998330231045
 30
0.0
 40
3.499999999999998
100
AcDbArc
 50
0.0
 51
90.0
  0
ARC
  5
2B9
330
A6
100
AcDbEntity
  8
0
  6
Continuous
 62
     3
100
AcDbCircle
 10
8.42653719401813
 20
-587.1998330231045
 30
0.0
 40
5.999999999999998
100
AcDbArc
 50
0.0
 51
90.0
  0
ARC
  5
2BA
330
A6
100
AcDbEntity
  8
0
  6
Continuous
 62
     7
100
AcDbCircle
 10
55.90453719404493
 20
-522.7218330230862
 30
0.0
 40
3.499999999997954
100
AcDbArc
 50
90.0000000000355
 51
180.0000000000335
  0
ARC
  5
2BB
330
A6
100
AcDbEntity
  8
0
  6
Continuous
 62
     3
100
AcDbCircle
 10
55.90453719404282
 20
-603.721833023088
 30
0.0
 40
6.000000000000064
100
AcDbArc
 50
180.0
 51
269.9999999999995
  0
ARC
  5
2BC
330
A6
100
AcDbEntity
  8
0
  6
Continuous
 62
     7
100
AcDbCircle
 10
55.90453719404282
 20
-603.721833023088
 30
0.0
 40
3.500000000000064
100
AcDbArc
 50
180.0
 51
269.9999999999991
  0
ARC
  5
2BD
330
A6
100
AcDbEntity
  8
0
  6
Continuous
 62
     7
100
AcDbCircle
 10
55.90453719404277
 20
-522.7218330230883
 30
0.0
 40
3.499999999999972
100
AcDbArc
 50
0.0
 51
90.00000000000011
  0
ARC
  5
2BE
330
A6
100
AcDbEntity
  8
0
  6
Continuous
 62
     3
100
AcDbCircle
 10
39.90453719404276
 20
-587.7218330230862
 30
0.0
 40
6.0
100
AcDbArc
 50
270.0
 51
0.0
  0
ARC
  5
2BF
330
A6
100
AcDbEntity
  8
0
  6
Continuous
 62
     7
100
AcDbCircle
 10
39.90453719404276
 20
-587.7218330230862
 30
0.0
 40
3.5
100
AcDbArc
 50
180.0
 51
269.9999999999999
  0
ARC
  5
2C0
330
A6
100
AcDbEntity
  8
0
  6
Continuous
 62
     3
100
AcDbCircle
 10
23.90453719404276
 20
-571.7218330230853
 30
0.0
 40
6.0
100
AcDbArc
 50
180.0
 51
270.0
  0
ARC
  5
2C1
330
A6
100
AcDbEntity
  8
0
  6
Continuous
 62
     7
100
AcDbCircle
 10
39.90453719404276
 20
-587.7218330230862
 30
0.0
 40
3.500000000000455
100
AcDbArc
 50
269.9999999999999
 51
0.0
  0
ARC
  5
2C2
330
A6
100
AcDbEntity
  8
0
  6
Continuous
 62
     3
100
AcDbCircle
 10
23.90453719404276
 20
-571.7218330230853
 30
0.0
 40
6.0
100
AcDbArc
 50
270.0
 51
0.0
  0
ARC
  5
2C3
330
A6
100
AcDbEntity
  8
0
  6
Continuous
 62
     7
100
AcDbCircle
 10
55.90453719404557
 20
-603.7218330230853
 30
0.0
 40
3.500000000003183
100
AcDbArc
 50
269.999999999954
 51
359.9999999999553
  0
ARC
  5
2C4
330
A6
100
AcDbEntity
  8
0
  6
Continuous
 62
     3
100
AcDbCircle
 10
55.90453719404282
 20
-603.721833023088
 30
0.0
 40
6.0
100
AcDbArc
 50
269.9999999999995
 51
0.0
  0
ARC
  5
2C5
330
A6
100
AcDbEntity
  8
0
  6
Continuous
 62
     3
100
AcDbCircle
 10
39.90453719404276
 20
-587.7218330230862
 30
0.0
 40
6.0
100
AcDbArc
 50
180.0
 51
270.0
  0
ARC
  5
2C6
330
A6
100
AcDbEntity
  8
0
  6
Continuous
 62
     7
100
AcDbCircle
 10
39.90453719404026
 20
-538.721833023089
 30
0.0
 40
3.500000000002728
100
AcDbArc
 50
89.99999999995917
 51
179.9999999999553
  0
ARC
  5
2C7
330
A6
100
AcDbEntity
  8
0
  6
Continuous
 62
     7
100
AcDbCircle
 10
23.90453719404276
 20
-571.7218330230853
 30
0.0
 40
3.499999999999545
100
AcDbArc
 50
270.0
 51
0.0
  0
ARC
  5
2C8
330
A6
100
AcDbEntity
  8
0
  6
Continuous
 62
     7
100
AcDbCircle
 10
23.90453719404276
 20
-571.7218330230853
 30
0.0
 40
3.5
100
AcDbArc
 50
180.0
 51
270.0
  0
ARC
  5
2C9
330
A6
100
AcDbEntity
  8
0
  6
Continuous
 62
     7
100
AcDbCircle
 10
39.90453719404275
 20
-538.7218330230862
 30
0.0
 40
3.500000000000227
100
AcDbArc
 50
0.0
 51
90.0
  0
ARC
  5
2CA
330
A6
100
AcDbEntity
  8
0
  6
Continuous
 62
     3
100
AcDbCircle
 10
39.90453719404275
 20
-538.7218330230862
 30
0.0
 40
6.0
100
AcDbArc
 50
0.0
 51
90.0
  0
ARC
  5
2CB
330
A6
100
AcDbEntity
  8
0
  6
Continuous
 62
     7
100
AcDbCircle
 10
-8.57346280597687
 20
-539.2438330230611
 30
0.0
 40
3.499999999999547
100
AcDbArc
 50
179.9999999999926
 51
270.0000000000074
  0
ARC
  5
2CC
330
A6
100
AcDbEntity
  8
0
  6
Continuous
 62
     3
100
AcDbCircle
 10
-8.57346280597687
 20
-539.2438330230611
 30
0.0
 40
5.999999999999547
100
AcDbArc
 50
179.9999999999957
 51
270.0000000000043
  0
ARC
  5
2CD
330
A6
100
AcDbEntity
  8
0
  6
Continuous
 62
     3
100
AcDbCircle
 10
-24.57346280597551
 20
-523.2438330230607
 30
0.0
 40
5.99999999999995
100
AcDbArc
 50
180.0
 51
270.0
  0
ARC
  5
2CE
330
A6
100
AcDbEntity
  8
0
  6
Continuous
 62
     7
100
AcDbCircle
 10
-40.05146280600307
 20
-587.7218330230817
 30
0.0
 40
3.499999999997726
100
AcDbArc
 50
270.0000000000328
 51
0.00000000004467
  0
ARC
  5
2CF
330
A6
100
AcDbEntity
  8
0
  6
Continuous
 62
     7
100
AcDbCircle
 10
-40.05146280600057
 20
-587.7218330230794
 30
0.0
 40
3.500000000000497
100
AcDbArc
 50
179.9999999999926
 51
269.9999999999919
  0
ARC
  5
2D0
330
A6
100
AcDbEntity
  8
0
  6
Continuous
 62
     3
100
AcDbCircle
 10
-40.05146280600057
 20
-587.7218330230794
 30
0.0
 40
6.000000000000711
100
AcDbArc
 50
179.9999999999957
 51
269.9999999999952
  0
ARC
  5
2D1
330
A6
100
AcDbEntity
  8
0
  6
Continuous
 62
     3
100
AcDbCircle
 10
-24.05146280600104
 20
-554.7218330230799
 30
0.0
 40
6.0
100
AcDbArc
 50
90.0
 51
180.0
  0
ARC
  5
2D2
330
A6
100
AcDbEntity
  8
0
  6
Continuous
 62
     3
100
AcDbCircle
 10
-24.05146280600104
 20
-554.7218330230799
 30
0.0
 40
6.0
100
AcDbArc
 50
0.0
 51
90.0
  0
ARC
  5
2D3
330
A6
100
AcDbEntity
  8
0
  6
Continuous
 62
     7
100
AcDbCircle
 10
-24.05146280600104
 20
-554.7218330230799
 30
0.0
 40
3.499999999999091
100
AcDbArc
 50
0.0
 51
90.0
  0
ARC
  5
2D4
330
A6
100
AcDbEntity
  8
0
  6
Continuous
 62
     7
100
AcDbCircle
 10
-24.05146280600104
 20
-554.7218330230799
 30
0.0
 40
3.5
100
AcDbArc
 50
90.0
 51
180.0
  0
ARC
  5
2D5
330
A6
100
AcDbEntity
  8
0
  6
Continuous
 62
     7
100
AcDbCircle
 10
-40.05146280600057
 20
-538.721833023079
 30
0.0
 40
3.499999999999702
100
AcDbArc
 50
0.0
 51
90.00000000000813
  0
ARC
  5
2D6
330
A6
100
AcDbEntity
  8
0
  6
Continuous
 62
     7
100
AcDbCircle
 10
-40.05146280600276
 20
-538.7218330230812
 30
0.0
 40
3.500000000002274
100
AcDbArc
 50
89.99999999997232
 51
179.9999999999628
  0
ARC
  5
2D7
330
A6
100
AcDbEntity
  8
0
  6
Continuous
 62
     3
100
AcDbCircle
 10
-40.05146280600057
 20
-538.721833023079
 30
0.0
 40
6.0
100
AcDbArc
 50
90.00000000000476
 51
180.0
  0
ARC
  5
2D8
330
A6
100
AcDbEntity
  8
0
  6
Continuous
 62
     3
100
AcDbCircle
 10
-40.05146280600057
 20
-538.721833023079
 30
0.0
 40
5.999999999999503
100
AcDbArc
 50
0.0
 51
90.00000000000476
  0
ARC
  5
2D9
330
A6
100
AcDbEntity
  8
0
  6
Continuous
 62
     7
100
AcDbCircle
 10
-56.05146280600128
 20
-522.7218330230776
 30
0.0
 40
3.499999999999815
100
AcDbArc
 50
0.00000000000744
 51
90.0
  0
ARC
  5
2DA
330
A6
100
AcDbEntity
  8
0
  6
Continuous
 62
     3
100
AcDbCircle
 10
-56.05146280600128
 20
-522.7218330230776
 30
0.0
 40
6.0
100
AcDbArc
 50
0.00000000000434
 51
90.0
  0
ARC
  5
2DB
330
A6
100
AcDbEntity
  8
0
  6
Continuous
 62
     3
100
AcDbCircle
 10
-56.05146280600128
 20
-522.7218330230776
 30
0.0
 40
6.0
100
AcDbArc
 50
90.0
 51
179.9999999999957
  0
ARC
  5
2DC
330
A6
100
AcDbEntity
  8
0
  6
Continuous
 62
     7
100
AcDbCircle
 10
-56.05146280600128
 20
-522.7218330230776
 30
0.0
 40
3.5
100
AcDbArc
 50
90.0
 51
179.9999999999926
  0
ARC
  5
2DD
330
A6
100
AcDbEntity
  8
0
  6
Continuous
 62
     7
100
AcDbCircle
 10
-24.05146280600127
 20
-571.7218330230799
 30
0.0
 40
3.499999999999542
100
AcDbArc
 50
180.0
 51
270.0000000000037
  0
ARC
  5
2DE
330
A6
100
AcDbEntity
  8
0
  6
Continuous
 62
     7
100
AcDbCircle
 10
-24.05146280600127
 20
-571.7218330230799
 30
0.0
 40
3.5
100
AcDbArc
 50
270.0000000000037
 51
0.0
  0
ARC
  5
2DF
330
A6
100
AcDbEntity
  8
0
  6
Continuous
 62
     3
100
AcDbCircle
 10
-24.05146280600127
 20
-571.7218330230799
 30
0.0
 40
6.0
100
AcDbArc
 50
270.0000000000021
 51
0.0
  0
ARC
  5
2E0
330
A6
100
AcDbEntity
  8
0
  6
Continuous
 62
     3
100
AcDbCircle
 10
-24.05146280600127
 20
-571.7218330230799
 30
0.0
 40
5.999999999999801
100
AcDbArc
 50
180.0
 51
270.0000000000021
  0
ARC
  5
2E1
330
A6
100
AcDbEntity
  8
0
  6
Continuous
 62
     7
100
AcDbCircle
 10
-56.05146280600107
 20
-603.7218330230771
 30
0.0
 40
3.500000000000213
100
AcDbArc
 50
180.0
 51
269.9999999999965
  0
ARC
  5
2E2
330
A6
100
AcDbEntity
  8
0
  6
Continuous
 62
     7
100
AcDbCircle
 10
-56.05146280600107
 20
-603.7218330230771
 30
0.0
 40
3.5
100
AcDbArc
 50
269.9999999999965
 51
0.0
  0
ARC
  5
2E3
330
A6
100
AcDbEntity
  8
0
  6
Continuous
 62
     3
100
AcDbCircle
 10
-56.05146280600107
 20
-603.7218330230771
 30
0.0
 40
6.000000000000213
100
AcDbArc
 50
180.0
 51
269.999999999998
  0
ARC
  5
2E4
330
A6
100
AcDbEntity
  8
0
  6
Continuous
 62
     3
100
AcDbCircle
 10
-56.05146280600107
 20
-603.7218330230771
 30
0.0
 40
6.0
100
AcDbArc
 50
269.999999999998
 51
0.0
  0
ARC
  5
2E5
330
A6
100
AcDbEntity
  8
0
  6
Continuous
 62
     3
100
AcDbCircle
 10
-40.05146280600057
 20
-587.7218330230794
 30
0.0
 40
6.0
100
AcDbArc
 50
269.9999999999952
 51
0.00000000000434
  0
ARC
  5
2E6
330
A6
100
AcDbEntity
  8
0
  6
Continuous
 62
     3
100
AcDbCircle
 10
-40.57346280598456
 20
-619.1998330231049
 30
0.0
 40
6.000000000000455
100
AcDbArc
 50
90.0
 51
179.9999999999957
  0
ARC
  5
2E7
330
A6
100
AcDbEntity
  8
0
  6
Continuous
 62
     7
100
AcDbCircle
 10
23.90453719404298
 20
-554.7218330230853
 30
0.0
 40
3.5
100
AcDbArc
 50
90.00000000000362
 51
180.0
  0
ARC
  5
2E8
330
A6
100
AcDbEntity
  8
0
  6
Continuous
 62
     7
100
AcDbCircle
 10
-24.57346280597551
 20
-523.2438330230607
 30
0.0
 40
3.499999999999773
100
AcDbArc
 50
90.0
 51
180.0
  0
ARC
  5
2E9
330
A6
100
AcDbEntity
  8
0
  6
Continuous
 62
     7
100
AcDbCircle
 10
-24.57346280597551
 20
-523.2438330230607
 30
0.0
 40
3.5
100
AcDbArc
 50
180.0
 51
270.0
  0
ARC
  5
2EA
330
A6
100
AcDbEntity
  8
0
  6
Continuous
 62
     3
100
AcDbCircle
 10
40.42653719402631
 20
-507.2438330230608
 30
0.0
 40
5.999999999999886
100
AcDbArc
 50
270.0000000000002
 51
0.0
  0
ARC
  5
2EB
330
A6
100
AcDbEntity
  8
0
  6
Continuous
 62
     3
100
AcDbCircle
 10
40.42653719402631
 20
-507.2438330230608
 30
0.0
 40
6.000000000000021
100
AcDbArc
 50
0.0
 51
89.9999999999998
  0
ARC
  5
2EC
330
A6
100
AcDbEntity
  8
0
  6
Continuous
 62
     7
100
AcDbCircle
 10
-40.57346280597346
 20
-507.2438330230608
 30
0.0
 40
3.500000000000199
100
AcDbArc
 50
180.0
 51
269.9999999999968
  0
ARC
  5
2ED
330
A6
100
AcDbEntity
  8
0
  6
Continuous
 62
     7
100
AcDbCircle
 10
40.42653719402631
 20
-507.2438330230608
 30
0.0
 40
3.499999999999886
100
AcDbArc
 50
270.0000000000003
 51
0.0
  0
ARC
  5
2EE
330
A6
100
AcDbEntity
  8
0
  6
Continuous
 62
     3
100
AcDbCircle
 10
-40.57346280597346
 20
-507.2438330230608
 30
0.0
 40
6.0
100
AcDbArc
 50
90.0000000000019
 51
180.0
  0
ARC
  5
2EF
330
A6
100
AcDbEntity
  8
0
  6
Continuous
 62
     3
100
AcDbCircle
 10
24.4265371940245
 20
-523.2438330230607
 30
0.0
 40
6.0
100
AcDbArc
 50
270.0
 51
0.0
  0
ARC
  5
2F0
330
A6
100
AcDbEntity
  8
0
  6
Continuous
 62
     7
100
AcDbCircle
 10
40.42653719402631
 20
-507.2438330230608
 30
0.0
 40
3.500000000000021
100
AcDbArc
 50
0.0
 51
89.99999999999966
  0
ARC
  5
2F1
330
A6
100
AcDbEntity
  8
0
  6
Continuous
 62
     3
100
AcDbCircle
 10
24.4265371940245
 20
-523.2438330230607
 30
0.0
 40
6.0
100
AcDbArc
 50
0.0
 51
90.0
  0
ARC
  5
2F2
330
A6
100
AcDbEntity
  8
0
  6
Continuous
 62
     7
100
AcDbCircle
 10
24.4265371940245
 20
-523.2438330230607
 30
0.0
 40
3.500000000000455
100
AcDbArc
 50
269.9999999999998
 51
0.0
  0
ARC
  5
2F3
330
A6
100
AcDbEntity
  8
0
  6
Continuous
 62
     7
100
AcDbCircle
 10
24.42653719402182
 20
-523.2438330230584
 30
0.0
 40
3.500000000003141
100
AcDbArc
 50
359.9999999999628
 51
89.99999999995609
  0
ARC
  5
2F4
330
A6
100
AcDbEntity
  8
0
  6
Continuous
 62
     3
100
AcDbCircle
 10
8.42653719402314
 20
-539.2438330230607
 30
0.0
 40
6.0
100
AcDbArc
 50
270.0
 51
0.0
  0
ARC
  5
2F5
330
A6
100
AcDbEntity
  8
0
  6
Continuous
 62
     7
100
AcDbCircle
 10
8.42653719402314
 20
-539.2438330230607
 30
0.0
 40
3.5
100
AcDbArc
 50
269.9999999999999
 51
0.0
  0
ARC
  5
2F6
330
A6
100
AcDbEntity
  8
0
  6
Continuous
 62
     7
100
AcDbCircle
 10
-40.57346280597346
 20
-507.2438330230608
 30
0.0
 40
3.499999999999886
100
AcDbArc
 50
90.00000000000325
 51
180.0
  0
ARC
  5
2F7
330
A6
100
AcDbEntity
  8
0
  6
Continuous
 62
     7
100
AcDbCircle
 10
8.42653719402087
 20
-539.2438330230584
 30
0.0
 40
3.500000000002936
100
AcDbArc
 50
359.9999999999628
 51
89.99999999996302
  0
ARC
  5
2F8
330
A6
100
AcDbEntity
  8
0
  6
Continuous
 62
     3
100
AcDbCircle
 10
8.42653719402314
 20
-539.2438330230607
 30
0.0
 40
6.0
100
AcDbArc
 50
0.0
 51
90.00000000000009
  0
ARC
  5
2F9
330
A6
100
AcDbEntity
  8
0
  6
Continuous
 62
     3
100
AcDbCircle
 10
-40.57346280597346
 20
-507.2438330230608
 30
0.0
 40
6.000000000000199
100
AcDbArc
 50
180.0
 51
269.9999999999981
  0
ARC
  5
2FA
330
A6
100
AcDbEntity
  8
0
  6
Continuous
 62
     3
100
AcDbCircle
 10
23.90453719404298
 20
-554.7218330230853
 30
0.0
 40
6.0
100
AcDbArc
 50
90.00000000000212
 51
180.0
  0
ARC
  5
2FB
330
A6
100
AcDbEntity
  8
0
  6
Continuous
 62
     3
100
AcDbCircle
 10
-24.57346280597551
 20
-523.2438330230607
 30
0.0
 40
6.0
100
AcDbArc
 50
90.0
 51
180.0
  0
ARC
  5
2FC
330
A6
100
AcDbEntity
  8
0
  6
Continuous
 62
     7
100
AcDbCircle
 10
-65.26146280597845
 20
-498.033833023061
 30
0.0
 40
3.789999999999907
100
AcDbArc
 50
90.00000000001248
 51
135.0000000000064
  0
ARC
  5
2FD
330
A6
100
AcDbEntity
  8
0
  6
Continuous
 62
     3
100
AcDbCircle
 10
-65.26146280597948
 20
-498.0338330230612
 30
0.0
 40
1.290000000000084
100
AcDbArc
 50
134.9999999999804
 51
179.9999999999849
  0
ARC
  5
2FE
330
A6
100
AcDbEntity
  8
0
  6
Continuous
 62
     3
100
AcDbCircle
 10
-65.26146280597948
 20
-498.0338330230612
 30
0.0
 40
1.290000000000418
100
AcDbArc
 50
89.99999999999116
 51
134.9999999999804
  0
ARC
  5
2FF
330
A6
100
AcDbEntity
  8
0
  6
Continuous
 62
     7
100
AcDbCircle
 10
-65.26146280597948
 20
-498.0338330230612
 30
0.0
 40
3.789999999999441
100
AcDbArc
 50
134.999999999993
 51
179.9999999999949
  0
ARC
  5
300
330
A6
100
AcDbEntity
  8
0
  6
Continuous
 62
     3
100
AcDbCircle
 10
65.11453719401997
 20
-498.0338330230616
 30
0.0
 40
1.29000000000093
100
AcDbArc
 50
0.00000000003282
 51
44.99999999999599
  0
ARC
  5
301
330
A6
100
AcDbEntity
  8
0
  6
Continuous
 62
     7
100
AcDbCircle
 10
65.11453719401997
 20
-498.0338330230616
 30
0.0
 40
3.790000000000944
100
AcDbArc
 50
0.00000000001117
 51
44.99999999999741
  0
ARC
  5
302
330
A6
100
AcDbEntity
  8
0
  6
Continuous
 62
     3
100
AcDbCircle
 10
65.11453719401997
 20
-498.0338330230616
 30
0.0
 40
1.29000000000118
100
AcDbArc
 50
44.99999999999599
 51
89.99999999995708
  0
ARC
  5
303
330
A6
100
AcDbEntity
  8
0
  6
Continuous
 62
     7
100
AcDbCircle
 10
65.11453719401997
 20
-498.0338330230616
 30
0.0
 40
3.7900000000012
100
AcDbArc
 50
44.99999999999741
 51
89.99999999998518
  0
ARC
  5
304
330
A6
100
AcDbEntity
  8
0
  6
Continuous
 62
     7
100
AcDbCircle
 10
65.11453719402073
 20
-628.4098330230604
 30
0.0
 40
3.790000000000418
100
AcDbArc
 50
270.0000000000037
 51
314.9999999999976
  0
ARC
  5
305
330
A6
100
AcDbEntity
  8
0
  6
Continuous
 62
     3
100
AcDbCircle
 10
65.11453719402073
 20
-628.4098330230604
 30
0.0
 40
1.290000000000418
100
AcDbArc
 50
270.0000000000107
 51
314.9999999999937
  0
ARC
  5
306
330
A6
100
AcDbEntity
  8
0
  6
Continuous
 62
     3
100
AcDbCircle
 10
65.11453719402073
 20
-628.4098330230604
 30
0.0
 40
1.290000000000386
100
AcDbArc
 50
314.9999999999937
 51
359.9999999999798
  0
ARC
  5
307
330
A6
100
AcDbEntity
  8
0
  6
Continuous
 62
     7
100
AcDbCircle
 10
65.11453719402073
 20
-628.4098330230604
 30
0.0
 40
3.790000000000788
100
AcDbArc
 50
314.9999999999976
 51
359.9999999999931
  0
ARC
  5
308
330
A6
100
AcDbEntity
  8
0
  6
Continuous
 62
     7
100
AcDbCircle
 10
-65.26146280597857
 20
-628.4098330230609
 30
0.0
 40
3.79000000000039
100
AcDbArc
 50
180.0
 51
224.9999999999955
  0
ARC
  5
309
330
A6
100
AcDbEntity
  8
0
  6
Continuous
 62
     7
100
AcDbCircle
 10
-65.26146280597857
 20
-628.4098330230609
 30
0.0
 40
3.789999999999964
100
AcDbArc
 50
224.9999999999955
 51
269.9999999999893
  0
ARC
  5
30A
330
A6
100
AcDbEntity
  8
0
  6
Continuous
 62
     3
100
AcDbCircle
 10
-65.26146280597857
 20
-628.4098330230609
 30
0.0
 40
1.290000000000406
100
AcDbArc
 50
224.9999999999768
 51
269.9999999999685
  0
ARC
  5
30B
330
A6
100
AcDbEntity
  8
0
  6
Continuous
 62
     3
100
AcDbCircle
 10
-65.26146280597857
 20
-628.4098330230609
 30
0.0
 40
1.290000000000703
100
AcDbArc
 50
180.0
 51
224.9999999999768
  0
ENDBLK
  5
A8
330
A6
100
AcDbEntity
  8
0
100
AcDbBlockEnd
  0
BLOCK
  5
AA
330
A9
100
AcDbEntity
  8
0
100
AcDbBlockBegin
  2
HL062B_2E_Aufsatzrahmen
 70
     0
 10
-0.00004450625924
 20
-563.243833023061
 30
0.0
  3
HL062B_2E_Aufsatzrahmen
  1

  0
LINE
  5
30C
330
A9
100
AcDbEntity
  8
0
  6
Continuous
 62
     7
100
AcDbLine
 10
-70.00004450625926
 20
-633.2438330230611
 30
0.0
 11
-14.00004450625948
 21
-633.2438330230611
 31
0.0
  0
LINE
  5
30D
330
A9
100
AcDbEntity
  8
0
  6
Continuous
 62
     7
100
AcDbLine
 10
-14.00004450625877
 20
-493.2438330230609
 30
0.0
 11
-70.00004450625926
 21
-493.2438330230609
 31
0.0
  0
LINE
  5
30E
330
A9
100
AcDbEntity
  8
0
  6
Continuous
 62
     7
100
AcDbLine
 10
66.996025966245
 20
-494.7438330230617
 30
0.0
 11
68.49995549374148
 21
-494.7438330230617
 31
0.0
  0
LINE
  5
30F
330
A9
100
AcDbEntity
  8
0
  6
Continuous
 62
     7
100
AcDbLine
 10
68.90453719402093
 20
-549.2438330230616
 30
0.0
 11
69.99995549374077
 21
-549.2438330230616
 31
0.0
  0
LINE
  5
310
330
A9
100
AcDbEntity
  8
0
  6
Continuous
 62
     7
100
AcDbLine
 10
-14.00004450625948
 20
-633.2438330230611
 30
0.0
 11
-14.00004450625948
 21
-632.1998330230608
 31
0.0
  0
LINE
  5
311
330
A9
100
AcDbEntity
  8
0
  6
Continuous
 62
     7
100
AcDbLine
 10
-14.00004450625948
 20
-633.2438330230611
 30
0.0
 11
13.99995549374077
 21
-633.2438330230611
 31
0.0
  0
LINE
  5
312
330
A9
100
AcDbEntity
  8
0
  6
Continuous
 62
     7
100
AcDbLine
 10
13.99995549374077
 20
-633.2438330230611
 30
0.0
 11
69.99995549374076
 21
-633.2438330230611
 31
0.0
  0
LINE
  5
313
330
A9
100
AcDbEntity
  8
0
  6
Continuous
 62
     7
100
AcDbLine
 10
13.99995549374077
 20
-632.1998330230608
 30
0.0
 11
13.99995549374077
 21
-633.2438330230611
 31
0.0
  0
LINE
  5
314
330
A9
100
AcDbEntity
  8
0
  6
Continuous
 62
     7
100
AcDbLine
 10
69.99995549374077
 20
-549.2438330230616
 30
0.0
 11
69.99995549374076
 21
-493.2438330230609
 31
0.0
  0
LINE
  5
315
330
A9
100
AcDbEntity
  8
0
  6
Continuous
 62
     7
100
AcDbLine
 10
69.99995549374076
 20
-633.2438330230611
 30
0.0
 11
69.99995549374076
 21
-577.2438330230611
 31
0.0
  0
LINE
  5
316
330
A9
100
AcDbEntity
  8
0
  6
Continuous
 62
     7
100
AcDbLine
 10
69.99995549374076
 20
-577.2438330230611
 30
0.0
 11
69.99995549374077
 21
-549.2438330230616
 31
0.0
  0
LINE
  5
317
330
A9
100
AcDbEntity
  8
0
  6
Continuous
 62
     7
100
AcDbLine
 10
69.99995549374076
 20
-577.2438330230611
 30
0.0
 11
68.90453719402093
 21
-577.2438330230611
 31
0.0
  0
LINE
  5
318
330
A9
100
AcDbEntity
  8
0
  6
Continuous
 62
     7
100
AcDbLine
 10
73.99995549374079
 20
-637.2438330230611
 30
0.0
 11
73.99995549374076
 21
-489.2438330230609
 31
0.0
  0
LINE
  5
319
330
A9
100
AcDbEntity
  8
0
  6
Continuous
 62
     7
100
AcDbLine
 10
-74.00004450625926
 20
-489.2438330230609
 30
0.0
 11
-74.00004450625926
 21
-637.2438330230611
 31
0.0
  0
LINE
  5
31A
330
A9
100
AcDbEntity
  8
0
  6
Continuous
 62
     7
100
AcDbLine
 10
-69.05146280597927
 20
-577.2438330230607
 30
0.0
 11
-70.00004450625926
 21
-577.2438330230607
 31
0.0
  0
LINE
  5
31B
330
A9
100
AcDbEntity
  8
0
  6
Continuous
 62
     7
100
AcDbLine
 10
-70.00004450625917
 20
-549.2438330230607
 30
0.0
 11
-70.00004450625926
 21
-577.2438330230607
 31
0.0
  0
LINE
  5
31C
330
A9
100
AcDbEntity
  8
0
  6
Continuous
 62
     7
100
AcDbLine
 10
-70.00004450625917
 20
-549.2438330230607
 30
0.0
 11
-69.05146280597927
 21
-549.2438330230607
 31
0.0
  0
LINE
  5
31D
330
A9
100
AcDbEntity
  8
0
  6
Continuous
 62
     7
100
AcDbLine
 10
-68.50004450625877
 20
-496.0651561652169
 30
0.0
 11
-68.50004450625877
 21
-494.7438330230605
 31
0.0
  0
LINE
  5
31E
330
A9
100
AcDbEntity
  8
0
  6
Continuous
 62
     7
100
AcDbLine
 10
-70.00004450625926
 20
-493.2438330230609
 30
0.0
 11
-70.00004450625917
 21
-549.2438330230607
 31
0.0
  0
LINE
  5
31F
330
A9
100
AcDbEntity
  8
0
  6
Continuous
 62
     7
100
AcDbLine
 10
-70.00004450625926
 20
-577.2438330230607
 30
0.0
 11
-70.00004450625926
 21
-633.2438330230611
 31
0.0
  0
LINE
  5
320
330
A9
100
AcDbEntity
  8
0
  6
Continuous
 62
     7
100
AcDbLine
 10
69.99995549374076
 20
-493.2438330230609
 30
0.0
 11
13.99995549374148
 21
-493.2438330230611
 31
0.0
  0
LINE
  5
321
330
A9
100
AcDbEntity
  8
0
  6
Continuous
 62
     7
100
AcDbLine
 10
13.99995549374148
 20
-493.2438330230611
 30
0.0
 11
-14.00004450625877
 21
-493.2438330230609
 31
0.0
  0
LINE
  5
322
330
A9
100
AcDbEntity
  8
0
  6
Continuous
 62
     7
100
AcDbLine
 10
-14.00004450625877
 20
-494.2438330230609
 30
0.0
 11
-14.00004450625877
 21
-493.2438330230609
 31
0.0
  0
LINE
  5
323
330
A9
100
AcDbEntity
  8
0
  6
Continuous
 62
     7
100
AcDbLine
 10
13.99995549374148
 20
-493.2438330230611
 30
0.0
 11
13.99995549374146
 21
-494.2438330230609
 31
0.0
  0
LINE
  5
324
330
A9
100
AcDbEntity
  8
0
  6
Continuous
 62
     7
100
AcDbLine
 10
73.99995549374076
 20
-489.2438330230609
 30
0.0
 11
-74.00004450625926
 21
-489.2438330230609
 31
0.0
  0
LINE
  5
325
330
A9
100
AcDbEntity
  8
0
  6
Continuous
 62
     7
100
AcDbLine
 10
-68.50004450625877
 20
-494.7438330230605
 30
0.0
 11
-67.14295157820146
 21
-494.7438330230606
 31
0.0
  0
LINE
  5
326
330
A9
100
AcDbEntity
  8
0
  6
Continuous
 62
     7
100
AcDbLine
 10
68.49995549374148
 20
-494.7438330230617
 30
0.0
 11
68.49995549374137
 21
-496.3300011839656
 31
0.0
  0
LINE
  5
327
330
A9
100
AcDbEntity
  8
0
  6
Continuous
 62
     7
100
AcDbLine
 10
-74.00004450625926
 20
-637.2438330230611
 30
0.0
 11
73.99995549374079
 21
-637.2438330230611
 31
0.0
  0
LINE
  5
328
330
A9
100
AcDbEntity
  8
0
  6
Continuous
 62
     7
100
AcDbLine
 10
68.49995549374077
 20
-631.7438330230611
 30
0.0
 11
66.91690896477168
 21
-631.7438330230611
 31
0.0
  0
LINE
  5
329
330
A9
100
AcDbEntity
  8
0
  6
Continuous
 62
     7
100
AcDbLine
 10
68.49995549374076
 20
-630.1136648621587
 30
0.0
 11
68.49995549374077
 21
-631.7438330230611
 31
0.0
  0
LINE
  5
32A
330
A9
100
AcDbEntity
  8
0
  6
Continuous
 62
     7
100
AcDbLine
 10
-67.06383457673027
 20
-631.7438330230607
 30
0.0
 11
-68.50004450625957
 21
-631.7438330230607
 31
0.0
  0
LINE
  5
32B
330
A9
100
AcDbEntity
  8
0
  6
Continuous
 62
     7
100
AcDbLine
 10
-68.50004450625957
 20
-631.7438330230607
 30
0.0
 11
-68.50004450625946
 21
-630.3785098809049
 31
0.0
  0
ARC
  5
32C
330
A9
100
AcDbEntity
  8
0
  6
Continuous
 62
     7
100
AcDbCircle
 10
-0.00004450625923
 20
-563.2438330230611
 30
0.0
 40
68.99999999999984
100
AcDbArc
 50
210.3376270275883
 51
218.7366409096823
  0
ARC
  5
32D
330
A9
100
AcDbEntity
  8
0
  6
Continuous
 62
     7
100
AcDbCircle
 10
-0.00004450625923
 20
-563.2438330230611
 30
0.0
 40
68.99999999999983
100
AcDbArc
 50
231.151825861771
 51
239.5058706522001
  0
ARC
  5
32E
330
A9
100
AcDbEntity
  8
0
  6
Continuous
 62
     7
100
AcDbCircle
 10
-0.00004450625923
 20
-563.2438330230611
 30
0.0
 40
68.99999999999984
100
AcDbArc
 50
267.9537320397819
 51
270.0
  0
ARC
  5
32F
330
A9
100
AcDbEntity
  8
0
  6
Continuous
 62
     7
100
AcDbCircle
 10
-0.00004450625923
 20
-563.2438330230611
 30
0.0
 40
68.99999999999969
100
AcDbArc
 50
300.4941293477998
 51
308.752846881212
  0
ARC
  5
330
330
A9
100
AcDbEntity
  8
0
  6
Continuous
 62
     7
100
AcDbCircle
 10
-0.00004450625923
 20
-563.2438330230611
 30
0.0
 40
69.0000000000001
100
AcDbArc
 50
51.26969904569741
 51
59.57794772044364
  0
ARC
  5
331
330
A9
100
AcDbEntity
  8
0
  6
Continuous
 62
     7
100
AcDbCircle
 10
-0.00004450625923
 20
-563.2438330230611
 30
0.0
 40
69.0
100
AcDbArc
 50
270.0
 51
272.046267960218
  0
ARC
  5
332
330
A9
100
AcDbEntity
  8
0
  6
Continuous
 62
     7
100
AcDbCircle
 10
-0.00004450625923
 20
-563.2438330230611
 30
0.0
 40
69.00000000000009
100
AcDbArc
 50
141.2352800978036
 51
149.6623729724114
  0
ARC
  5
333
330
A9
100
AcDbEntity
  8
0
  6
Continuous
 62
     7
100
AcDbCircle
 10
-0.00004450625923
 20
-563.2438330230611
 30
0.0
 40
69.00000000000013
100
AcDbArc
 50
30.57816384699147
 51
38.84158379952699
  0
ARC
  5
334
330
A9
100
AcDbEntity
  8
0
  6
Continuous
 62
     7
100
AcDbCircle
 10
-0.00004450625923
 20
-563.2438330230611
 30
0.0
 40
69.00000000000001
100
AcDbArc
 50
356.9864459710143
 51
3.01355402898611
  0
ARC
  5
335
330
A9
100
AcDbEntity
  8
0
  6
Continuous
 62
     7
100
AcDbCircle
 10
-0.00004450625923
 20
-563.2438330230611
 30
0.0
 40
68.99999999999991
100
AcDbArc
 50
321.1872437352403
 51
329.4218361530089
  0
ARC
  5
336
330
A9
100
AcDbEntity
  8
0
  6
Continuous
 62
     7
100
AcDbCircle
 10
-0.00004450625923
 20
-563.2438330230611
 30
0.0
 40
69.00000000000016
100
AcDbArc
 50
120.4220522795564
 51
128.8248797153379
  0
ENDBLK
  5
AB
330
A9
100
AcDbEntity
  8
0
100
AcDbBlockEnd
  0
BLOCK
  5
AD
330
AC
100
AcDbEntity
  8
0
100
AcDbBlockBegin
  2
Metallring
 70
     0
 10
-0.00004450625921
 20
-563.2438330230611
 30
0.0
  3
Metallring
  1

  0
LINE
  5
337
330
AC
100
AcDbEntity
  8
1
  6
DOT_CENTER
 62
     2
100
AcDbLine
 10
314.350120262053
 20
-563.2438330230611
 30
0.0
 11
-265.41710547692
 21
-563.2438330230611
 31
0.0
  0
LINE
  5
338
330
AC
100
AcDbEntity
  8
1
  6
DOT_CENTER
 62
     2
100
AcDbLine
 10
-0.00004450625921
 20
-298.191260724552
 30
0.0
 11
-0.00004450625921
 21
-825.1796769479772
 31
0.0
  0
ARC
  5
339
330
AC
100
AcDbEntity
  8
0
  6
Continuous
 62
     3
100
AcDbCircle
 10
-0.00004450625921
 20
-563.2438330230611
 30
0.0
 40
85.37783315493915
100
AcDbArc
 50
240.0814728555754
 51
299.9185271444246
  0
ARC
  5
33A
330
AC
100
AcDbEntity
  8
0
  6
Continuous
 62
     7
100
AcDbCircle
 10
-0.00004450625921
 20
-563.2438330230611
 30
0.0
 40
74.79999999999978
100
AcDbArc
 50
263.6703441407087
 51
278.3872513413345
  0
ARC
  5
33B
330
AC
100
AcDbEntity
  8
0
  6
Continuous
 62
     7
100
AcDbCircle
 10
-0.00004450625921
 20
-563.2438330230611
 30
0.0
 40
74.80000000000011
100
AcDbArc
 50
173.6703441407091
 51
188.3872513413345
  0
ARC
  5
33C
330
AC
100
AcDbEntity
  8
0
  6
Continuous
 62
     7
100
AcDbCircle
 10
-0.00004450626632
 20
-563.2438330230593
 30
0.0
 40
76.00000000000016
100
AcDbArc
 50
256.8264488927466
 51
259.0802470585967
  0
ARC
  5
33D
330
AC
100
AcDbEntity
  8
0
  6
Continuous
 62
     7
100
AcDbCircle
 10
-0.00004450625921
 20
-563.2438330230611
 30
0.0
 40
75.99999999999947
100
AcDbArc
 50
259.0802470585912
 51
264.4297960340621
  0
ARC
  5
33E
330
AC
100
AcDbEntity
  8
0
  6
Continuous
 62
     7
100
AcDbCircle
 10
-0.00004450625782
 20
-563.2438330230611
 30
0.0
 40
75.99999999999982
100
AcDbArc
 50
264.429796034061
 51
276.2303761406895
  0
ARC
  5
33F
330
AC
100
AcDbEntity
  8
0
  6
Continuous
 62
     7
100
AcDbCircle
 10
-0.00004450625921
 20
-563.2438330230611
 30
0.0
 40
74.79999999999998
100
AcDbArc
 50
353.6703441407097
 51
8.38725134133479
  0
ARC
  5
340
330
AC
100
AcDbEntity
  8
0
  6
Continuous
 62
     7
100
AcDbCircle
 10
-0.00004450625921
 20
-563.2438330230611
 30
0.0
 40
75.99999999999993
100
AcDbArc
 50
276.2613764625424
 51
283.1735511072589
  0
ARC
  5
341
330
AC
100
AcDbEntity
  8
0
  6
Continuous
 62
     7
100
AcDbCircle
 10
-0.00004450622127
 20
-563.243833023057
 30
0.0
 40
76.00000000000004
100
AcDbArc
 50
276.2303761406618
 51
276.2613764625137
  0
ARC
  5
342
330
AC
100
AcDbEntity
  8
0
  6
Continuous
 62
     7
100
AcDbCircle
 10
-0.00004450626153
 20
-563.2438330230716
 30
0.0
 40
75.99999999999989
100
AcDbArc
 50
346.8264488927491
 51
349.0802470586001
  0
ARC
  5
343
330
AC
100
AcDbEntity
  8
0
  6
Continuous
 62
     7
100
AcDbCircle
 10
-0.00004450625921
 20
-563.2438330230611
 30
0.0
 40
75.99999999999955
100
AcDbArc
 50
349.080247058592
 51
354.4297960340631
  0
ARC
  5
344
330
AC
100
AcDbEntity
  8
0
  6
Continuous
 62
     3
100
AcDbCircle
 10
-0.00004450625921
 20
-563.2438330230611
 30
0.0
 40
85.37783315493913
100
AcDbArc
 50
330.0814728555754
 51
29.91852714442459
  0
ARC
  5
345
330
AC
100
AcDbEntity
  8
0
  6
Continuous
 62
     7
100
AcDbCircle
 10
-0.00004450625921
 20
-563.2438330230611
 30
0.0
 40
76.00000000000006
100
AcDbArc
 50
6.26137646254273
 51
13.17355110725898
  0
ARC
  5
346
330
AC
100
AcDbEntity
  8
0
  6
Continuous
 62
     7
100
AcDbCircle
 10
-0.00004450625921
 20
-563.2438330230593
 30
0.0
 40
75.99999999999973
100
AcDbArc
 50
354.4297960340617
 51
6.23037614068962
  0
ARC
  5
347
330
AC
100
AcDbEntity
  8
0
  6
Continuous
 62
     7
100
AcDbCircle
 10
-0.00004450626693
 20
-563.2438330229902
 30
0.0
 40
76.00000000000001
100
AcDbArc
 50
6.23037614063718
 51
6.26137646248893
  0
ARC
  5
348
330
AC
100
AcDbEntity
  8
0
  6
Continuous
 62
     3
100
AcDbCircle
 10
-0.00004450625921
 20
-563.2438330230611
 30
0.0
 40
85.37783315493915
100
AcDbArc
 50
150.0814728555754
 51
209.9185271444246
  0
ARC
  5
349
330
AC
100
AcDbEntity
  8
0
  6
Continuous
 62
     7
100
AcDbCircle
 10
-0.00004450625921
 20
-563.2438330230611
 30
0.0
 40
76.00000000000048
100
AcDbArc
 50
169.0802470585919
 51
174.4297960340624
  0
ARC
  5
34A
330
AC
100
AcDbEntity
  8
0
  6
Continuous
 62
     7
100
AcDbCircle
 10
-0.00004450625921
 20
-563.2438330230611
 30
0.0
 40
76.00000000000003
100
AcDbArc
 50
186.2613764625428
 51
193.1735511072586
  0
ARC
  5
34B
330
AC
100
AcDbEntity
  8
0
  6
Continuous
 62
     7
100
AcDbCircle
 10
-0.00004450625921
 20
-563.2438330230593
 30
0.0
 40
76.0000000000003
100
AcDbArc
 50
174.4297960340638
 51
186.2303761406924
  0
ARC
  5
34C
330
AC
100
AcDbEntity
  8
0
  6
Continuous
 62
     7
100
AcDbCircle
 10
-0.00004450625875
 20
-563.2438330230652
 30
0.0
 40
76.0
100
AcDbArc
 50
186.2303761406879
 51
186.2613764625396
  0
ARC
  5
34D
330
AC
100
AcDbEntity
  8
0
  6
Continuous
 62
     7
100
AcDbCircle
 10
-0.00004450626153
 20
-563.2438330230716
 30
0.0
 40
76.00000000000018
100
AcDbArc
 50
166.8264488927329
 51
169.0802470585838
  0
ARC
  5
34E
330
AC
100
AcDbEntity
  8
0
  6
Continuous
 62
     7
100
AcDbCircle
 10
-0.00004450625921
 20
-563.2438330230611
 30
0.0
 40
74.8000000000001
100
AcDbArc
 50
83.67034414070964
 51
98.38725134133469
  0
ARC
  5
34F
330
AC
100
AcDbEntity
  8
0
  6
Continuous
 62
     7
100
AcDbCircle
 10
-0.00004450625782
 20
-563.2438330230611
 30
0.0
 40
76.00000000000033
100
AcDbArc
 50
84.42979603406415
 51
96.230376140692
  0
ARC
  5
350
330
AC
100
AcDbEntity
  8
0
  6
Continuous
 62
     7
100
AcDbCircle
 10
-0.00004450625921
 20
-563.2438330230611
 30
0.0
 40
76.00000000000036
100
AcDbArc
 50
79.08024705859226
 51
84.4297960340631
  0
ARC
  5
351
330
AC
100
AcDbEntity
  8
0
  6
Continuous
 62
     7
100
AcDbCircle
 10
-0.00004450626632
 20
-563.2438330230593
 30
0.0
 40
76.00000000000007
100
AcDbArc
 50
76.82644889273558
 51
79.08024705858675
  0
ARC
  5
352
330
AC
100
AcDbEntity
  8
0
  6
Continuous
 62
     7
100
AcDbCircle
 10
-0.00004450625921
 20
-563.2438330230611
 30
0.0
 40
76.00000000000027
100
AcDbArc
 50
96.26137646254287
 51
103.1735511072589
  0
ARC
  5
353
330
AC
100
AcDbEntity
  8
0
  6
Continuous
 62
     7
100
AcDbCircle
 10
-0.00004450621914
 20
-563.2438330230566
 30
0.0
 40
76.00000000000003
100
AcDbArc
 50
96.23037614072138
 51
96.26137646257327
  0
ARC
  5
354
330
AC
100
AcDbEntity
  8
0
  6
Continuous
 62
     3
100
AcDbCircle
 10
-0.00004450625921
 20
-563.2438330230611
 30
0.0
 40
85.3778331549393
100
AcDbArc
 50
60.08147285557553
 51
119.9185271444246
  0
CIRCLE
  5
355
330
AC
100
AcDbEntity
  8
0
  6
Continuous
 62
     7
100
AcDbCircle
 10
-0.00004450625921
 20
-563.2438330230611
 30
0.0
 40
105.5262389627584
  0
CIRCLE
  5
356
330
AC
100
AcDbEntity
  8
0
  6
Continuous
 62
     7
100
AcDbCircle
 10
-0.00004450625921
 20
-563.2438330230611
 30
0.0
 40
108.9597979746445
  0
CIRCLE
  5
357
330
AC
100
AcDbEntity
  8
0
  6
Continuous
 62
     7
100
AcDbCircle
 10
-0.00004450625921
 20
-563.2438330230611
 30
0.0
 40
109.9989998999799
  0
ENDBLK
  5
AE
330
AC
100
AcDbEntity
  8
0
100
AcDbBlockEnd
  0
BLOCK
  5
B0
330
AF
100
AcDbEntity
  8
0
100
AcDbBlockBegin
  2
Dichtung_unten
 70
     0
 10
-0.07346280597711
 20
-563.2218330230826
 30
0.0
  3
Dichtung_unten
  1

  0
ARC
  5
358
330
AF
100
AcDbEntity
  8
0
  6
Continuous
 62
     7
100
AcDbCircle
 10
-0.0000445062592
 20
-563.2438330230611
 30
0.0
 40
65.74999999999963
100
AcDbArc
 50
232.9214678799038
 51
244.7256482466297
  0
ARC
  5
359
330
AF
100
AcDbEntity
  8
0
  6
Continuous
 62
     7
100
AcDbCircle
 10
-0.0000445062592
 20
-563.2438330230611
 30
0.0
 40
64.75000000015278
100
AcDbArc
 50
234.1087592365516
 51
246.6700338434899
  0
ARC
  5
35A
330
AF
100
AcDbEntity
  8
0
  6
Continuous
 62
     7
100
AcDbCircle
 10
-0.0000445062592
 20
-563.2438330230611
 30
0.0
 40
64.75000000015278
100
AcDbArc
 50
293.3299661565101
 51
305.8912407634484
  0
ARC
  5
35B
330
AF
100
AcDbEntity
  8
0
  6
Continuous
 62
     7
100
AcDbCircle
 10
-0.0000445062592
 20
-563.2438330230611
 30
0.0
 40
65.74999999999967
100
AcDbArc
 50
295.2743517533704
 51
307.0785321200962
  0
ARC
  5
35C
330
AF
100
AcDbEntity
  8
0
  6
Continuous
 62
     7
100
AcDbCircle
 10
-0.0000445062592
 20
-563.2438330230611
 30
0.0
 40
65.74999999999999
100
AcDbArc
 50
25.37909467669248
 51
37.15278625376605
  0
ARC
  5
35D
330
AF
100
AcDbEntity
  8
0
  6
Continuous
 62
     7
100
AcDbCircle
 10
-0.0000445062592
 20
-563.2438330230611
 30
0.0
 40
64.75000000015305
100
AcDbArc
 50
324.0312215117809
 51
336.5554109684326
  0
ARC
  5
35E
330
AF
100
AcDbEntity
  8
0
  6
Continuous
 62
     7
100
AcDbCircle
 10
-0.0000445062592
 20
-563.2438330230611
 30
0.0
 40
65.74999999999986
100
AcDbArc
 50
322.8472137462343
 51
334.6209053233076
  0
ARC
  5
35F
330
AF
100
AcDbEntity
  8
0
  6
Continuous
 62
     7
100
AcDbCircle
 10
-0.0000445062592
 20
-563.2438330230611
 30
0.0
 40
64.75000000015322
100
AcDbArc
 50
23.44458903156778
 51
35.96877848821948
  0
ARC
  5
360
330
AF
100
AcDbEntity
  8
0
  6
Continuous
 62
     7
100
AcDbCircle
 10
-0.0000445062592
 20
-563.2438330230611
 30
0.0
 40
64.75000000015312
100
AcDbArc
 50
144.2530337112076
 51
156.8841639900006
  0
ARC
  5
361
330
AF
100
AcDbEntity
  8
0
  6
Continuous
 62
     7
100
AcDbCircle
 10
-0.0000445062592
 20
-563.2438330230611
 30
0.0
 40
65.74999999999997
100
AcDbArc
 50
143.0596018319108
 51
154.9211051330974
  0
ARC
  5
362
330
AF
100
AcDbEntity
  8
0
  6
Continuous
 62
     7
100
AcDbCircle
 10
-0.0000445062592
 20
-563.2438330230611
 30
0.0
 40
65.7499999999999
100
AcDbArc
 50
205.0788948669022
 51
216.9403981680892
  0
ARC
  5
363
330
AF
100
AcDbEntity
  8
0
  6
Continuous
 62
     7
100
AcDbCircle
 10
-0.0000445062592
 20
-563.2438330230611
 30
0.0
 40
64.75000000015314
100
AcDbArc
 50
203.1158360099994
 51
215.746966288792
  0
ARC
  5
364
330
AF
100
AcDbEntity
  8
0
  6
Continuous
 62
     7
100
AcDbCircle
 10
-0.0000445062592
 20
-563.2438330230611
 30
0.0
 40
65.75000000000016
100
AcDbArc
 50
115.1843973953129
 51
127.0148896407231
  0
ARC
  5
365
330
AF
100
AcDbEntity
  8
0
  6
Continuous
 62
     7
100
AcDbCircle
 10
-0.0000445062592
 20
-563.2438330230611
 30
0.0
 40
64.75000000015325
100
AcDbArc
 50
113.2314565053227
 51
125.8247743688378
  0
ARC
  5
366
330
AF
100
AcDbEntity
  8
0
  6
Continuous
 62
     7
100
AcDbCircle
 10
-0.0000445062592
 20
-563.2438330230611
 30
0.0
 40
65.75000000000024
100
AcDbArc
 50
52.98511035927686
 51
64.81560260468704
  0
ARC
  5
367
330
AF
100
AcDbEntity
  8
0
  6
Continuous
 62
     7
100
AcDbCircle
 10
-0.0000445062592
 20
-563.2438330230611
 30
0.0
 40
64.75000000015336
100
AcDbArc
 50
54.17522563116216
 51
66.7685434946773
  0
ENDBLK
  5
B1
330
AF
100
AcDbEntity
  8
0
100
AcDbBlockEnd
  0
BLOCK
  5
B3
330
B2
100
AcDbEntity
  8
0
100
AcDbBlockBegin
  2
62_1H_Koerper
 70
     0
 10
-0.07346280597711
 20
-563.2218330230826
 30
0.0
  3
62_1H_Koerper
  1

  0
ARC
  5
368
330
B2
100
AcDbEntity
  8
0
  6
Continuous
 62
     7
100
AcDbCircle
 10
-0.00004450625921
 20
-563.2438330230611
 30
0.0
 40
64.54929299999954
100
AcDbArc
 50
301.4489942589845
 51
305.6443164856865
  0
ARC
  5
369
330
B2
100
AcDbEntity
  8
0
  6
Continuous
 62
     7
100
AcDbCircle
 10
-0.00004450625921
 20
-563.2438330230611
 30
0.0
 40
64.54929299999935
100
AcDbArc
 50
234.3556835143135
 51
247.0866213149222
  0
ARC
  5
36A
330
B2
100
AcDbEntity
  8
0
  6
Continuous
 62
     3
100
AcDbCircle
 10
-0.00004450625921
 20
-563.2438330230611
 30
0.0
 40
64.11022768434277
100
AcDbArc
 50
121.4489942589844
 51
125.0249598352223
  0
ARC
  5
36B
330
B2
100
AcDbEntity
  8
0
  6
Continuous
 62
     3
100
AcDbCircle
 10
-0.00004450625921
 20
-563.2438330230611
 30
0.0
 40
64.11022768434228
100
AcDbArc
 50
234.906583348993
 51
248.0335006470883
  0
ARC
  5
36C
330
B2
100
AcDbEntity
  8
0
  6
Continuous
 62
     7
100
AcDbCircle
 10
-0.00004450625921
 20
-563.2438330230611
 30
0.0
 40
64.54929299999931
100
AcDbArc
 50
292.9133786850777
 51
301.4489942589845
  0
ARC
  5
36D
330
B2
100
AcDbEntity
  8
0
  6
Continuous
 62
     3
100
AcDbCircle
 10
-0.00004450625921
 20
-563.2438330230611
 30
0.0
 40
64.11022768434226
100
AcDbArc
 50
291.9664993529117
 51
305.093416651007
  0
ARC
  5
36E
330
B2
100
AcDbEntity
  8
0
  6
Continuous
 62
     7
100
AcDbCircle
 10
-0.00004450625921
 20
-563.2438330230611
 30
0.0
 40
64.54929299999965
100
AcDbArc
 50
324.2774393229238
 51
336.9696783946169
  0
ARC
  5
36F
330
B2
100
AcDbEntity
  8
0
  6
Continuous
 62
     7
100
AcDbCircle
 10
-0.00004450625921
 20
-563.2438330230611
 30
0.0
 40
64.54929299999968
100
AcDbArc
 50
23.03032160538341
 51
35.7225606770762
  0
ARC
  5
370
330
B2
100
AcDbEntity
  8
0
  6
Continuous
 62
     3
100
AcDbCircle
 10
-0.00004450625921
 20
-563.2438330230611
 30
0.0
 40
64.11022768434246
100
AcDbArc
 50
324.8267320708782
 51
337.9109777555289
  0
ARC
  5
371
330
B2
100
AcDbEntity
  8
0
  6
Continuous
 62
     3
100
AcDbCircle
 10
-0.00004450625921
 20
-563.2438330230611
 30
0.0
 40
64.1102276843427
100
AcDbArc
 50
22.08902224447146
 51
35.17326792912214
  0
ARC
  5
372
330
B2
100
AcDbEntity
  8
0
  6
Continuous
 62
     3
100
AcDbCircle
 10
-0.00004450625921
 20
-563.2438330230611
 30
0.0
 40
64.11022768434265
100
AcDbArc
 50
145.0551868215548
 51
158.2626084402608
  0
ARC
  5
373
330
B2
100
AcDbEntity
  8
0
  6
Continuous
 62
     7
100
AcDbCircle
 10
-0.00004450625921
 20
-563.2438330230611
 30
0.0
 40
64.54929299999984
100
AcDbArc
 50
144.5012796680002
 51
157.305145587242
  0
ARC
  5
374
330
B2
100
AcDbEntity
  8
0
  6
Continuous
 62
     7
100
AcDbCircle
 10
-0.00004450625921
 20
-563.2438330230611
 30
0.0
 40
64.54929299999961
100
AcDbArc
 50
202.6948544127576
 51
215.4987203319995
  0
ARC
  5
375
330
B2
100
AcDbEntity
  8
0
  6
Continuous
 62
     3
100
AcDbCircle
 10
-0.00004450625921
 20
-563.2438330230611
 30
0.0
 40
64.11022768434256
100
AcDbArc
 50
201.7373915597388
 51
214.9448131784453
  0
ARC
  5
376
330
B2
100
AcDbEntity
  8
0
  6
Continuous
 62
     7
100
AcDbCircle
 10
-0.00004450625921
 20
-563.2438330230611
 30
0.0
 40
64.54929299999982
100
AcDbArc
 50
112.8128573333652
 51
125.5772423626762
  0
ARC
  5
377
330
B2
100
AcDbEntity
  8
0
  6
Continuous
 62
     3
100
AcDbCircle
 10
-0.00004450625921
 20
-563.2438330230611
 30
0.0
 40
64.11022768434276
100
AcDbArc
 50
111.8611351701285
 51
121.4489942589844
  0
ARC
  5
378
330
B2
100
AcDbEntity
  8
0
  6
Continuous
 62
     7
100
AcDbCircle
 10
-0.00004450625921
 20
-563.2438330230611
 30
0.0
 40
64.5492929999999
100
AcDbArc
 50
54.42275763732376
 51
67.18714266663483
  0
ARC
  5
379
330
B2
100
AcDbEntity
  8
0
  6
Continuous
 62
     3
100
AcDbCircle
 10
-0.00004450625921
 20
-563.2438330230611
 30
0.0
 40
64.11022768434285
100
AcDbArc
 50
54.97504016477772
 51
68.13886482987152
  0
ENDBLK
  5
B4
330
B2
100
AcDbEntity
  8
0
100
AcDbBlockEnd
  0
BLOCK
  5
B6
330
B5
100
AcDbEntity
  8
0
100
AcDbBlockBegin
  2
Dichtring
 70
     0
 10
-0.07346280597711
 20
-563.2218330230826
 30
0.0
  3
Dichtring
  1

  0
ARC
  5
37A
330
B5
100
AcDbEntity
  8
0
  6
Continuous
 62
     7
100
AcDbCircle
 10
-0.0000445062592
 20
-563.2438330230611
 30
0.0
 40
65.74999999999963
100
AcDbArc
 50
232.9214678799038
 51
244.7256482466297
  0
ARC
  5
37B
330
B5
100
AcDbEntity
  8
0
  6
Continuous
 62
     7
100
AcDbCircle
 10
-0.0000445062592
 20
-563.2438330230611
 30
0.0
 40
64.75000000015278
100
AcDbArc
 50
234.1087592365516
 51
246.6700338434899
  0
ARC
  5
37C
330
B5
100
AcDbEntity
  8
0
  6
Continuous
 62
     7
100
AcDbCircle
 10
-0.0000445062592
 20
-563.2438330230611
 30
0.0
 40
64.75000000015278
100
AcDbArc
 50
293.3299661565101
 51
305.8912407634484
  0
ARC
  5
37D
330
B5
100
AcDbEntity
  8
0
  6
Continuous
 62
     7
100
AcDbCircle
 10
-0.0000445062592
 20
-563.2438330230611
 30
0.0
 40
65.74999999999967
100
AcDbArc
 50
295.2743517533704
 51
307.0785321200962
  0
ARC
  5
37E
330
B5
100
AcDbEntity
  8
0
  6
Continuous
 62
     7
100
AcDbCircle
 10
-0.0000445062592
 20
-563.2438330230611
 30
0.0
 40
65.74999999999999
100
AcDbArc
 50
25.37909467669248
 51
37.15278625376605
  0
ARC
  5
37F
330
B5
100
AcDbEntity
  8
0
  6
Continuous
 62
     7
100
AcDbCircle
 10
-0.0000445062592
 20
-563.2438330230611
 30
0.0
 40
64.75000000015305
100
AcDbArc
 50
324.0312215117809
 51
336.5554109684326
  0
ARC
  5
380
330
B5
100
AcDbEntity
  8
0
  6
Continuous
 62
     7
100
AcDbCircle
 10
-0.0000445062592
 20
-563.2438330230611
 30
0.0
 40
65.74999999999986
100
AcDbArc
 50
322.8472137462343
 51
334.6209053233076
  0
ARC
  5
381
330
B5
100
AcDbEntity
  8
0
  6
Continuous
 62
     7
100
AcDbCircle
 10
-0.0000445062592
 20
-563.2438330230611
 30
0.0
 40
64.75000000015322
100
AcDbArc
 50
23.44458903156778
 51
35.96877848821948
  0
ARC
  5
382
330
B5
100
AcDbEntity
  8
0
  6
Continuous
 62
     7
100
AcDbCircle
 10
-0.0000445062592
 20
-563.2438330230611
 30
0.0
 40
64.75000000015312
100
AcDbArc
 50
144.2530337112076
 51
156.8841639900006
  0
ARC
  5
383
330
B5
100
AcDbEntity
  8
0
  6
Continuous
 62
     7
100
AcDbCircle
 10
-0.0000445062592
 20
-563.2438330230611
 30
0.0
 40
65.74999999999997
100
AcDbArc
 50
143.0596018319108
 51
154.9211051330974
  0
ARC
  5
384
330
B5
100
AcDbEntity
  8
0
  6
Continuous
 62
     7
100
AcDbCircle
 10
-0.0000445062592
 20
-563.2438330230611
 30
0.0
 40
65.7499999999999
100
AcDbArc
 50
205.0788948669022
 51
216.9403981680892
  0
ARC
  5
385
330
B5
100
AcDbEntity
  8
0
  6
Continuous
 62
     7
100
AcDbCircle
 10
-0.0000445062592
 20
-563.2438330230611
 30
0.0
 40
64.75000000015314
100
AcDbArc
 50
203.1158360099994
 51
215.746966288792
  0
ARC
  5
386
330
B5
100
AcDbEntity
  8
0
  6
Continuous
 62
     7
100
AcDbCircle
 10
-0.0000445062592
 20
-563.2438330230611
 30
0.0
 40
65.75000000000016
100
AcDbArc
 50
115.1843973953129
 51
127.0148896407231
  0
ARC
  5
387
330
B5
100
AcDbEntity
  8
0
  6
Continuous
 62
     7
100
AcDbCircle
 10
-0.0000445062592
 20
-563.2438330230611
 30
0.0
 40
64.75000000015325
100
AcDbArc
 50
113.2314565053227
 51
125.8247743688378
  0
ARC
  5
388
330
B5
100
AcDbEntity
  8
0
  6
Continuous
 62
     7
100
AcDbCircle
 10
-0.0000445062592
 20
-563.2438330230611
 30
0.0
 40
65.75000000000024
100
AcDbArc
 50
52.98511035927686
 51
64.81560260468704
  0
ARC
  5
389
330
B5
100
AcDbEntity
  8
0
  6
Continuous
 62
     7
100
AcDbCircle
 10
-0.0000445062592
 20
-563.2438330230611
 30
0.0
 40
64.75000000015336
100
AcDbArc
 50
54.17522563116216
 51
66.7685434946773
  0
ENDBLK
  5
B7
330
B5
100
AcDbEntity
  8
0
100
AcDbBlockEnd
  0
BLOCK
  5
B9
330
B8
100
AcDbEntity
  8
0
100
AcDbBlockBegin
  2
HL062B_3E_Tragring
 70
     0
 10
-0.00004450625946
 20
-563.2438330230606
 30
0.0
  3
HL062B_3E_Tragring
  1

  0
LINE
  5
38A
330
B8
100
AcDbEntity
  8
0
  6
Continuous
 62
     7
100
AcDbLine
 10
-38.24676879690976
 20
-619.8455348416492
 30
0.0
 11
-42.64510749819027
 21
-616.3787891969196
 31
0.0
  0
LINE
  5
38B
330
B8
100
AcDbEntity
  8
0
  6
Continuous
 62
     7
100
AcDbLine
 10
-8.26960818732246
 20
-637.7462780602864
 30
0.0
 11
-8.19680208478655
 21
-637.2438330230611
 31
0.0
  0
LINE
  5
38C
330
B8
100
AcDbEntity
  8
0
  6
Continuous
 62
     7
100
AcDbLine
 10
-3.25026787223825
 20
-637.973185007882
 30
0.0
 11
-3.14458213259046
 21
-637.2438330230611
 31
0.0
  0
LINE
  5
38D
330
B8
100
AcDbEntity
  8
0
  6
Continuous
 62
     7
100
AcDbLine
 10
56.60165731232921
 20
-601.4905573137107
 30
0.0
 11
53.14553692626712
 21
-605.8754155087186
 31
0.0
  0
LINE
  5
38E
330
B8
100
AcDbEntity
  8
0
  6
Continuous
 62
     7
100
AcDbLine
 10
74.50240053096618
 20
-571.5133967041234
 30
0.0
 11
73.99995549374079
 21
-571.4405906015872
 31
0.0
  0
LINE
  5
38F
330
B8
100
AcDbEntity
  8
0
  6
Continuous
 62
     7
100
AcDbLine
 10
74.72930747856171
 20
-566.4940563890386
 30
0.0
 11
73.9999554937408
 21
-566.3883706493907
 31
0.0
  0
LINE
  5
390
330
B8
100
AcDbEntity
  8
0
  6
Continuous
 62
     7
100
AcDbLine
 10
-74.50248954348547
 20
-554.9742693419985
 30
0.0
 11
-74.00004450625917
 21
-555.0470754445346
 31
0.0
  0
LINE
  5
391
330
B8
100
AcDbEntity
  8
0
  6
Continuous
 62
     7
100
AcDbLine
 10
-74.72939649108005
 20
-559.9936096570818
 30
0.0
 11
-74.00004450625926
 21
-560.0992953967298
 31
0.0
  0
LINE
  5
392
330
B8
100
AcDbEntity
  8
0
  6
Continuous
 62
     7
100
AcDbLine
 10
-56.60174632484866
 20
-524.9971087324111
 30
0.0
 11
-53.20412838510846
 21
-520.6864739157945
 31
0.0
  0
LINE
  5
393
330
B8
100
AcDbEntity
  8
0
  6
Continuous
 62
     7
100
AcDbLine
 10
38.24667978439011
 20
-506.6421312044715
 30
0.0
 11
42.5449015131418
 21
-510.0299652186859
 31
0.0
  0
LINE
  5
394
330
B8
100
AcDbEntity
  8
0
  6
Continuous
 62
     7
100
AcDbLine
 10
3.25017885971818
 20
-488.51448103824
 30
0.0
 11
3.14449312007036
 21
-489.2438330230609
 31
0.0
  0
LINE
  5
395
330
B8
100
AcDbEntity
  8
0
  6
Continuous
 62
     7
100
AcDbLine
 10
8.26951917480274
 20
-488.7413879858348
 30
0.0
 11
8.19671307226687
 21
-489.2438330230609
 31
0.0
  0
ARC
  5
396
330
B8
100
AcDbEntity
  8
0
  6
Continuous
 62
     7
100
AcDbCircle
 10
-0.00004450626632
 20
-563.2438330230593
 30
0.0
 40
76.00000000000016
100
AcDbArc
 50
256.8264488927466
 51
259.0802470585967
  0
ARC
  5
397
330
B8
100
AcDbEntity
  8
0
  6
Continuous
 62
     7
100
AcDbCircle
 10
-14.20759194176258
 20
-636.8858427448758
 30
0.0
 40
0.9999999999999424
100
AcDbArc
 50
259.0802470585936
 51
339.0231766809441
  0
ARC
  5
398
330
B8
100
AcDbEntity
  8
0
  6
Continuous
 62
     7
100
AcDbCircle
 10
-0.0000445062592
 20
-563.2438330230611
 30
0.0
 40
75.99999999999947
100
AcDbArc
 50
259.0802470585912
 51
264.4297960340621
  0
ARC
  5
399
330
B8
100
AcDbEntity
  8
0
  6
Continuous
 62
     7
100
AcDbCircle
 10
-39.79433159635917
 20
-621.8089628086905
 30
0.0
 40
2.499999999999893
100
AcDbArc
 50
12.75440491084692
 51
51.75502154632846
  0
ARC
  5
39A
330
B8
100
AcDbEntity
  8
0
  6
Continuous
 62
     7
100
AcDbCircle
 10
-7.27994422824907
 20
-637.8896839461881
 30
0.0
 40
1.000000000000048
100
AcDbArc
 50
171.755021546327
 51
264.4297960340597
  0
ARC
  5
39B
330
B8
100
AcDbEntity
  8
0
  6
Continuous
 62
     3
100
AcDbCircle
 10
-0.0000445062592
 20
-563.2438330230611
 30
0.0
 40
76.99999999999982
100
AcDbArc
 50
253.9537659194992
 51
286.0462340805003
  0
ARC
  5
39C
330
B8
100
AcDbEntity
  8
0
  6
Continuous
 62
     7
100
AcDbCircle
 10
-0.00004450625782
 20
-563.2438330230611
 30
0.0
 40
75.99999999999982
100
AcDbArc
 50
264.429796034061
 51
276.2303761406895
  0
ARC
  5
39D
330
B8
100
AcDbEntity
  8
0
  6
Continuous
 62
     7
100
AcDbCircle
 10
-0.0000445062592
 20
-563.2438330230611
 30
0.0
 40
75.99999999999991
100
AcDbArc
 50
276.2613764625424
 51
283.1735511072588
  0
ARC
  5
39E
330
B8
100
AcDbEntity
  8
0
  6
Continuous
 62
     7
100
AcDbCircle
 10
-0.00004450622127
 20
-563.243833023057
 30
0.0
 40
76.00000000000004
100
AcDbArc
 50
276.2303761406618
 51
276.2613764625137
  0
ARC
  5
39F
330
B8
100
AcDbEntity
  8
0
  6
Continuous
 62
     7
100
AcDbCircle
 10
-0.0000445062615
 20
-563.2438330230716
 30
0.0
 40
75.99999999999984
100
AcDbArc
 50
346.8264488927491
 51
349.0802470586001
  0
ARC
  5
3A0
330
B8
100
AcDbEntity
  8
0
  6
Continuous
 62
     7
100
AcDbCircle
 10
73.6419652155557
 20
-577.4513804585631
 30
0.0
 40
1.000000000000073
100
AcDbArc
 50
349.0802470585762
 51
69.02317668095478
  0
ARC
  5
3A1
330
B8
100
AcDbEntity
  8
0
  6
Continuous
 62
     7
100
AcDbCircle
 10
-0.0000445062592
 20
-563.2438330230611
 30
0.0
 40
75.99999999999953
100
AcDbArc
 50
349.080247058592
 51
354.4297960340631
  0
ARC
  5
3A2
330
B8
100
AcDbEntity
  8
0
  6
Continuous
 62
     3
100
AcDbCircle
 10
-0.0000445062592
 20
-563.2438330230611
 30
0.0
 40
76.99999999999947
100
AcDbArc
 50
343.9537659195
 51
16.04623408050065
  0
ARC
  5
3A3
330
B8
100
AcDbEntity
  8
0
  6
Continuous
 62
     7
100
AcDbCircle
 10
58.56508527937055
 20
-603.03812011316
 30
0.0
 40
2.499999999999851
100
AcDbArc
 50
102.7544049108338
 51
141.7550215463324
  0
ARC
  5
3A4
330
B8
100
AcDbEntity
  8
0
  6
Continuous
 62
     7
100
AcDbCircle
 10
74.64580641686791
 20
-570.52373274505
 30
0.0
 40
1.000000000000017
100
AcDbArc
 50
261.7550215463284
 51
354.429796034077
  0
ARC
  5
3A5
330
B8
100
AcDbEntity
  8
0
  6
Continuous
 62
     7
100
AcDbCircle
 10
-0.0000445062592
 20
-563.2438330230611
 30
0.0
 40
76.00000000000004
100
AcDbArc
 50
6.26137646254273
 51
13.17355110725899
  0
ARC
  5
3A6
330
B8
100
AcDbEntity
  8
0
  6
Continuous
 62
     7
100
AcDbCircle
 10
-0.00004450625921
 20
-563.2438330230593
 30
0.0
 40
75.99999999999973
100
AcDbArc
 50
354.4297960340617
 51
6.23037614068962
  0
ARC
  5
3A7
330
B8
100
AcDbEntity
  8
0
  6
Continuous
 62
     7
100
AcDbCircle
 10
-0.00004450626693
 20
-563.2438330229902
 30
0.0
 40
76.00000000000001
100
AcDbArc
 50
6.23037614063718
 51
6.26137646248893
  0
ARC
  5
3A8
330
B8
100
AcDbEntity
  8
0
  6
Continuous
 62
     7
100
AcDbCircle
 10
70.61598920907849
 20
-568.4241316757625
 30
0.0
 40
2.499999999999804
100
AcDbArc
 50
132.75440491084
 51
133.2026488315379
  0
ARC
  5
3A9
330
B8
100
AcDbEntity
  8
0
  6
Continuous
 62
     7
100
AcDbCircle
 10
-74.64589542938725
 20
-555.9639333010718
 30
0.0
 40
1.000000000000025
100
AcDbArc
 50
81.75502154632518
 51
174.4297960340505
  0
ARC
  5
3AA
330
B8
100
AcDbEntity
  8
0
  6
Continuous
 62
     7
100
AcDbCircle
 10
-73.64205422807507
 20
-549.0362855875583
 30
0.0
 40
0.9999999999999175
100
AcDbArc
 50
169.080247058601
 51
249.0231766810165
  0
ARC
  5
3AB
330
B8
100
AcDbEntity
  8
0
  6
Continuous
 62
     7
100
AcDbCircle
 10
-0.0000445062592
 20
-563.2438330230611
 30
0.0
 40
76.0000000000005
100
AcDbArc
 50
169.0802470585919
 51
174.4297960340624
  0
ARC
  5
3AC
330
B8
100
AcDbEntity
  8
0
  6
Continuous
 62
     7
100
AcDbCircle
 10
-0.0000445062592
 20
-563.2438330230611
 30
0.0
 40
76.00000000000004
100
AcDbArc
 50
186.2613764625428
 51
193.1735511072586
  0
ARC
  5
3AD
330
B8
100
AcDbEntity
  8
0
  6
Continuous
 62
     7
100
AcDbCircle
 10
-0.00004450625921
 20
-563.2438330230593
 30
0.0
 40
76.0000000000003
100
AcDbArc
 50
174.4297960340638
 51
186.2303761406924
  0
ARC
  5
3AE
330
B8
100
AcDbEntity
  8
0
  6
Continuous
 62
     7
100
AcDbCircle
 10
-0.00004450625873
 20
-563.2438330230652
 30
0.0
 40
76.00000000000003
100
AcDbArc
 50
186.2303761406879
 51
186.2613764625396
  0
ARC
  5
3AF
330
B8
100
AcDbEntity
  8
0
  6
Continuous
 62
     3
100
AcDbCircle
 10
-0.0000445062592
 20
-563.2438330230611
 30
0.0
 40
77.00000000000054
100
AcDbArc
 50
163.9537659194974
 51
196.046234080502
  0
ARC
  5
3B0
330
B8
100
AcDbEntity
  8
0
  6
Continuous
 62
     7
100
AcDbCircle
 10
-0.0000445062615
 20
-563.2438330230716
 30
0.0
 40
76.00000000000021
100
AcDbArc
 50
166.8264488927329
 51
169.0802470585838
  0
ARC
  5
3B1
330
B8
100
AcDbEntity
  8
0
  6
Continuous
 62
     7
100
AcDbCircle
 10
-58.56517429188997
 20
-523.4495459329614
 30
0.0
 40
2.500000000000146
100
AcDbArc
 50
282.7544049108636
 51
321.7550215463237
  0
ARC
  5
3B2
330
B8
100
AcDbEntity
  8
0
  6
Continuous
 62
     7
100
AcDbCircle
 10
39.79424258383962
 20
-504.6787032374302
 30
0.0
 40
2.500000000000059
100
AcDbArc
 50
192.7544049108541
 51
231.7550215463266
  0
ARC
  5
3B3
330
B8
100
AcDbEntity
  8
0
  6
Continuous
 62
     7
100
AcDbCircle
 10
-0.00004450625782
 20
-563.2438330230611
 30
0.0
 40
76.00000000000033
100
AcDbArc
 50
84.42979603406415
 51
96.230376140692
  0
ARC
  5
3B4
330
B8
100
AcDbEntity
  8
0
  6
Continuous
 62
     7
100
AcDbCircle
 10
7.2798552157294
 20
-488.5979820999331
 30
0.0
 40
0.9999999999999845
100
AcDbArc
 50
351.7550215463298
 51
84.4297960340624
  0
ARC
  5
3B5
330
B8
100
AcDbEntity
  8
0
  6
Continuous
 62
     7
100
AcDbCircle
 10
14.20750292924287
 20
-489.6018233012454
 30
0.0
 40
1.000000000000068
100
AcDbArc
 50
79.08024705859081
 51
159.0231766809925
  0
ARC
  5
3B6
330
B8
100
AcDbEntity
  8
0
  6
Continuous
 62
     7
100
AcDbCircle
 10
-0.0000445062592
 20
-563.2438330230611
 30
0.0
 40
76.00000000000036
100
AcDbArc
 50
79.08024705859228
 51
84.42979603406312
  0
ARC
  5
3B7
330
B8
100
AcDbEntity
  8
0
  6
Continuous
 62
     7
100
AcDbCircle
 10
-0.00004450626632
 20
-563.2438330230593
 30
0.0
 40
76.00000000000007
100
AcDbArc
 50
76.82644889273558
 51
79.08024705858675
  0
ARC
  5
3B8
330
B8
100
AcDbEntity
  8
0
  6
Continuous
 62
     7
100
AcDbCircle
 10
-0.0000445062592
 20
-563.2438330230611
 30
0.0
 40
76.00000000000027
100
AcDbArc
 50
96.26137646254287
 51
103.1735511072589
  0
ARC
  5
3B9
330
B8
100
AcDbEntity
  8
0
  6
Continuous
 62
     7
100
AcDbCircle
 10
-0.00004450621914
 20
-563.2438330230566
 30
0.0
 40
76.00000000000003
100
AcDbArc
 50
96.23037614072138
 51
96.26137646257327
  0
ARC
  5
3BA
330
B8
100
AcDbEntity
  8
0
  6
Continuous
 62
     3
100
AcDbCircle
 10
-0.0000445062592
 20
-563.2438330230611
 30
0.0
 40
77.00000000000043
100
AcDbArc
 50
73.95376591949818
 51
106.0462340805024
  0
ENDBLK
  5
BA
330
B8
100
AcDbEntity
  8
0
100
AcDbBlockEnd
  0
BLOCK
  5
BC
330
BB
100
AcDbEntity
  8
0
100
AcDbBlockBegin
  2
HL64H_Körper
 70
     0
 10
-200.3139355
 20
-67.26963184302528
 30
0.0
  3
HL64H_Körper
  1

  0
POINT
  5
3BB
330
BB
100
AcDbEntity
  8
0
 62
     7
100
AcDbPoint
 10
-150.628033
 20
-67.77225634302528
 30
0.0
  0
LINE
  5
3BC
330
BB
100
AcDbEntity
  8
LC-001-002-----0
  6
Continuous
 62
     7
100
AcDbLine
 10
-249.999838
 20
-66.76700734302528
 30
0.0
 11
-249.999838
 21
-67.76700734302528
 31
0.0
  0
ENDBLK
  5
BD
330
BB
100
AcDbEntity
  8
0
100
AcDbBlockEnd
  0
BLOCK
  5
C0
330
BE
100
AcDbEntity
  8
0
100
AcDbBlockBegin
  2
HL64BH__7
 70
     0
 10
-200.3139355
 20
-67.26963184302528
 30
0.0
  3
HL64BH__7
  1

  0
INSERT
  5
BF
330
BE
100
AcDbEntity
  8
1
100
AcDbBlockReference
  2
HL64H_Körper
 10
-200.3139355
 20
-67.26963184302528
 30
0.0
  0
ENDBLK
  5
C1
330
BE
100
AcDbEntity
  8
0
100
AcDbBlockEnd
  0
BLOCK
  5
C4
330
C2
100
AcDbEntity
  8
0
100
AcDbBlockBegin
  2
HL_64_1BH_Flachdachablauf_DN75_110
 70
     0
 10
-200.3139355
 20
-67.26963184302528
 30
0.0
  3
HL_64_1BH_Flachdachablauf_DN75_110
  1

  0
INSERT
  5
C3
330
C2
100
AcDbEntity
  8
0
100
AcDbBlockReference
  2
HL64BH__7
 10
-200.3139355
 20
-67.26963184302528
 30
0.0
  0
ENDBLK
  5
C5
330
C2
100
AcDbEntity
  8
0
100
AcDbBlockEnd
  0
BLOCK
  5
1CF
330
1C7
100
AcDbEntity
  8
0
100
AcDbBlockBegin
  2
*D26
 70
     1
 10
0.0
 20
0.0
 30
0.0
  3
*D26
  1

  0
LINE
  5
1C8
330
1C7
100
AcDbEntity
  8
1
  6
Continuous
 62
     4
100
AcDbLine
 10
-192.3757748646486
 20
-213.3215855295123
 30
0.0
 11
-192.3757748646486
 21
-68.00064752951232
 31
0.0
  0
LINE
  5
1C9
330
1C7
100
AcDbEntity
  8
1
  6
Continuous
 62
     4
100
AcDbLine
 10
-175.4999939999998
 20
-68.00064752951232
 30
0.0
 11
-194.3757748646486
 21
-68.00064752951232
 31
0.0
  0
LINE
  5
1CA
330
1C7
100
AcDbEntity
  8
1
  6
Continuous
 62
     4
100
AcDbLine
 10
-33.30642500000002
 20
-213.3215855295123
 30
0.0
 11
-194.3757748646486
 21
-213.3215855295123
 31
0.0
  0
SOLID
  5
1CB
330
1C7
100
AcDbEntity
  8
1
 62
     4
100
AcDbTrace
 10
-193.6922998405226
 20
-203.3215855295123
 30
0.0
 11
-191.0592498887746
 21
-203.3215855295123
 31
0.0
 12
-192.3757748646486
 22
-213.3215855295123
 32
0.0
 13
-192.3757748646486
 23
-213.3215855295123
 33
0.0
  0
SOLID
  5
1CC
330
1C7
100
AcDbEntity
  8
1
 62
     4
100
AcDbTrace
 10
-191.0592498887746
 20
-78.00064752951232
 30
0.0
 11
-193.6922998405226
 21
-78.00064752951232
 31
0.0
 12
-192.3757748646486
 22
-68.00064752951232
 32
0.0
 13
-192.3757748646486
 23
-68.00064752951232
 33
0.0
  0
MTEXT
  5
1CE
330
1C7
100
AcDbEntity
  8
1
 62
     1
100
AcDbMText
 10
-194.3757748646486
 20
-157.811926845907
 30
0.0
 40
10.0
 41
0.0
 46
0.0
 71
     7
 72
     1
  1
145
  7
CONVERTER_11
 11
0.0
 21
1.0
 31
0.0
 73
     1
 44
0.60024009603842
  0
ENDBLK
  5
1D0
330
1C7
100
AcDbEntity
  8
0
100
AcDbBlockEnd
  0
BLOCK
  5
1DA
330
1D3
100
AcDbEntity
  8
0
100
AcDbBlockBegin
  2
*D27
 70
     1
 10
0.0
 20
0.0
 30
0.0
  3
*D27
  1

  0
LINE
  5
1D4
330
1D3
100
AcDbEntity
  8
1
  6
Continuous
 62
     4
100
AcDbLine
 10
-192.3757748646486
 20
0.0
 30
0.0
 11
-192.3757748646486
 21
-68.00064752951232
 31
0.0
  0
LINE
  5
1D5
330
1D3
100
AcDbEntity
  8
1
  6
Continuous
 62
     4
100
AcDbLine
 10
-175.4999939999998
 20
-68.00064752951232
 30
0.0
 11
-194.3757748646486
 21
-68.00064752951232
 31
0.0
  0
LINE
  5
1D6
330
1D3
100
AcDbEntity
  8
1
  6
Continuous
 62
     4
100
AcDbLine
 10
-73.5
 20
0.0
 30
0.0
 11
-194.3757748646486
 21
0.0
 31
0.0
  0
SOLID
  5
1D7
330
1D3
100
AcDbEntity
  8
1
 62
     4
100
AcDbTrace
 10
-191.0592498887746
 20
-10.0
 30
0.0
 11
-193.6922998405226
 21
-10.0
 31
0.0
 12
-192.3757748646486
 22
0.0
 32
0.0
 13
-192.3757748646486
 23
0.0
 33
0.0
  0
SOLID
  5
1D8
330
1D3
100
AcDbEntity
  8
1
 62
     4
100
AcDbTrace
 10
-193.6922998405226
 20
-58.00064752951232
 30
0.0
 11
-191.0592498887746
 21
-58.00064752951232
 31
0.0
 12
-192.3757748646486
 22
-68.00064752951232
 32
0.0
 13
-192.3757748646486
 23
-68.00064752951232
 33
0.0
  0
MTEXT
  5
1D9
330
1D3
100
AcDbEntity
  8
1
 62
     1
100
AcDbMText
 10
-194.3757748646486
 20
-53.73940139847603
 30
0.0
 40
10.0
 41
0.0
 46
0.0
 71
     7
 72
     1
  1
\C1;17-\C1;68
  7
CONVERTER_11
 11
0.0
 21
1.0
 31
0.0
 73
     1
 44
0.60024009603842
  0
ENDBLK
  5
1DB
330
1D3
100
AcDbEntity
  8
0
100
AcDbBlockEnd
  0
BLOCK
  5
1E5
330
1DE
100
AcDbEntity
  8
0
100
AcDbBlockBegin
  2
*D28
 70
     1
 10
0.0
 20
0.0
 30
0.0
  3
*D28
  1

  0
LINE
  5
1DF
330
1DE
100
AcDbEntity
  8
1
  6
Continuous
 62
     4
100
AcDbLine
 10
73.50000000000011
 20
10.91040988325403
 30
0.0
 11
-73.5
 21
10.91040988325403
 31
0.0
  0
LINE
  5
1E0
330
1DE
100
AcDbEntity
  8
1
  6
Continuous
 62
     4
100
AcDbLine
 10
-73.5
 20
0.0
 30
0.0
 11
-73.5
 21
12.91040988325403
 31
0.0
  0
LINE
  5
1E1
330
1DE
100
AcDbEntity
  8
1
  6
Continuous
 62
     4
100
AcDbLine
 10
73.50000000000011
 20
0.0
 30
0.0
 11
73.50000000000011
 21
12.91040988325403
 31
0.0
  0
SOLID
  5
1E2
330
1DE
100
AcDbEntity
  8
1
 62
     4
100
AcDbTrace
 10
63.50000000000011
 20
9.59388490738007
 30
0.0
 11
63.50000000000011
 21
12.22693485912799
 31
0.0
 12
73.50000000000011
 22
10.91040988325403
 32
0.0
 13
73.50000000000011
 23
10.91040988325403
 33
0.0
  0
SOLID
  5
1E3
330
1DE
100
AcDbEntity
  8
1
 62
     4
100
AcDbTrace
 10
-63.5
 20
12.22693485912799
 30
0.0
 11
-63.5
 21
9.59388490738007
 31
0.0
 12
-73.5
 22
10.91040988325403
 32
0.0
 13
-73.5
 23
10.91040988325403
 33
0.0
  0
MTEXT
  5
1E4
330
1DE
100
AcDbEntity
  8
1
 62
     1
100
AcDbMText
 10
-47.53788682048339
 20
12.91033037381033
 30
0.0
 40
10.0
 41
0.0
 46
0.0
 71
     7
 72
     1
  1
\C1;150x\C1;150
  7
CONVERTER_11
 11
0.9999999999970621
 21
2.424068405545307E-6
 31
0.0
 73
     1
 44
0.60024009603842
  0
ENDBLK
  5
1E6
330
1DE
100
AcDbEntity
  8
0
100
AcDbBlockEnd
  0
BLOCK
  5
1F0
330
1E9
100
AcDbEntity
  8
0
100
AcDbBlockBegin
  2
*D29
 70
     1
 10
0.0
 20
0.0
 30
0.0
  3
*D29
  1

  0
LINE
  5
1EA
330
1E9
100
AcDbEntity
  8
1
  6
Continuous
 62
     4
100
AcDbLine
 10
249.9327440000001
 20
31.9213428777137
 30
0.0
 11
-249.932744
 21
31.9213428777137
 31
0.0
  0
LINE
  5
1EB
330
1E9
100
AcDbEntity
  8
1
  6
Continuous
 62
     4
100
AcDbLine
 10
249.9327440000001
 20
-64.0005703430253
 30
0.0
 11
249.9327440000001
 21
33.9213428777137
 31
0.0
  0
LINE
  5
1EC
330
1E9
100
AcDbEntity
  8
1
  6
Continuous
 62
     4
100
AcDbLine
 10
-249.932744
 20
-64.0005703430253
 30
0.0
 11
-249.932744
 21
33.9213428777137
 31
0.0
  0
SOLID
  5
1ED
330
1E9
100
AcDbEntity
  8
1
 62
     4
100
AcDbTrace
 10
239.9327440000001
 20
30.60481790183974
 30
0.0
 11
239.9327440000001
 21
33.23786785358766
 31
0.0
 12
249.9327440000001
 22
31.9213428777137
 32
0.0
 13
249.9327440000001
 23
31.9213428777137
 33
0.0
  0
SOLID
  5
1EE
330
1E9
100
AcDbEntity
  8
1
 62
     4
100
AcDbTrace
 10
-239.932744
 20
33.23786785358766
 30
0.0
 11
-239.932744
 21
30.60481790183974
 31
0.0
 12
-249.932744
 22
31.9213428777137
 32
0.0
 13
-249.932744
 23
31.9213428777137
 33
0.0
  0
MTEXT
  5
1EF
330
1E9
100
AcDbEntity
  8
1
 62
     1
100
AcDbMText
 10
-19.31140251121178
 20
33.9213428777137
 30
0.0
 40
10.0
 41
0.0
 46
0.0
 71
     7
 72
     1
  1
\C1;\C1;500\C1;x500
  7
CONVERTER_11
 11
0.9999999999970621
 21
2.424068405545307E-6
 31
0.0
 73
     1
 44
0.60024009603842
  0
ENDBLK
  5
1F1
330
1E9
100
AcDbEntity
  8
0
100
AcDbBlockEnd
  0
BLOCK
  5
1FB
330
1F4
100
AcDbEntity
  8
0
100
AcDbBlockBegin
  2
*D30
 70
     1
 10
0.0
 20
0.0
 30
0.0
  3
*D30
  1

  0
LINE
  5
1F5
330
1F4
100
AcDbEntity
  8
1
  6
Continuous
 62
     4
100
AcDbLine
 10
184.3079085977351
 20
-135.7780985999148
 30
0.0
 11
180.3849097911075
 21
-210.6333645576412
 31
0.0
  0
LINE
  5
1F6
330
1F4
100
AcDbEntity
  8
1
  6
Continuous
 62
     4
100
AcDbLine
 10
150.7523470000001
 20
-209.0803875295123
 30
0.0
 11
182.3821688598495
 21
-210.7380364847656
 31
0.0
  0
LINE
  5
1F7
330
1F4
100
AcDbEntity
  8
1
  6
Continuous
 62
     4
100
AcDbLine
 10
154.6753450000001
 20
-134.2251215295123
 30
0.0
 11
186.305167666477
 21
-135.8827705270392
 31
0.0
  0
SOLID
  5
1F8
330
1F4
100
AcDbEntity
  8
1
 62
     4
100
AcDbTrace
 10
185.0992696857581
 20
-145.8332955467907
 30
0.0
 11
182.4698282384686
 21
-145.6954923404587
 31
0.0
 12
184.3079085977351
 22
-135.7780985999148
 32
0.0
 13
184.3079085977351
 23
-135.7780985999148
 33
0.0
  0
SOLID
  5
1F9
330
1F4
100
AcDbEntity
  8
1
 62
     4
100
AcDbTrace
 10
179.5935487030844
 20
-200.5781676107653
 30
0.0
 11
182.222990150374
 21
-200.7159708170974
 31
0.0
 12
180.3849097911075
 22
-210.6333645576412
 32
0.0
 13
180.3849097911075
 23
-210.6333645576412
 33
0.0
  0
MTEXT
  5
1FA
330
1F4
100
AcDbEntity
  8
1
 62
     1
100
AcDbMText
 10
179.7401814495408
 20
-184.7208725700926
 30
0.0
 40
10.0
 41
0.0
 46
0.0
 71
     7
 72
     1
  1
\C1;DN\C1;75
  7
CONVERTER_11
 11
0.05233596356217441
 21
0.9986295343709892
 31
0.0
 73
     1
 44
0.60024009603842
  0
ENDBLK
  5
1FC
330
1F4
100
AcDbEntity
  8
0
100
AcDbBlockEnd
  0
BLOCK
  5
206
330
1FF
100
AcDbEntity
  8
0
100
AcDbBlockBegin
  2
*D31
 70
     1
 10
0.0
 20
0.0
 30
0.0
  3
*D31
  1

  0
LINE
  5
200
330
1FF
100
AcDbEntity
  8
1
  6
Continuous
 62
     4
100
AcDbLine
 10
323.9369648068744
 20
-131.5930919985111
 30
0.0
 11
318.1800096004002
 21
-241.4423409876902
 31
0.0
  0
LINE
  5
201
330
1FF
100
AcDbEntity
  8
1
  6
Continuous
 62
     4
100
AcDbLine
 10
294.5878134671867
 20
-130.0549681500062
 30
0.0
 11
325.9342238763731
 21
-131.6977639111972
 31
0.0
  0
LINE
  5
202
330
1FF
100
AcDbEntity
  8
1
  6
Continuous
 62
     4
100
AcDbLine
 10
288.8308584671868
 20
-239.9042171500062
 30
0.0
 11
320.1772686698989
 21
-241.5470129003763
 31
0.0
  0
SOLID
  5
203
330
1FF
100
AcDbEntity
  8
1
 62
     4
100
AcDbTrace
 10
324.728325967587
 20
-141.6482889396663
 30
0.0
 11
322.0988845193012
 21
-141.5104857523426
 31
0.0
 12
323.9369648068744
 22
-131.5930919985111
 32
0.0
 13
323.9369648068744
 23
-131.5930919985111
 33
0.0
  0
SOLID
  5
204
330
1FF
100
AcDbEntity
  8
1
 62
     4
100
AcDbTrace
 10
317.3886484396876
 20
-231.3871440465351
 30
0.0
 11
320.0180898879734
 21
-231.5249472338588
 31
0.0
 12
318.1800096004002
 22
-241.4423409876902
 32
0.0
 13
318.1800096004002
 23
-241.4423409876902
 33
0.0
  0
MTEXT
  5
205
330
1FF
100
AcDbEntity
  8
1
 62
     1
100
AcDbMText
 10
318.4788630059172
 20
-197.5252331728633
 30
0.0
 40
10.0
 41
0.0
 46
0.0
 71
     7
 72
     1
  1
\C1;DN\C1;110
  7
CONVERTER_11
 11
0.05233595634304552
 21
0.9986295347493278
 31
0.0
 73
     1
 44
0.60024009603842
  0
ENDBLK
  5
207
330
1FF
100
AcDbEntity
  8
0
100
AcDbBlockEnd
  0
ENDSEC
  0
SECTION
  2
ENTITIES
  0
INSERT
  5
C6
330
1F
100
AcDbEntity
  8
0
100
AcDbBlockReference
  2
HL_64_1B_Flachdachablauf_DN75_110__6
 10
25.46708968505695
 20
-397.1612450726738
 30
0.0
  0
INSERT
  5
C7
330
1F
100
AcDbEntity
  8
1
100
AcDbBlockReference
  2
Reduzierung
 10
272.199572463036
 20
-563.2438330230611
 30
0.0
  0
INSERT
  5
C8
330
1F
100
AcDbEntity
  8
0
100
AcDbBlockReference
  2
HL0317_1E_Einlaufrost
 10
-0.07346280597917
 20
-563.2218330230609
 30
0.0
  0
INSERT
  5
C9
330
1F
100
AcDbEntity
  8
0
100
AcDbBlockReference
  2
HL062B_2E_Aufsatzrahmen
 10
-0.00004450625924
 20
-563.243833023061
 30
0.0
  0
INSERT
  5
CA
330
1F
100
AcDbEntity
  8
0
100
AcDbBlockReference
  2
Metallring
 10
-0.00004450625921
 20
-563.2438330230611
 30
0.0
  0
INSERT
  5
CB
330
1F
100
AcDbEntity
  8
0
100
AcDbBlockReference
  2
Dichtung_unten
 10
-0.07346280597711
 20
-563.2218330230826
 30
0.0
  0
INSERT
  5
CC
330
1F
100
AcDbEntity
  8
0
100
AcDbBlockReference
  2
62_1H_Koerper
 10
-0.07346280597711
 20
-563.2218330230826
 30
0.0
  0
INSERT
  5
CD
330
1F
100
AcDbEntity
  8
0
100
AcDbBlockReference
  2
Dichtring
 10
-0.07346280597711
 20
-563.2218330230826
 30
0.0
  0
INSERT
  5
CE
330
1F
100
AcDbEntity
  8
0
100
AcDbBlockReference
  2
HL062B_3E_Tragring
 10
-0.00004450625946
 20
-563.2438330230606
 30
0.0
  0
INSERT
  5
CF
330
1F
100
AcDbEntity
  8
0
100
AcDbBlockReference
  2
HL_64_1BH_Flachdachablauf_DN75_110
 10
-200.3139355
 20
-67.26963184302528
 30
0.0
  0
ENDSEC
  0
SECTION
  2
OBJECTS
  0
DICTIONARY
  5
C
330
0
100
AcDbDictionary
281
     1
  3
ACAD_DETAILVIEWSTYLE
350
3C4
  3
ACAD_GROUP
350
D
  3
ACAD_LAYOUT
350
1A
  3
ACAD_MATERIAL
350
43
  3
ACAD_MLEADERSTYLE
350
5B
  3
ACAD_MLINESTYLE
350
17
  3
ACAD_PLOTSETTINGS
350
19
  3
ACAD_PLOTSTYLENAME
350
E
  3
ACAD_SCALELIST
350
47
  3
ACAD_SECTIONVIEWSTYLE
350
3C5
  3
ACAD_TABLESTYLE
350
59
  3
ACAD_VISUALSTYLE
350
2A
  3
ACDB_RECOMPOSE_DATA
350
3C1
  3
AcDbVariableDictionary
350
3BD
  0
SUN
  5
5D
330
29
100
AcDbSun
 90
        1
290
     0
 63
     7
421
 16777215
 40
1.0
291
     1
 91
  2455826
 92
 54000000
292
     0
 70
     2
 71
   256
280
     1
  0
DICTIONARY
  5
3C4
102
{ACAD_REACTORS
330
C
102
}
330
C
100
AcDbDictionary
281
     1
  0
DICTIONARY
  5
D
102
{ACAD_REACTORS
330
C
102
}
330
C
100
AcDbDictionary
281
     1
  0
DICTIONARY
  5
1A
102
{ACAD_REACTORS
330
C
102
}
330
C
100
AcDbDictionary
281
     1
  3
Layout1
350
1E
  3
Layout2
350
26
  3
Model
350
22
  0
DICTIONARY
  5
43
102
{ACAD_REACTORS
330
C
102
}
330
C
100
AcDbDictionary
281
     1
  3
ByBlock
350
45
  3
ByLayer
350
44
  3
Global
350
46
  0
DICTIONARY
  5
5B
102
{ACAD_REACTORS
330
C
102
}
330
C
100
AcDbDictionary
281
     1
  3
Standard
350
5C
  0
DICTIONARY
  5
17
102
{ACAD_REACTORS
330
C
102
}
330
C
100
AcDbDictionary
281
     1
  3
Standard
350
18
  0
DICTIONARY
  5
19
102
{ACAD_REACTORS
330
C
102
}
330
C
100
AcDbDictionary
281
     1
  0
ACDBDICTIONARYWDFLT
  5
E
102
{ACAD_REACTORS
330
C
102
}
330
C
100
AcDbDictionary
281
     1
  3
Normal
350
F
100
AcDbDictionaryWithDefault
340
F
  0
DICTIONARY
  5
47
102
{ACAD_REACTORS
330
C
102
}
330
C
100
AcDbDictionary
281
     1
  3
A0
350
48
  3
A1
350
49
  3
A2
350
4A
  3
A3
350
4B
  3
A4
350
4C
  3
A5
350
4D
  3
A6
350
4E
  3
A7
350
4F
  3
A8
350
50
  3
A9
350
51
  3
B1
350
52
  3
B2
350
53
  3
B3
350
54
  3
B4
350
55
  3
B5
350
56
  3
B6
350
57
  3
B7
350
58
  0
DICTIONARY
  5
3C5
102
{ACAD_REACTORS
330
C
102
}
330
C
100
AcDbDictionary
281
     1
  0
DICTIONARY
  5
59
102
{ACAD_REACTORS
330
C
102
}
330
C
100
AcDbDictionary
281
     1
  3
Standard
350
5A
  0
DICTIONARY
  5
2A
102
{ACAD_REACTORS
330
C
102
}
330
C
100
AcDbDictionary
281
     1
  3
2dWireframe
350
2F
  3
Basic
350
32
  3
Brighten
350
36
  3
ColorChange
350
3A
  3
Conceptual
350
34
  3
Dim
350
35
  3
EdgeColorOff
350
3D
  3
Facepattern
350
39
  3
Flat
350
2B
  3
FlatWithEdges
350
2C
  3
Gouraud
350
2D
  3
GouraudWithEdges
350
2E
  3
Hidden
350
31
  3
JitterOff
350
3B
  3
Linepattern
350
38
  3
OverhangOff
350
3C
  3
Realistic
350
33
  3
Shaded
350
42
  3
Shaded with edges
350
41
  3
Shades of Gray
350
3E
  3
Sketchy
350
3F
  3
Thicken
350
37
  3
Wireframe
350
30
  3
X-Ray
350
40
  0
XRECORD
  5
3C1
102
{ACAD_REACTORS
330
C
102
}
330
C
100
AcDbXrecord
280
     1
 90
        1
330
5A
  0
DICTIONARY
  5
3BD
102
{ACAD_REACTORS
330
C
102
}
330
C
100
AcDbDictionary
281
     1
  3
CANNOSCALE
350
3BE
  3
CMLEADERSTYLE
350
3C3
  3
CTABLESTYLE
350
3C2
  0
LAYOUT
  5
1E
102
{ACAD_REACTORS
330
1A
102
}
330
1A
100
AcDbPlotSettings
  1

  2
none_device
  4

  6

 40
0.0
 41
0.0
 42
0.0
 43
0.0
 44
0.0
 45
0.0
 46
0.0
 47
0.0
 48
0.0
 49
0.0
140
0.0
141
0.0
142
1.0
143
1.0
 70
   688
 72
     0
 73
     0
 74
     5
  7

 75
    16
 76
     0
 77
     2
 78
   300
147
1.0
148
0.0
149
0.0
100
AcDbLayout
  1
Layout1
 70
     1
 71
     1
 10
0.0
 20
0.0
 11
12.0
 21
9.0
 12
0.0
 22
0.0
 32
0.0
 14
1.00000000000000E+20
 24
1.00000000000000E+20
 34
1.00000000000000E+20
 15
-1.00000000000000E+20
 25
-1.00000000000000E+20
 35
-1.00000000000000E+20
146
0.0
 13
0.0
 23
0.0
 33
0.0
 16
1.0
 26
0.0
 36
0.0
 17
0.0
 27
1.0
 37
0.0
 76
     0
330
1B
  0
LAYOUT
  5
26
102
{ACAD_REACTORS
330
1A
102
}
330
1A
100
AcDbPlotSettings
  1

  2
none_device
  4

  6

 40
0.0
 41
0.0
 42
0.0
 43
0.0
 44
0.0
 45
0.0
 46
0.0
 47
0.0
 48
0.0
 49
0.0
140
0.0
141
0.0
142
1.0
143
1.0
 70
   688
 72
     0
 73
     0
 74
     5
  7

 75
    16
 76
     0
 77
     2
 78
   300
147
1.0
148
0.0
149
0.0
100
AcDbLayout
  1
Layout2
 70
     1
 71
     2
 10
0.0
 20
0.0
 11
0.0
 21
0.0
 12
0.0
 22
0.0
 32
0.0
 14
0.0
 24
0.0
 34
0.0
 15
0.0
 25
0.0
 35
0.0
146
0.0
 13
0.0
 23
0.0
 33
0.0
 16
1.0
 26
0.0
 36
0.0
 17
0.0
 27
1.0
 37
0.0
 76
     0
330
23
  0
LAYOUT
  5
22
102
{ACAD_REACTORS
330
1A
102
}
330
1A
100
AcDbPlotSettings
  1

  2
none_device
  4
Letter_(8.50_x_11.00_Inches)
  6

 40
6.35
 41
6.35
 42
6.35000508
 43
6.35000508
 44
215.9
 45
279.4
 46
0.0
 47
0.0
 48
0.0
 49
0.0
140
0.0
141
0.0
142
1.0
143
1.0
 70
  1712
 72
     0
 73
     0
 74
     0
  7

 75
     0
 76
     0
 77
     2
 78
   300
147
1.0
148
0.0
149
0.0
100
AcDbLayout
  1
Model
 70
     1
 71
     0
 10
0.0
 20
0.0
 11
12.0
 21
9.0
 12
0.0
 22
0.0
 32
0.0
 14
-265.41710547692
 24
-825.1796769479772
 34
0.0
 15
325.9342238763731
 25
43.9213428777137
 35
0.0
146
0.0
 13
0.0
 23
0.0
 33
0.0
 16
1.0
 26
0.0
 36
0.0
 17
0.0
 27
1.0
 37
0.0
 76
     0
330
1F
331
29
  0
MATERIAL
  5
45
102
{ACAD_REACTORS
330
43
102
}
330
43
100
AcDbMaterial
  1
ByBlock
 72
     1
 94
      127
  0
MATERIAL
  5
44
102
{ACAD_REACTORS
330
43
102
}
330
43
100
AcDbMaterial
  1
ByLayer
 72
     1
 94
      127
  0
MATERIAL
  5
46
102
{ACAD_REACTORS
330
43
102
}
330
43
100
AcDbMaterial
  1
Global
 72
     1
 94
      127
  0
MLEADERSTYLE
  5
5C
102
{ACAD_REACTORS
330
5B
102
}
330
5B
100
AcDbMLeaderStyle
179
     2
170
     2
171
     1
172
     0
 90
        2
 40
0.0
 41
0.0
173
     1
 91
-1056964608
340
14
 92
       -2
290
     1
 42
0.09
291
     1
 43
0.36
  3
Standard
341
0
 44
0.18
300

342
11
174
     1
178
     6
175
     1
176
     0
 93
-1056964608
 45
0.18
292
     0
297
     0
 46
0.18
343
0
 94
-1056964608
 47
1.0
 49
1.0
140
1.0
293
     1
141
0.0
294
     1
177
     0
142
1.0
295
     0
296
     0
143
0.125
271
     0
272
     9
273
     9
298
     0
  0
MLINESTYLE
  5
18
102
{ACAD_REACTORS
330
17
102
}
330
17
100
AcDbMlineStyle
  2
Standard
 70
     0
  3

 62
   256
 51
90.0
 52
90.0
 71
     2
 49
0.5
 62
   256
  6
BYLAYER
 49
-0.5
 62
   256
  6
BYLAYER
  0
ACDBPLACEHOLDER
  5
F
102
{ACAD_REACTORS
330
E
102
}
330
E
  0
SCALE
  5
48
102
{ACAD_REACTORS
330
47
102
}
330
47
100
AcDbScale
 70
     0
300
1:1
140
1.0
141
1.0
290
     1
  0
SCALE
  5
49
102
{ACAD_REACTORS
330
47
102
}
330
47
100
AcDbScale
 70
     0
300
1/128" = 1'-0"
140
0.0078125
141
12.0
290
     0
  0
SCALE
  5
4A
102
{ACAD_REACTORS
330
47
102
}
330
47
100
AcDbScale
 70
     0
300
1/64" = 1'-0"
140
0.015625
141
12.0
290
     0
  0
SCALE
  5
4B
102
{ACAD_REACTORS
330
47
102
}
330
47
100
AcDbScale
 70
     0
300
1/32" = 1'-0"
140
0.03125
141
12.0
290
     0
  0
SCALE
  5
4C
102
{ACAD_REACTORS
330
47
102
}
330
47
100
AcDbScale
 70
     0
300
1/16" = 1'-0"
140
0.0625
141
12.0
290
     0
  0
SCALE
  5
4D
102
{ACAD_REACTORS
330
47
102
}
330
47
100
AcDbScale
 70
     0
300
3/32" = 1'-0"
140
0.09375
141
12.0
290
     0
  0
SCALE
  5
4E
102
{ACAD_REACTORS
330
47
102
}
330
47
100
AcDbScale
 70
     0
300
1/8" = 1'-0"
140
0.125
141
12.0
290
     0
  0
SCALE
  5
4F
102
{ACAD_REACTORS
330
47
102
}
330
47
100
AcDbScale
 70
     0
300
3/16" = 1'-0"
140
0.1875
141
12.0
290
     0
  0
SCALE
  5
50
102
{ACAD_REACTORS
330
47
102
}
330
47
100
AcDbScale
 70
     0
300
1/4" = 1'-0"
140
0.25
141
12.0
290
     0
  0
SCALE
  5
51
102
{ACAD_REACTORS
330
47
102
}
330
47
100
AcDbScale
 70
     0
300
3/8" = 1'-0"
140
0.375
141
12.0
290
     0
  0
SCALE
  5
52
102
{ACAD_REACTORS
330
47
102
}
330
47
100
AcDbScale
 70
     0
300
1/2" = 1'-0"
140
0.5
141
12.0
290
     0
  0
SCALE
  5
53
102
{ACAD_REACTORS
330
47
102
}
330
47
100
AcDbScale
 70
     0
300
3/4" = 1'-0"
140
0.75
141
12.0
290
     0
  0
SCALE
  5
54
102
{ACAD_REACTORS
330
47
102
}
330
47
100
AcDbScale
 70
     0
300
1" = 1'-0"
140
1.0
141
12.0
290
     0
  0
SCALE
  5
55
102
{ACAD_REACTORS
330
47
102
}
330
47
100
AcDbScale
 70
     0
300
1-1/2" = 1'-0"
140
1.5
141
12.0
290
     0
  0
SCALE
  5
56
102
{ACAD_REACTORS
330
47
102
}
330
47
100
AcDbScale
 70
     0
300
3" = 1'-0"
140
3.0
141
12.0
290
     0
  0
SCALE
  5
57
102
{ACAD_REACTORS
330
47
102
}
330
47
100
AcDbScale
 70
     0
300
6" = 1'-0"
140
6.0
141
12.0
290
     0
  0
SCALE
  5
58
102
{ACAD_REACTORS
330
47
102
}
330
47
100
AcDbScale
 70
     0
300
1'-0" = 1'-0"
140
12.0
141
12.0
290
     0
  0
TABLESTYLE
  5
5A
102
{ACAD_REACTORS
330
59
102
}
102
{ACAD_XDICTIONARY
360
3BF
102
}
330
59
100
AcDbTableStyle
  3
Standard
 70
     0
 71
     0
 40
0.06
 41
0.06
280
     0
281
     0
  7
Standard
140
0.18
170
     2
 62
     0
 63
   257
283
     0
 90
        4
 91
        0
  1

274
    -2
284
     1
 64
     0
275
    -2
285
     1
 65
     0
276
    -2
286
     1
 66
     0
277
    -2
287
     1
 67
     0
278
    -2
288
     1
 68
     0
279
    -2
289
     1
 69
     0
  7
Standard
140
0.25
170
     5
 62
     0
 63
   257
283
     0
 90
        4
 91
        0
  1

274
    -2
284
     1
 64
     0
275
    -2
285
     1
 65
     0
276
    -2
286
     1
 66
     0
277
    -2
287
     1
 67
     0
278
    -2
288
     1
 68
     0
279
    -2
289
     1
 69
     0
  7
Standard
140
0.18
170
     5
 62
     0
 63
   257
283
     0
 90
        4
 91
        0
  1

274
    -2
284
     1
 64
     0
275
    -2
285
     1
 65
     0
276
    -2
286
     1
 66
     0
277
    -2
287
     1
 67
     0
278
    -2
288
     1
 68
     0
279
    -2
289
     1
 69
     0
  0
VISUALSTYLE
  5
2F
102
{ACAD_REACTORS
330
2A
102
}
330
2A
100
AcDbVisualStyle
  2
2dWireframe
 70
     4
177
     3
291
     0
 70
    58
 90
        0
176
     1
 90
        2
176
     1
 90
        0
176
     1
 90
        0
176
     1
 40
0.6
176
     1
 40
30.0
176
     1
 62
     7
420
 16777215
176
     1
 90
        1
176
     1
 90
        4
176
     1
 62
     7
176
     1
 62
   257
176
     1
 90
        1
176
     1
 90
        1
176
     1
 40
1.0
176
     1
 90
        0
176
     1
 62
   257
176
     1
 40
1.0
176
     1
 90
        1
176
     1
 90
        6
176
     1
 90
        2
176
     1
 62
     7
176
     1
 90
        5
176
     1
 90
        0
176
     1
 90
        0
176
     1
290
     0
176
     1
 90
        1
176
     1
 40
0.0
176
     1
 90
        0
176
     1
290
     1
176
     1
290
     1
176
     1
290
     0
176
     1
290
     0
176
     1
290
     0
176
     1
290
     0
176
     1
290
     0
176
     1
290
     0
176
     1
290
     0
176
     1
 90
       50
176
     1
 40
0.0
176
     1
 40
1.0
176
     1
 90
        0
176
     1
 62
    18
420
        0
176
     1
 90
       50
176
     1
 90
        3
176
     1
 62
     5
420
      255
176
     1
290
     0
176
     1
 90
       50
176
     1
 90
       50
176
     1
 90
       50
176
     1
290
     0
176
     1
 90
       50
176
     1
 62
   256
176
     0
 40
1.0
176
     0
 90
        2
176
     1
  1
strokes_ogs.tif
176
     1
290
     0
176
     1
 40
1.0
176
     1
 40
1.0
176
     1
  0
VISUALSTYLE
  5
32
102
{ACAD_REACTORS
330
2A
102
}
330
2A
100
AcDbVisualStyle
  2
Basic
 70
     7
177
     3
291
     1
 70
    58
 90
        1
176
     1
 90
        0
176
     1
 90
        1
176
     1
 90
        0
176
     1
 40
0.6
176
     1
 40
30.0
176
     1
 62
     7
420
 16777215
176
     1
 90
        0
176
     1
 90
        4
176
     1
 62
     7
176
     1
 62
   257
176
     1
 90
        1
176
     1
 90
        1
176
     1
 40
1.0
176
     1
 90
        8
176
     1
 62
     7
176
     1
 40
1.0
176
     1
 90
        1
176
     1
 90
        6
176
     1
 90
        2
176
     1
 62
     7
176
     1
 90
        5
176
     1
 90
        0
176
     1
 90
        0
176
     1
290
     0
176
     1
 90
        1
176
     1
 40
0.0
176
     1
 90
        0
176
     1
290
     0
176
     1
290
     1
176
     1
290
     1
176
     1
290
     0
176
     1
290
     0
176
     1
290
     0
176
     1
290
     0
176
     1
290
     0
176
     1
290
     0
176
     1
 90
       50
176
     1
 40
0.0
176
     1
 40
1.0
176
     1
 90
        0
176
     1
 62
    18
420
        0
176
     1
 90
       50
176
     1
 90
        3
176
     1
 62
     5
420
      255
176
     1
290
     0
176
     1
 90
       50
176
     1
 90
       50
176
     1
 90
       50
176
     1
290
     0
176
     1
 90
       50
176
     1
 62
   256
176
     0
 40
1.0
176
     0
 90
        2
176
     1
  1
strokes_ogs.tif
176
     1
290
     0
176
     1
 40
1.0
176
     1
 40
1.0
176
     1
  0
VISUALSTYLE
  5
36
102
{ACAD_REACTORS
330
2A
102
}
330
2A
100
AcDbVisualStyle
  2
Brighten
 70
    12
177
     3
291
     1
 70
    58
 90
        2
176
     1
 90
        2
176
     1
 90
        0
176
     1
 90
        0
176
     1
 40
0.6
176
     1
 40
30.0
176
     1
 62
     7
420
 16777215
176
     1
 90
        1
176
     1
 90
        4
176
     1
 62
     7
176
     1
 62
   257
176
     1
 90
        1
176
     1
 90
        1
176
     1
 40
1.0
176
     1
 90
        8
176
     1
 62
     7
176
     1
 40
1.0
176
     1
 90
        1
176
     1
 90
        6
176
     1
 90
        2
176
     1
 62
     7
176
     1
 90
        5
176
     1
 90
        0
176
     1
 90
        0
176
     1
290
     0
176
     1
 90
        1
176
     1
 40
50.0
176
     1
 90
        0
176
     1
290
     0
176
     1
290
     1
176
     1
290
     1
176
     1
290
     0
176
     1
290
     0
176
     1
290
     0
176
     1
290
     0
176
     1
290
     0
176
     1
290
     0
176
     1
 90
       50
176
     1
 40
0.0
176
     1
 40
1.0
176
     1
 90
        0
176
     1
 62
    18
420
        0
176
     1
 90
       50
176
     1
 90
        3
176
     1
 62
     5
420
      255
176
     1
290
     0
176
     1
 90
       50
176
     1
 90
       50
176
     1
 90
       50
176
     1
290
     0
176
     1
 90
       50
176
     1
 62
   256
176
     0
 40
1.0
176
     0
 90
        2
176
     1
  1
strokes_ogs.tif
176
     1
290
     0
176
     1
 40
1.0
176
     1
 40
1.0
176
     1
  0
VISUALSTYLE
  5
3A
102
{ACAD_REACTORS
330
2A
102
}
330
2A
100
AcDbVisualStyle
  2
ColorChange
 70
    16
177
     3
291
     1
 70
    58
 90
        2
176
     1
 90
        2
176
     1
 90
        3
176
     1
 90
        0
176
     1
 40
0.6
176
     1
 40
30.0
176
     1
 62
     8
420
  8421504
176
     1
 90
        1
176
     1
 90
        4
176
     1
 62
     7
176
     1
 62
   257
176
     1
 90
        1
176
     1
 90
        1
176
     1
 40
1.0
176
     1
 90
        8
176
     1
 62
     8
420
  8421504
176
     1
 40
1.0
176
     1
 90
        1
176
     1
 90
        6
176
     1
 90
        2
176
     1
 62
     7
176
     1
 90
        5
176
     1
 90
        0
176
     1
 90
        0
176
     1
290
     0
176
     1
 90
        1
176
     1
 40
0.0
176
     1
 90
        0
176
     1
290
     0
176
     1
290
     1
176
     1
290
     1
176
     1
290
     0
176
     1
290
     0
176
     1
290
     0
176
     1
290
     0
176
     1
290
     0
176
     1
290
     0
176
     1
 90
       50
176
     1
 40
0.0
176
     1
 40
1.0
176
     1
 90
        0
176
     1
 62
    18
420
        0
176
     1
 90
       50
176
     1
 90
        3
176
     1
 62
     5
420
      255
176
     1
290
     0
176
     1
 90
       50
176
     1
 90
       50
176
     1
 90
       50
176
     1
290
     0
176
     1
 90
       50
176
     1
 62
   256
176
     0
 40
1.0
176
     0
 90
        2
176
     1
  1
strokes_ogs.tif
176
     1
290
     0
176
     1
 40
1.0
176
     1
 40
1.0
176
     1
  0
VISUALSTYLE
  5
34
102
{ACAD_REACTORS
330
2A
102
}
330
2A
100
AcDbVisualStyle
  2
Conceptual
 70
     9
177
     3
291
     0
 70
    58
 90
        3
176
     1
 90
        2
176
     1
 90
        0
176
     1
 90
        0
176
     1
 40
0.6
176
     1
 40
30.0
176
     1
 62
     7
420
 16777215
176
     1
 90
        2
176
     1
 90
        2
176
     1
 62
     7
176
     1
 62
   257
176
     1
 90
        1
176
     1
 90
        1
176
     1
 40
179.0
176
     1
 90
        8
176
     1
 62
     7
176
     1
 40
1.0
176
     1
 90
        1
176
     1
 90
        6
176
     1
 90
        2
176
     1
 62
     7
176
     1
 90
        3
176
     1
 90
        0
176
     1
 90
        0
176
     1
290
     0
176
     1
 90
        1
176
     1
 40
0.0
176
     1
 90
        0
176
     1
290
     0
176
     1
290
     1
176
     1
290
     1
176
     1
290
     0
176
     1
290
     0
176
     1
290
     0
176
     1
290
     0
176
     1
290
     0
176
     1
290
     0
176
     1
 90
       50
176
     1
 40
0.0
176
     1
 40
1.0
176
     1
 90
        0
176
     1
 62
    18
420
        0
176
     1
 90
       50
176
     1
 90
        3
176
     1
 62
     5
420
      255
176
     1
290
     0
176
     1
 90
       50
176
     1
 90
       50
176
     1
 90
       50
176
     1
290
     0
176
     1
 90
       50
176
     1
 62
   256
176
     0
 40
1.0
176
     0
 90
        2
176
     1
  1
strokes_ogs.tif
176
     1
290
     0
176
     1
 40
1.0
176
     1
 40
1.0
176
     1
  0
VISUALSTYLE
  5
35
102
{ACAD_REACTORS
330
2A
102
}
330
2A
100
AcDbVisualStyle
  2
Dim
 70
    11
177
     3
291
     1
 70
    58
 90
        2
176
     1
 90
        2
176
     1
 90
        0
176
     1
 90
        0
176
     1
 40
0.6
176
     1
 40
30.0
176
     1
 62
     7
420
 16777215
176
     1
 90
        1
176
     1
 90
        4
176
     1
 62
     7
176
     1
 62
   257
176
     1
 90
        1
176
     1
 90
        1
176
     1
 40
1.0
176
     1
 90
        8
176
     1
 62
     7
176
     1
 40
1.0
176
     1
 90
        1
176
     1
 90
        6
176
     1
 90
        2
176
     1
 62
     7
176
     1
 90
        5
176
     1
 90
        0
176
     1
 90
        0
176
     1
290
     0
176
     1
 90
        1
176
     1
 40
-50.0
176
     1
 90
        0
176
     1
290
     0
176
     1
290
     1
176
     1
290
     1
176
     1
290
     0
176
     1
290
     0
176
     1
290
     0
176
     1
290
     0
176
     1
290
     0
176
     1
290
     0
176
     1
 90
       50
176
     1
 40
0.0
176
     1
 40
1.0
176
     1
 90
        0
176
     1
 62
    18
420
        0
176
     1
 90
       50
176
     1
 90
        3
176
     1
 62
     5
420
      255
176
     1
290
     0
176
     1
 90
       50
176
     1
 90
       50
176
     1
 90
       50
176
     1
290
     0
176
     1
 90
       50
176
     1
 62
   256
176
     0
 40
1.0
176
     0
 90
        2
176
     1
  1
strokes_ogs.tif
176
     1
290
     0
176
     1
 40
1.0
176
     1
 40
1.0
176
     1
  0
VISUALSTYLE
  5
3D
102
{ACAD_REACTORS
330
2A
102
}
330
2A
100
AcDbVisualStyle
  2
EdgeColorOff
 70
    22
177
     3
291
     1
 70
    58
 90
        2
176
     0
 90
        2
176
     0
 90
        0
176
     0
 90
        0
176
     0
 40
0.6
176
     0
 40
30.0
176
     0
 62
     7
420
 16777215
176
     0
 90
        1
176
     0
 90
        4
176
     0
 62
     7
176
     0
 62
   257
176
     0
 90
        1
176
     0
 90
        1
176
     0
 40
1.0
176
     0
 90
        8
176
     2
 62
     7
176
     0
 40
1.0
176
     0
 90
        1
176
     0
 90
        6
176
     0
 90
        2
176
     0
 62
     7
176
     0
 90
        5
176
     0
 90
        0
176
     0
 90
        0
176
     0
290
     0
176
     0
 90
        1
176
     0
 40
0.0
176
     0
 90
        0
176
     0
290
     0
176
     0
290
     1
176
     0
290
     1
176
     0
290
     0
176
     0
290
     0
176
     0
290
     0
176
     0
290
     0
176
     0
290
     0
176
     0
290
     0
176
     0
 90
       50
176
     0
 40
0.0
176
     0
 40
1.0
176
     0
 90
        0
176
     0
 62
    18
420
        0
176
     0
 90
       50
176
     0
 90
        3
176
     0
 62
     5
420
      255
176
     0
290
     0
176
     0
 90
       50
176
     0
 90
       50
176
     0
 90
       50
176
     0
290
     0
176
     0
 90
       50
176
     0
 62
   256
176
     0
 40
1.0
176
     0
 90
        2
176
     0
  1
strokes_ogs.tif
176
     0
290
     0
176
     0
 40
1.0
176
     0
 40
1.0
176
     0
  0
VISUALSTYLE
  5
39
102
{ACAD_REACTORS
330
2A
102
}
330
2A
100
AcDbVisualStyle
  2
Facepattern
 70
    15
177
     3
291
     1
 70
    58
 90
        2
176
     1
 90
        2
176
     1
 90
        0
176
     1
 90
        0
176
     1
 40
0.6
176
     1
 40
30.0
176
     1
 62
     7
420
 16777215
176
     1
 90
        1
176
     1
 90
        4
176
     1
 62
     7
176
     1
 62
   257
176
     1
 90
        1
176
     1
 90
        1
176
     1
 40
1.0
176
     1
 90
        8
176
     1
 62
     7
176
     1
 40
1.0
176
     1
 90
        1
176
     1
 90
        6
176
     1
 90
        2
176
     1
 62
     7
176
     1
 90
        5
176
     1
 90
        0
176
     1
 90
        0
176
     1
290
     0
176
     1
 90
        1
176
     1
 40
0.0
176
     1
 90
        0
176
     1
290
     0
176
     1
290
     1
176
     1
290
     1
176
     1
290
     0
176
     1
290
     0
176
     1
290
     0
176
     1
290
     0
176
     1
290
     0
176
     1
290
     0
176
     1
 90
       50
176
     1
 40
0.0
176
     1
 40
1.0
176
     1
 90
        0
176
     1
 62
    18
420
        0
176
     1
 90
       50
176
     1
 90
        3
176
     1
 62
     5
420
      255
176
     1
290
     0
176
     1
 90
       50
176
     1
 90
       50
176
     1
 90
       50
176
     1
290
     0
176
     1
 90
       50
176
     1
 62
   256
176
     0
 40
1.0
176
     0
 90
        2
176
     1
  1
strokes_ogs.tif
176
     1
290
     0
176
     1
 40
1.0
176
     1
 40
1.0
176
     1
  0
VISUALSTYLE
  5
2B
102
{ACAD_REACTORS
330
2A
102
}
330
2A
100
AcDbVisualStyle
  2
Flat
 70
     0
177
     3
291
     1
 70
    58
 90
        2
176
     1
 90
        1
176
     1
 90
        1
176
     1
 90
        2
176
     1
 40
0.6
176
     1
 40
30.0
176
     1
 62
     7
420
 16777215
176
     1
 90
        0
176
     1
 90
        0
176
     1
 62
     7
176
     1
 62
   257
176
     1
 90
        1
176
     1
 90
        1
176
     1
 40
1.0
176
     1
 90
        8
176
     1
 62
     7
176
     1
 40
1.0
176
     1
 90
        1
176
     1
 90
        6
176
     1
 90
        2
176
     1
 62
     7
176
     1
 90
        5
176
     1
 90
        0
176
     1
 90
        0
176
     1
290
     0
176
     1
 90
       13
176
     1
 40
0.0
176
     1
 90
        0
176
     1
290
     0
176
     1
290
     1
176
     1
290
     1
176
     1
290
     0
176
     1
290
     0
176
     1
290
     0
176
     1
290
     0
176
     1
290
     0
176
     1
290
     0
176
     1
 90
       50
176
     1
 40
0.0
176
     1
 40
1.0
176
     1
 90
        0
176
     1
 62
    18
420
        0
176
     1
 90
       50
176
     1
 90
        3
176
     1
 62
     5
420
      255
176
     1
290
     0
176
     1
 90
       50
176
     1
 90
       50
176
     1
 90
       50
176
     1
290
     0
176
     1
 90
       50
176
     1
 62
   256
176
     0
 40
1.0
176
     0
 90
        2
176
     1
  1
strokes_ogs.tif
176
     1
290
     0
176
     1
 40
1.0
176
     1
 40
1.0
176
     1
  0
VISUALSTYLE
  5
2C
102
{ACAD_REACTORS
330
2A
102
}
330
2A
100
AcDbVisualStyle
  2
FlatWithEdges
 70
     1
177
     3
291
     1
 70
    58
 90
        2
176
     1
 90
        1
176
     1
 90
        1
176
     1
 90
        2
176
     1
 40
0.6
176
     1
 40
30.0
176
     1
 62
     7
420
 16777215
176
     1
 90
        1
176
     1
 90
        0
176
     1
 62
     7
176
     1
 62
   257
176
     1
 90
        1
176
     1
 90
        1
176
     1
 40
1.0
176
     1
 90
        0
176
     1
 62
   257
176
     1
 40
1.0
176
     1
 90
        1
176
     1
 90
        6
176
     1
 90
        2
176
     1
 62
     7
176
     1
 90
        5
176
     1
 90
        0
176
     1
 90
        0
176
     1
290
     0
176
     1
 90
       13
176
     1
 40
0.0
176
     1
 90
        0
176
     1
290
     0
176
     1
290
     1
176
     1
290
     1
176
     1
290
     0
176
     1
290
     0
176
     1
290
     0
176
     1
290
     0
176
     1
290
     0
176
     1
290
     0
176
     1
 90
       50
176
     1
 40
0.0
176
     1
 40
1.0
176
     1
 90
        0
176
     1
 62
    18
420
        0
176
     1
 90
       50
176
     1
 90
        3
176
     1
 62
     5
420
      255
176
     1
290
     0
176
     1
 90
       50
176
     1
 90
       50
176
     1
 90
       50
176
     1
290
     0
176
     1
 90
       50
176
     1
 62
   256
176
     0
 40
1.0
176
     0
 90
        2
176
     1
  1
strokes_ogs.tif
176
     1
290
     0
176
     1
 40
1.0
176
     1
 40
1.0
176
     1
  0
VISUALSTYLE
  5
2D
102
{ACAD_REACTORS
330
2A
102
}
330
2A
100
AcDbVisualStyle
  2
Gouraud
 70
     2
177
     3
291
     1
 70
    58
 90
        2
176
     1
 90
        2
176
     1
 90
        1
176
     1
 90
        2
176
     1
 40
0.6
176
     1
 40
30.0
176
     1
 62
     7
420
 16777215
176
     1
 90
        0
176
     1
 90
        0
176
     1
 62
     7
176
     1
 62
   257
176
     1
 90
        1
176
     1
 90
        1
176
     1
 40
1.0
176
     1
 90
        0
176
     1
 62
     7
176
     1
 40
1.0
176
     1
 90
        1
176
     1
 90
        6
176
     1
 90
        2
176
     1
 62
     7
176
     1
 90
        5
176
     1
 90
        0
176
     1
 90
        0
176
     1
290
     0
176
     1
 90
       13
176
     1
 40
0.0
176
     1
 90
        0
176
     1
290
     0
176
     1
290
     1
176
     1
290
     1
176
     1
290
     0
176
     1
290
     0
176
     1
290
     0
176
     1
290
     0
176
     1
290
     0
176
     1
290
     0
176
     1
 90
       50
176
     1
 40
0.0
176
     1
 40
1.0
176
     1
 90
        0
176
     1
 62
    18
420
        0
176
     1
 90
       50
176
     1
 90
        3
176
     1
 62
     5
420
      255
176
     1
290
     0
176
     1
 90
       50
176
     1
 90
       50
176
     1
 90
       50
176
     1
290
     0
176
     1
 90
       50
176
     1
 62
   256
176
     0
 40
1.0
176
     0
 90
        2
176
     1
  1
strokes_ogs.tif
176
     1
290
     0
176
     1
 40
1.0
176
     1
 40
1.0
176
     1
  0
VISUALSTYLE
  5
2E
102
{ACAD_REACTORS
330
2A
102
}
330
2A
100
AcDbVisualStyle
  2
GouraudWithEdges
 70
     3
177
     3
291
     1
 70
    58
 90
        2
176
     1
 90
        2
176
     1
 90
        1
176
     1
 90
        2
176
     1
 40
0.6
176
     1
 40
30.0
176
     1
 62
     7
420
 16777215
176
     1
 90
        1
176
     1
 90
        0
176
     1
 62
     7
176
     1
 62
   257
176
     1
 90
        1
176
     1
 90
        1
176
     1
 40
1.0
176
     1
 90
        0
176
     1
 62
   257
176
     1
 40
1.0
176
     1
 90
        1
176
     1
 90
        6
176
     1
 90
        2
176
     1
 62
     7
176
     1
 90
        5
176
     1
 90
        0
176
     1
 90
        0
176
     1
290
     0
176
     1
 90
       13
176
     1
 40
0.0
176
     1
 90
        0
176
     1
290
     0
176
     1
290
     1
176
     1
290
     1
176
     1
290
     0
176
     1
290
     0
176
     1
290
     0
176
     1
290
     0
176
     1
290
     0
176
     1
290
     0
176
     1
 90
       50
176
     1
 40
0.0
176
     1
 40
1.0
176
     1
 90
        0
176
     1
 62
    18
420
        0
176
     1
 90
       50
176
     1
 90
        3
176
     1
 62
     5
420
      255
176
     1
290
     0
176
     1
 90
       50
176
     1
 90
       50
176
     1
 90
       50
176
     1
290
     0
176
     1
 90
       50
176
     1
 62
   256
176
     0
 40
1.0
176
     0
 90
        2
176
     1
  1
strokes_ogs.tif
176
     1
290
     0
176
     1
 40
1.0
176
     1
 40
1.0
176
     1
  0
VISUALSTYLE
  5
31
102
{ACAD_REACTORS
330
2A
102
}
330
2A
100
AcDbVisualStyle
  2
Hidden
 70
     6
177
     3
291
     0
 70
    58
 90
        1
176
     1
 90
        2
176
     1
 90
        2
176
     1
 90
        0
176
     1
 40
0.6
176
     1
 40
30.0
176
     1
 62
     7
420
 16777215
176
     1
 90
        2
176
     1
 90
        2
176
     1
 62
     7
176
     1
 62
   257
176
     1
 90
        2
176
     1
 90
        1
176
     1
 40
40.0
176
     1
 90
        0
176
     1
 62
   257
176
     1
 40
1.0
176
     1
 90
        1
176
     1
 90
        6
176
     1
 90
        2
176
     1
 62
     7
176
     1
 90
        3
176
     1
 90
        0
176
     1
 90
        0
176
     1
290
     0
176
     1
 90
        1
176
     1
 40
0.0
176
     1
 90
        0
176
     1
290
     0
176
     1
290
     1
176
     1
290
     1
176
     1
290
     0
176
     1
290
     0
176
     1
290
     0
176
     1
290
     0
176
     1
290
     0
176
     1
290
     0
176
     1
 90
       50
176
     1
 40
0.0
176
     1
 40
1.0
176
     1
 90
        0
176
     1
 62
    18
420
        0
176
     1
 90
       50
176
     1
 90
        3
176
     1
 62
     5
420
      255
176
     1
290
     0
176
     1
 90
       50
176
     1
 90
       50
176
     1
 90
       50
176
     1
290
     0
176
     1
 90
       50
176
     1
 62
   256
176
     0
 40
1.0
176
     0
 90
        2
176
     1
  1
strokes_ogs.tif
176
     1
290
     0
176
     1
 40
1.0
176
     1
 40
1.0
176
     1
  0
VISUALSTYLE
  5
3B
102
{ACAD_REACTORS
330
2A
102
}
330
2A
100
AcDbVisualStyle
  2
JitterOff
 70
    20
177
     3
291
     1
 70
    58
 90
        2
176
     0
 90
        2
176
     0
 90
        0
176
     0
 90
        0
176
     0
 40
0.6
176
     0
 40
30.0
176
     0
 62
     7
420
 16777215
176
     0
 90
        1
176
     0
 90
        4
176
     0
 62
     7
176
     0
 62
   257
176
     0
 90
        1
176
     0
 90
        1
176
     0
 40
1.0
176
     0
 90
       10
176
     2
 62
     7
176
     0
 40
1.0
176
     0
 90
        1
176
     0
 90
        6
176
     0
 90
        2
176
     0
 62
     7
176
     0
 90
        5
176
     0
 90
        0
176
     0
 90
        0
176
     0
290
     0
176
     0
 90
        1
176
     0
 40
0.0
176
     0
 90
        0
176
     0
290
     0
176
     0
290
     1
176
     0
290
     1
176
     0
290
     0
176
     0
290
     0
176
     0
290
     0
176
     0
290
     0
176
     0
290
     0
176
     0
290
     0
176
     0
 90
       50
176
     0
 40
0.0
176
     0
 40
1.0
176
     0
 90
        0
176
     0
 62
    18
420
        0
176
     0
 90
       50
176
     0
 90
        3
176
     0
 62
     5
420
      255
176
     0
290
     0
176
     0
 90
       50
176
     0
 90
       50
176
     0
 90
       50
176
     0
290
     0
176
     0
 90
       50
176
     0
 62
   256
176
     0
 40
1.0
176
     0
 90
        2
176
     0
  1
strokes_ogs.tif
176
     0
290
     0
176
     0
 40
1.0
176
     0
 40
1.0
176
     0
  0
VISUALSTYLE
  5
38
102
{ACAD_REACTORS
330
2A
102
}
330
2A
100
AcDbVisualStyle
  2
Linepattern
 70
    14
177
     3
291
     1
 70
    58
 90
        2
176
     1
 90
        2
176
     1
 90
        0
176
     1
 90
        0
176
     1
 40
0.6
176
     1
 40
30.0
176
     1
 62
     7
420
 16777215
176
     1
 90
        1
176
     1
 90
        4
176
     1
 62
     7
176
     1
 62
   257
176
     1
 90
        7
176
     1
 90
        7
176
     1
 40
1.0
176
     1
 90
        8
176
     1
 62
     7
176
     1
 40
1.0
176
     1
 90
        1
176
     1
 90
        6
176
     1
 90
        2
176
     1
 62
     7
176
     1
 90
        5
176
     1
 90
        0
176
     1
 90
        0
176
     1
290
     0
176
     1
 90
        1
176
     1
 40
0.0
176
     1
 90
        0
176
     1
290
     0
176
     1
290
     1
176
     1
290
     1
176
     1
290
     0
176
     1
290
     0
176
     1
290
     0
176
     1
290
     0
176
     1
290
     0
176
     1
290
     0
176
     1
 90
       50
176
     1
 40
0.0
176
     1
 40
1.0
176
     1
 90
        0
176
     1
 62
    18
420
        0
176
     1
 90
       50
176
     1
 90
        3
176
     1
 62
     5
420
      255
176
     1
290
     0
176
     1
 90
       50
176
     1
 90
       50
176
     1
 90
       50
176
     1
290
     0
176
     1
 90
       50
176
     1
 62
   256
176
     0
 40
1.0
176
     0
 90
        2
176
     1
  1
strokes_ogs.tif
176
     1
290
     0
176
     1
 40
1.0
176
     1
 40
1.0
176
     1
  0
VISUALSTYLE
  5
3C
102
{ACAD_REACTORS
330
2A
102
}
330
2A
100
AcDbVisualStyle
  2
OverhangOff
 70
    21
177
     3
291
     1
 70
    58
 90
        2
176
     0
 90
        2
176
     0
 90
        0
176
     0
 90
        0
176
     0
 40
0.6
176
     0
 40
30.0
176
     0
 62
     7
420
 16777215
176
     0
 90
        1
176
     0
 90
        4
176
     0
 62
     7
176
     0
 62
   257
176
     0
 90
        1
176
     0
 90
        1
176
     0
 40
1.0
176
     0
 90
        9
176
     2
 62
     7
176
     0
 40
1.0
176
     0
 90
        1
176
     0
 90
        6
176
     0
 90
        2
176
     0
 62
     7
176
     0
 90
        5
176
     0
 90
        0
176
     0
 90
        0
176
     0
290
     0
176
     0
 90
        1
176
     0
 40
0.0
176
     0
 90
        0
176
     0
290
     0
176
     0
290
     1
176
     0
290
     1
176
     0
290
     0
176
     0
290
     0
176
     0
290
     0
176
     0
290
     0
176
     0
290
     0
176
     0
290
     0
176
     0
 90
       50
176
     0
 40
0.0
176
     0
 40
1.0
176
     0
 90
        0
176
     0
 62
    18
420
        0
176
     0
 90
       50
176
     0
 90
        3
176
     0
 62
     5
420
      255
176
     0
290
     0
176
     0
 90
       50
176
     0
 90
       50
176
     0
 90
       50
176
     0
290
     0
176
     0
 90
       50
176
     0
 62
   256
176
     0
 40
1.0
176
     0
 90
        2
176
     0
  1
strokes_ogs.tif
176
     0
290
     0
176
     0
 40
1.0
176
     0
 40
1.0
176
     0
  0
VISUALSTYLE
  5
33
102
{ACAD_REACTORS
330
2A
102
}
330
2A
100
AcDbVisualStyle
  2
Realistic
 70
     8
177
     3
291
     0
 70
    58
 90
        2
176
     1
 90
        3
176
     1
 90
        0
176
     1
 90
        2
176
     1
 40
0.6
176
     1
 40
30.0
176
     1
 62
     7
420
 16777215
176
     1
 90
        0
176
     1
 90
        0
176
     1
 62
     7
176
     1
 62
   257
176
     1
 90
        1
176
     1
 90
        1
176
     1
 40
1.0
176
     1
 90
        8
176
     1
 62
   257
176
     1
 40
1.0
176
     1
 90
        1
176
     1
 90
        6
176
     1
 90
        2
176
     1
 62
     7
176
     1
 90
        3
176
     1
 90
        0
176
     1
 90
        0
176
     1
290
     0
176
     1
 90
       13
176
     1
 40
0.0
176
     1
 90
        0
176
     1
290
     0
176
     1
290
     1
176
     1
290
     1
176
     1
290
     0
176
     1
290
     0
176
     1
290
     0
176
     1
290
     0
176
     1
290
     0
176
     1
290
     0
176
     1
 90
       50
176
     1
 40
0.0
176
     1
 40
1.0
176
     1
 90
        0
176
     1
 62
    18
420
        0
176
     1
 90
       50
176
     1
 90
        3
176
     1
 62
     5
420
      255
176
     1
290
     0
176
     1
 90
       50
176
     1
 90
       50
176
     1
 90
       50
176
     1
290
     0
176
     1
 90
       50
176
     1
 62
   256
176
     0
 40
1.0
176
     0
 90
        2
176
     1
  1
strokes_ogs.tif
176
     1
290
     0
176
     1
 40
1.0
176
     1
 40
1.0
176
     1
  0
VISUALSTYLE
  5
42
102
{ACAD_REACTORS
330
2A
102
}
330
2A
100
AcDbVisualStyle
  2
Shaded
 70
    27
177
     3
291
     0
 70
    58
 90
        2
176
     1
 90
        2
176
     1
 90
        1
176
     1
 90
        2
176
     1
 40
0.6
176
     1
 40
30.0
176
     1
 62
     7
420
 16777215
176
     1
 90
        0
176
     1
 90
        4
176
     1
 62
     7
176
     1
 62
   257
176
     1
 90
        1
176
     1
 90
        1
176
     1
 40
1.0
176
     1
 90
        8
176
     1
 62
   257
176
     1
 40
1.0
176
     1
 90
        1
176
     1
 90
        6
176
     1
 90
        2
176
     1
 62
     8
420
  7895160
176
     1
 90
        3
176
     1
 90
        0
176
     1
 90
        0
176
     1
290
     0
176
     1
 90
        5
176
     1
 40
0.0
176
     1
 90
        0
176
     1
290
     0
176
     1
290
     1
176
     1
290
     1
176
     1
290
     0
176
     1
290
     0
176
     1
290
     0
176
     1
290
     0
176
     1
290
     0
176
     1
290
     0
176
     1
 90
       50
176
     1
 40
0.0
176
     1
 40
1.0
176
     1
 90
        0
176
     1
 62
    18
420
        0
176
     1
 90
       50
176
     1
 90
        3
176
     1
 62
     5
420
      255
176
     1
290
     0
176
     1
 90
       50
176
     1
 90
       50
176
     1
 90
       50
176
     1
290
     0
176
     1
 90
       50
176
     1
 62
   256
176
     0
 40
1.0
176
     0
 90
        2
176
     1
  1
strokes_ogs.tif
176
     1
290
     0
176
     1
 40
1.0
176
     1
 40
1.0
176
     1
  0
VISUALSTYLE
  5
41
102
{ACAD_REACTORS
330
2A
102
}
330
2A
100
AcDbVisualStyle
  2
Shaded with edges
 70
    26
177
     3
291
     0
 70
    58
 90
        2
176
     1
 90
        2
176
     1
 90
        1
176
     1
 90
        2
176
     1
 40
0.6
176
     1
 40
30.0
176
     1
 62
     7
420
 16777215
176
     1
 90
        1
176
     1
 90
       10
176
     1
 62
     7
176
     1
 62
   257
176
     1
 90
        2
176
     1
 90
        1
176
     1
 40
1.0
176
     1
 90
        8
176
     1
 62
   257
176
     1
 40
1.0
176
     1
 90
        1
176
     1
 90
        6
176
     1
 90
        2
176
     1
 62
     7
176
     1
 90
        3
176
     1
 90
        0
176
     1
 90
        0
176
     1
290
     0
176
     1
 90
        5
176
     1
 40
0.0
176
     1
 90
        0
176
     1
290
     0
176
     1
290
     1
176
     1
290
     1
176
     1
290
     0
176
     1
290
     0
176
     1
290
     0
176
     1
290
     0
176
     1
290
     0
176
     1
290
     0
176
     1
 90
       50
176
     1
 40
0.0
176
     1
 40
1.0
176
     1
 90
        0
176
     1
 62
    18
420
        0
176
     1
 90
       50
176
     1
 90
        3
176
     1
 62
     5
420
      255
176
     1
290
     0
176
     1
 90
       50
176
     1
 90
       50
176
     1
 90
       50
176
     1
290
     0
176
     1
 90
       50
176
     1
 62
   256
176
     0
 40
1.0
176
     0
 90
        2
176
     1
  1
strokes_ogs.tif
176
     1
290
     0
176
     1
 40
1.0
176
     1
 40
1.0
176
     1
  0
VISUALSTYLE
  5
3E
102
{ACAD_REACTORS
330
2A
102
}
330
2A
100
AcDbVisualStyle
  2
Shades of Gray
 70
    23
177
     3
291
     0
 70
    58
 90
        2
176
     1
 90
        2
176
     1
 90
        3
176
     1
 90
        0
176
     1
 40
0.6
176
     1
 40
30.0
176
     1
 62
     7
420
 16777215
176
     1
 90
        2
176
     1
 90
        2
176
     1
 62
     7
176
     1
 62
     7
176
     1
 90
        1
176
     1
 90
        1
176
     1
 40
40.0
176
     1
 90
        8
176
     1
 62
     7
176
     1
 40
1.0
176
     1
 90
        1
176
     1
 90
        6
176
     1
 90
        2
176
     1
 62
     7
176
     1
 90
        3
176
     1
 90
        0
176
     1
 90
        0
176
     1
290
     0
176
     1
 90
        1
176
     1
 40
0.0
176
     1
 90
        0
176
     1
290
     0
176
     1
290
     1
176
     1
290
     1
176
     1
290
     0
176
     1
290
     0
176
     1
290
     0
176
     1
290
     0
176
     1
290
     0
176
     1
290
     0
176
     1
 90
       50
176
     1
 40
0.0
176
     1
 40
1.0
176
     1
 90
        0
176
     1
 62
    18
420
        0
176
     1
 90
       50
176
     1
 90
        3
176
     1
 62
     5
420
      255
176
     1
290
     0
176
     1
 90
       50
176
     1
 90
       50
176
     1
 90
       50
176
     1
290
     0
176
     1
 90
       50
176
     1
 62
   256
176
     0
 40
1.0
176
     0
 90
        2
176
     1
  1
strokes_ogs.tif
176
     1
290
     0
176
     1
 40
1.0
176
     1
 40
1.0
176
     1
  0
VISUALSTYLE
  5
3F
102
{ACAD_REACTORS
330
2A
102
}
330
2A
100
AcDbVisualStyle
  2
Sketchy
 70
    24
177
     3
291
     0
 70
    58
 90
        1
176
     1
 90
        2
176
     1
 90
        2
176
     1
 90
        0
176
     1
 40
0.6
176
     1
 40
30.0
176
     1
 62
     7
420
 16777215
176
     1
 90
        2
176
     1
 90
        2
176
     1
 62
     7
176
     1
 62
     7
176
     1
 90
        1
176
     1
 90
        1
176
     1
 40
40.0
176
     1
 90
       11
176
     1
 62
     7
176
     1
 40
1.0
176
     1
 90
        1
176
     1
 90
        6
176
     1
 90
        2
176
     1
 62
     7
176
     1
 90
        6
176
     1
 90
        0
176
     1
 90
        0
176
     1
290
     0
176
     1
 90
        1
176
     1
 40
0.0
176
     1
 90
        0
176
     1
290
     0
176
     1
290
     1
176
     1
290
     1
176
     1
290
     0
176
     1
290
     0
176
     1
290
     0
176
     1
290
     0
176
     1
290
     0
176
     1
290
     0
176
     1
 90
       50
176
     1
 40
0.0
176
     1
 40
1.0
176
     1
 90
        0
176
     1
 62
    18
420
        0
176
     1
 90
       50
176
     1
 90
        3
176
     1
 62
     5
420
      255
176
     1
290
     0
176
     1
 90
       50
176
     1
 90
       50
176
     1
 90
       50
176
     1
290
     0
176
     1
 90
       50
176
     1
 62
   256
176
     0
 40
1.0
176
     0
 90
        2
176
     1
  1
strokes_ogs.tif
176
     1
290
     0
176
     1
 40
1.0
176
     1
 40
1.0
176
     1
  0
VISUALSTYLE
  5
37
102
{ACAD_REACTORS
330
2A
102
}
330
2A
100
AcDbVisualStyle
  2
Thicken
 70
    13
177
     3
291
     1
 70
    58
 90
        2
176
     1
 90
        2
176
     1
 90
        0
176
     1
 90
        0
176
     1
 40
0.6
176
     1
 40
30.0
176
     1
 62
     7
420
 16777215
176
     1
 90
        1
176
     1
 90
        4
176
     1
 62
     7
176
     1
 62
   257
176
     1
 90
        1
176
     1
 90
        1
176
     1
 40
1.0
176
     1
 90
       12
176
     1
 62
     7
176
     1
 40
1.0
176
     1
 90
        1
176
     1
 90
        6
176
     1
 90
        2
176
     1
 62
     7
176
     1
 90
        5
176
     1
 90
        0
176
     1
 90
        0
176
     1
290
     0
176
     1
 90
        1
176
     1
 40
0.0
176
     1
 90
        0
176
     1
290
     0
176
     1
290
     1
176
     1
290
     1
176
     1
290
     0
176
     1
290
     0
176
     1
290
     0
176
     1
290
     0
176
     1
290
     0
176
     1
290
     0
176
     1
 90
       50
176
     1
 40
0.0
176
     1
 40
1.0
176
     1
 90
        0
176
     1
 62
    18
420
        0
176
     1
 90
       50
176
     1
 90
        3
176
     1
 62
     5
420
      255
176
     1
290
     0
176
     1
 90
       50
176
     1
 90
       50
176
     1
 90
       50
176
     1
290
     0
176
     1
 90
       50
176
     1
 62
   256
176
     0
 40
1.0
176
     0
 90
        2
176
     1
  1
strokes_ogs.tif
176
     1
290
     0
176
     1
 40
1.0
176
     1
 40
1.0
176
     1
  0
VISUALSTYLE
  5
30
102
{ACAD_REACTORS
330
2A
102
}
330
2A
100
AcDbVisualStyle
  2
Wireframe
 70
     5
177
     3
291
     0
 70
    58
 90
        0
176
     1
 90
        2
176
     1
 90
        0
176
     1
 90
        0
176
     1
 40
0.6
176
     1
 40
30.0
176
     1
 62
     7
420
 16777215
176
     1
 90
        1
176
     1
 90
        4
176
     1
 62
     7
176
     1
 62
   257
176
     1
 90
        1
176
     1
 90
        1
176
     1
 40
1.0
176
     1
 90
        0
176
     1
 62
   257
176
     1
 40
1.0
176
     1
 90
        1
176
     1
 90
        6
176
     1
 90
        2
176
     1
 62
     7
176
     1
 90
        3
176
     1
 90
        0
176
     1
 90
        0
176
     1
290
     0
176
     1
 90
        1
176
     1
 40
0.0
176
     1
 90
        0
176
     1
290
     0
176
     1
290
     1
176
     1
290
     1
176
     1
290
     0
176
     1
290
     0
176
     1
290
     0
176
     1
290
     0
176
     1
290
     0
176
     1
290
     0
176
     1
 90
       50
176
     1
 40
0.0
176
     1
 40
1.0
176
     1
 90
        0
176
     1
 62
    18
420
        0
176
     1
 90
       50
176
     1
 90
        3
176
     1
 62
     5
420
      255
176
     1
290
     0
176
     1
 90
       50
176
     1
 90
       50
176
     1
 90
       50
176
     1
290
     0
176
     1
 90
       50
176
     1
 62
   256
176
     0
 40
1.0
176
     0
 90
        2
176
     1
  1
strokes_ogs.tif
176
     1
290
     0
176
     1
 40
1.0
176
     1
 40
1.0
176
     1
  0
VISUALSTYLE
  5
40
102
{ACAD_REACTORS
330
2A
102
}
330
2A
100
AcDbVisualStyle
  2
X-Ray
 70
    25
177
     3
291
     0
 70
    58
 90
        2
176
     1
 90
        2
176
     1
 90
        1
176
     1
 90
        1
176
     1
 40
0.5
176
     1
 40
30.0
176
     1
 62
     7
420
 16777215
176
     1
 90
        1
176
     1
 90
        0
176
     1
 62
     7
176
     1
 62
   257
176
     1
 90
        1
176
     1
 90
        1
176
     1
 40
1.0
176
     1
 90
        8
176
     1
 62
     7
176
     1
 40
1.0
176
     1
 90
        1
176
     1
 90
        6
176
     1
 90
        2
176
     1
 62
     7
176
     1
 90
        3
176
     1
 90
        0
176
     1
 90
        0
176
     1
290
     0
176
     1
 90
       13
176
     1
 40
0.0
176
     1
 90
        0
176
     1
290
     0
176
     1
290
     1
176
     1
290
     1
176
     1
290
     0
176
     1
290
     0
176
     1
290
     0
176
     1
290
     0
176
     1
290
     0
176
     1
290
     0
176
     1
 90
       50
176
     1
 40
0.0
176
     1
 40
1.0
176
     1
 90
        0
176
     1
 62
    18
420
        0
176
     1
 90
       50
176
     1
 90
        3
176
     1
 62
     5
420
      255
176
     1
290
     0
176
     1
 90
       50
176
     1
 90
       50
176
     1
 90
       50
176
     1
290
     0
176
     1
 90
       50
176
     1
 62
   256
176
     0
 40
1.0
176
     0
 90
        2
176
     1
  1
strokes_ogs.tif
176
     1
290
     0
176
     1
 40
1.0
176
     1
 40
1.0
176
     1
  0
DICTIONARYVAR
  5
3BE
102
{ACAD_REACTORS
330
3BD
102
}
330
3BD
100
DictionaryVariables
280
     0
  1
1:1
  0
DICTIONARYVAR
  5
3C3
102
{ACAD_REACTORS
330
3BD
102
}
330
3BD
100
DictionaryVariables
280
     0
  1
Standard
  0
DICTIONARYVAR
  5
3C2
102
{ACAD_REACTORS
330
3BD
102
}
330
3BD
100
DictionaryVariables
280
     0
  1
Standard
  0
DICTIONARY
  5
3BF
330
5A
100
AcDbDictionary
280
     1
281
     1
  3
ACAD_ROUNDTRIP_2008_TABLESTYLE_CELLSTYLEMAP
360
3C0
  0
CELLSTYLEMAP
  5
3C0
102
{ACAD_REACTORS
330
3BF
102
}
330
3BF
100
AcDbCellStyleMap
 90
        3
300
CELLSTYLE
  1
TABLEFORMAT_BEGIN
 90
        5
170
     1
 91
        0
 92
    32768
 62
   257
 93
        1
300
CONTENTFORMAT
  1
CONTENTFORMAT_BEGIN
 90
        0
 91
        0
 92
        4
 93
        0
300

 40
0.0
140
1.0
 94
        5
 62
     0
340
11
144
0.25
309
CONTENTFORMAT_END
171
     1
301
MARGIN
  1
CELLMARGIN_BEGIN
 40
0.06
 40
0.06
 40
0.06
 40
0.06
 40
0.06
 40
0.06
309
CELLMARGIN_END
 94
        6
 95
        1
302
GRIDFORMAT
  1
GRIDFORMAT_BEGIN
 90
        0
 91
        1
 62
     0
 92
       -2
340
14
 93
        0
 40
0.045
309
GRIDFORMAT_END
 95
        2
302
GRIDFORMAT
  1
GRIDFORMAT_BEGIN
 90
        0
 91
        1
 62
     0
 92
       -2
340
14
 93
        0
 40
0.045
309
GRIDFORMAT_END
 95
        4
302
GRIDFORMAT
  1
GRIDFORMAT_BEGIN
 90
        0
 91
        1
 62
     0
 92
       -2
340
14
 93
        0
 40
0.045
309
GRIDFORMAT_END
 95
        8
302
GRIDFORMAT
  1
GRIDFORMAT_BEGIN
 90
        0
 91
        1
 62
     0
 92
       -2
340
14
 93
        0
 40
0.045
309
GRIDFORMAT_END
 95
       16
302
GRIDFORMAT
  1
GRIDFORMAT_BEGIN
 90
        0
 91
        1
 62
     0
 92
       -2
340
14
 93
        0
 40
0.045
309
GRIDFORMAT_END
 95
       32
302
GRIDFORMAT
  1
GRIDFORMAT_BEGIN
 90
        0
 91
        1
 62
     0
 92
       -2
340
14
 93
        0
 40
0.045
309
GRIDFORMAT_END
309
TABLEFORMAT_END
  1
CELLSTYLE_BEGIN
 90
        1
 91
        1
300
_TITLE
309
CELLSTYLE_END
300
CELLSTYLE
  1
TABLEFORMAT_BEGIN
 90
        5
170
     1
 91
        0
 92
        0
 62
   257
 93
        1
300
CONTENTFORMAT
  1
CONTENTFORMAT_BEGIN
 90
        0
 91
        0
 92
        4
 93
        0
300

 40
0.0
140
1.0
 94
        5
 62
     0
340
11
144
0.18
309
CONTENTFORMAT_END
171
     1
301
MARGIN
  1
CELLMARGIN_BEGIN
 40
0.06
 40
0.06
 40
0.06
 40
0.06
 40
0.06
 40
0.06
309
CELLMARGIN_END
 94
        6
 95
        1
302
GRIDFORMAT
  1
GRIDFORMAT_BEGIN
 90
        0
 91
        1
 62
     0
 92
       -2
340
14
 93
        0
 40
0.045
309
GRIDFORMAT_END
 95
        2
302
GRIDFORMAT
  1
GRIDFORMAT_BEGIN
 90
        0
 91
        1
 62
     0
 92
       -2
340
14
 93
        0
 40
0.045
309
GRIDFORMAT_END
 95
        4
302
GRIDFORMAT
  1
GRIDFORMAT_BEGIN
 90
        0
 91
        1
 62
     0
 92
       -2
340
14
 93
        0
 40
0.045
309
GRIDFORMAT_END
 95
        8
302
GRIDFORMAT
  1
GRIDFORMAT_BEGIN
 90
        0
 91
        1
 62
     0
 92
       -2
340
14
 93
        0
 40
0.045
309
GRIDFORMAT_END
 95
       16
302
GRIDFORMAT
  1
GRIDFORMAT_BEGIN
 90
        0
 91
        1
 62
     0
 92
       -2
340
14
 93
        0
 40
0.045
309
GRIDFORMAT_END
 95
       32
302
GRIDFORMAT
  1
GRIDFORMAT_BEGIN
 90
        0
 91
        1
 62
     0
 92
       -2
340
14
 93
        0
 40
0.045
309
GRIDFORMAT_END
309
TABLEFORMAT_END
  1
CELLSTYLE_BEGIN
 90
        2
 91
        1
300
_HEADER
309
CELLSTYLE_END
300
CELLSTYLE
  1
TABLEFORMAT_BEGIN
 90
        5
170
     1
 91
        0
 92
        0
 62
   257
 93
        1
300
CONTENTFORMAT
  1
CONTENTFORMAT_BEGIN
 90
        0
 91
        0
 92
        4
 93
        0
300

 40
0.0
140
1.0
 94
        2
 62
     0
340
11
144
0.18
309
CONTENTFORMAT_END
171
     1
301
MARGIN
  1
CELLMARGIN_BEGIN
 40
0.06
 40
0.06
 40
0.06
 40
0.06
 40
0.06
 40
0.06
309
CELLMARGIN_END
 94
        6
 95
        1
302
GRIDFORMAT
  1
GRIDFORMAT_BEGIN
 90
        0
 91
        1
 62
     0
 92
       -2
340
14
 93
        0
 40
0.045
309
GRIDFORMAT_END
 95
        2
302
GRIDFORMAT
  1
GRIDFORMAT_BEGIN
 90
        0
 91
        1
 62
     0
 92
       -2
340
14
 93
        0
 40
0.045
309
GRIDFORMAT_END
 95
        4
302
GRIDFORMAT
  1
GRIDFORMAT_BEGIN
 90
        0
 91
        1
 62
     0
 92
       -2
340
14
 93
        0
 40
0.045
309
GRIDFORMAT_END
 95
        8
302
GRIDFORMAT
  1
GRIDFORMAT_BEGIN
 90
        0
 91
        1
 62
     0
 92
       -2
340
14
 93
        0
 40
0.045
309
GRIDFORMAT_END
 95
       16
302
GRIDFORMAT
  1
GRIDFORMAT_BEGIN
 90
        0
 91
        1
 62
     0
 92
       -2
340
14
 93
        0
 40
0.045
309
GRIDFORMAT_END
 95
       32
302
GRIDFORMAT
  1
GRIDFORMAT_BEGIN
 90
        0
 91
        1
 62
     0
 92
       -2
340
14
 93
        0
 40
0.045
309
GRIDFORMAT_END
309
TABLEFORMAT_END
  1
CELLSTYLE_BEGIN
 90
        3
 91
        2
300
_DATA
309
CELLSTYLE_END
  0
ENDSEC
  0
EOF
