  0
SECTION
  2
HEADER
  9
$ACADVER
  1
AC1015
  9
$ACADMAINTVER
 70
     6
  9
$DWGCODEPAGE
  3
ANSI_1252
  9
$INSBASE
 10
0.0
 20
0.0
 30
0.0
  9
$EXTMIN
 10
-332.8634552533251
 20
-394.1100875288652
 30
0.0
  9
$EXTMAX
 10
308.9999993942039
 20
-272.0326294244553
 30
0.0
  9
$LIMMIN
 10
0.0
 20
0.0
  9
$LIMMAX
 10
12.0
 20
9.0
  9
$ORTHOMODE
 70
     0
  9
$REGENMODE
 70
     1
  9
$FILLMODE
 70
     1
  9
$QTEXTMODE
 70
     0
  9
$MIRRTEXT
 70
     1
  9
$LTSCALE
 40
1.0
  9
$ATTMODE
 70
     1
  9
$TEXTSIZE
 40
0.2
  9
$TRACEWID
 40
0.05
  9
$TEXTSTYLE
  7
Standard
  9
$CLAYER
  8
0
  9
$CELTYPE
  6
ByLayer
  9
$CECOLOR
 62
   256
  9
$CELTSCALE
 40
1.0
  9
$DISPSILH
 70
     0
  9
$DIMSCALE
 40
1.0
  9
$DIMASZ
 40
0.18
  9
$DIMEXO
 40
0.0625
  9
$DIMDLI
 40
0.38
  9
$DIMRND
 40
0.0
  9
$DIMDLE
 40
0.0
  9
$DIMEXE
 40
0.18
  9
$DIMTP
 40
0.0
  9
$DIMTM
 40
0.0
  9
$DIMTXT
 40
0.18
  9
$DIMCEN
 40
0.09
  9
$DIMTSZ
 40
0.0
  9
$DIMTOL
 70
     0
  9
$DIMLIM
 70
     0
  9
$DIMTIH
 70
     1
  9
$DIMTOH
 70
     1
  9
$DIMSE1
 70
     0
  9
$DIMSE2
 70
     0
  9
$DIMTAD
 70
     0
  9
$DIMZIN
 70
     0
  9
$DIMBLK
  1

  9
$DIMASO
 70
     1
  9
$DIMSHO
 70
     1
  9
$DIMPOST
  1

  9
$DIMAPOST
  1

  9
$DIMALT
 70
     0
  9
$DIMALTD
 70
     2
  9
$DIMALTF
 40
25.4
  9
$DIMLFAC
 40
1.0
  9
$DIMTOFL
 70
     0
  9
$DIMTVP
 40
0.0
  9
$DIMTIX
 70
     0
  9
$DIMSOXD
 70
     0
  9
$DIMSAH
 70
     0
  9
$DIMBLK1
  1

  9
$DIMBLK2
  1

  9
$DIMSTYLE
  2
Standard
  9
$DIMCLRD
 70
     0
  9
$DIMCLRE
 70
     0
  9
$DIMCLRT
 70
     0
  9
$DIMTFAC
 40
1.0
  9
$DIMGAP
 40
0.09
  9
$DIMJUST
 70
     0
  9
$DIMSD1
 70
     0
  9
$DIMSD2
 70
     0
  9
$DIMTOLJ
 70
     1
  9
$DIMTZIN
 70
     0
  9
$DIMALTZ
 70
     0
  9
$DIMALTTZ
 70
     0
  9
$DIMUPT
 70
     0
  9
$DIMDEC
 70
     4
  9
$DIMTDEC
 70
     4
  9
$DIMALTU
 70
     2
  9
$DIMALTTD
 70
     2
  9
$DIMTXSTY
  7
Standard
  9
$DIMAUNIT
 70
     0
  9
$DIMADEC
 70
     0
  9
$DIMALTRND
 40
0.0
  9
$DIMAZIN
 70
     0
  9
$DIMDSEP
 70
    46
  9
$DIMATFIT
 70
     3
  9
$DIMFRAC
 70
     0
  9
$DIMLDRBLK
  1

  9
$DIMLUNIT
 70
     2
  9
$DIMLWD
 70
    -2
  9
$DIMLWE
 70
    -2
  9
$DIMTMOVE
 70
     0
  9
$LUNITS
 70
     2
  9
$LUPREC
 70
     4
  9
$SKETCHINC
 40
0.1
  9
$FILLETRAD
 40
0.5
  9
$AUNITS
 70
     0
  9
$AUPREC
 70
     0
  9
$MENU
  1
.
  9
$ELEVATION
 40
0.0
  9
$PELEVATION
 40
0.0
  9
$THICKNESS
 40
0.0
  9
$LIMCHECK
 70
     0
  9
$CHAMFERA
 40
0.0
  9
$CHAMFERB
 40
0.0
  9
$CHAMFERC
 40
0.0
  9
$CHAMFERD
 40
0.0
  9
$SKPOLY
 70
     0
  9
$TDCREATE
 40
2460059.587336505
  9
$TDUCREATE
 40
2460059.504003171
  9
$TDUPDATE
 40
2460059.587336644
  9
$TDUUPDATE
 40
2460059.50400331
  9
$TDINDWG
 40
0.0000000116
  9
$TDUSRTIMER
 40
0.0000000116
  9
$USRTIMER
 70
     1
  9
$ANGBASE
 50
0.0
  9
$ANGDIR
 70
     0
  9
$PDMODE
 70
     0
  9
$PDSIZE
 40
0.0
  9
$PLINEWID
 40
0.0
  9
$SPLFRAME
 70
     0
  9
$SPLINETYPE
 70
     6
  9
$SPLINESEGS
 70
     8
  9
$HANDSEED
  5
1BE
  9
$SURFTAB1
 70
     6
  9
$SURFTAB2
 70
     6
  9
$SURFTYPE
 70
     6
  9
$SURFU
 70
     6
  9
$SURFV
 70
     6
  9
$UCSBASE
  2

  9
$UCSNAME
  2

  9
$UCSORG
 10
0.0
 20
0.0
 30
0.0
  9
$UCSXDIR
 10
1.0
 20
0.0
 30
0.0
  9
$UCSYDIR
 10
0.0
 20
1.0
 30
0.0
  9
$UCSORTHOREF
  2

  9
$UCSORTHOVIEW
 70
     0
  9
$UCSORGTOP
 10
0.0
 20
0.0
 30
0.0
  9
$UCSORGBOTTOM
 10
0.0
 20
0.0
 30
0.0
  9
$UCSORGLEFT
 10
0.0
 20
0.0
 30
0.0
  9
$UCSORGRIGHT
 10
0.0
 20
0.0
 30
0.0
  9
$UCSORGFRONT
 10
0.0
 20
0.0
 30
0.0
  9
$UCSORGBACK
 10
0.0
 20
0.0
 30
0.0
  9
$PUCSBASE
  2

  9
$PUCSNAME
  2

  9
$PUCSORG
 10
0.0
 20
0.0
 30
0.0
  9
$PUCSXDIR
 10
1.0
 20
0.0
 30
0.0
  9
$PUCSYDIR
 10
0.0
 20
1.0
 30
0.0
  9
$PUCSORTHOREF
  2

  9
$PUCSORTHOVIEW
 70
     0
  9
$PUCSORGTOP
 10
0.0
 20
0.0
 30
0.0
  9
$PUCSORGBOTTOM
 10
0.0
 20
0.0
 30
0.0
  9
$PUCSORGLEFT
 10
0.0
 20
0.0
 30
0.0
  9
$PUCSORGRIGHT
 10
0.0
 20
0.0
 30
0.0
  9
$PUCSORGFRONT
 10
0.0
 20
0.0
 30
0.0
  9
$PUCSORGBACK
 10
0.0
 20
0.0
 30
0.0
  9
$USERI1
 70
     0
  9
$USERI2
 70
     0
  9
$USERI3
 70
     0
  9
$USERI4
 70
     0
  9
$USERI5
 70
     0
  9
$USERR1
 40
20.4
  9
$USERR2
 40
0.0
  9
$USERR3
 40
0.0
  9
$USERR4
 40
0.0
  9
$USERR5
 40
0.0
  9
$WORLDVIEW
 70
     1
  9
$SHADEDGE
 70
     3
  9
$SHADEDIF
 70
    70
  9
$TILEMODE
 70
     1
  9
$MAXACTVP
 70
    64
  9
$PINSBASE
 10
0.0
 20
0.0
 30
0.0
  9
$PLIMCHECK
 70
     0
  9
$PEXTMIN
 10
1.00000000000000E+20
 20
1.00000000000000E+20
 30
1.00000000000000E+20
  9
$PEXTMAX
 10
-1.00000000000000E+20
 20
-1.00000000000000E+20
 30
-1.00000000000000E+20
  9
$PLIMMIN
 10
0.0
 20
0.0
  9
$PLIMMAX
 10
12.0
 20
9.0
  9
$UNITMODE
 70
     0
  9
$VISRETAIN
 70
     1
  9
$PLINEGEN
 70
     0
  9
$PSLTSCALE
 70
     1
  9
$TREEDEPTH
 70
  3020
  9
$CMLSTYLE
  2
Standard
  9
$CMLJUST
 70
     0
  9
$CMLSCALE
 40
1.0
  9
$PROXYGRAPHICS
 70
     1
  9
$MEASUREMENT
 70
     1
  9
$CELWEIGHT
370
    -1
  9
$ENDCAPS
280
     0
  9
$JOINSTYLE
280
     0
  9
$LWDISPLAY
290
     0
  9
$INSUNITS
 70
     4
  9
$HYPERLINKBASE
  1

  9
$STYLESHEET
  1

  9
$XEDIT
290
     1
  9
$CEPSNTYPE
380
     0
  9
$PSTYLEMODE
290
     1
  9
$FINGERPRINTGUID
  2
{047e8e86-b573-4072-af74-83f2149037a8}
  9
$VERSIONGUID
  2
{FAEB1C32-E019-11D5-929B-00C0DF256EC4}
  9
$EXTNAMES
290
     1
  9
$PSVPSCALE
 40
0.0
  9
$OLESTARTUP
290
     0
  0
ENDSEC
  0
SECTION
  2
CLASSES
  0
CLASS
  1
ACDBDICTIONARYWDFLT
  2
AcDbDictionaryWithDefault
  3
ObjectDBX Classes
 90
        0
280
     0
281
     0
  0
CLASS
  1
VISUALSTYLE
  2
AcDbVisualStyle
  3
ObjectDBX Classes
 90
     4095
280
     0
281
     0
  0
CLASS
  1
MATERIAL
  2
AcDbMaterial
  3
ObjectDBX Classes
 90
     1153
280
     0
281
     0
  0
CLASS
  1
SCALE
  2
AcDbScale
  3
ObjectDBX Classes
 90
     1153
280
     0
281
     0
  0
CLASS
  1
TABLESTYLE
  2
AcDbTableStyle
  3
ObjectDBX Classes
 90
     4095
280
     0
281
     0
  0
CLASS
  1
MLEADERSTYLE
  2
AcDbMLeaderStyle
  3
ACDB_MLEADERSTYLE_CLASS
 90
     4095
280
     0
281
     0
  0
CLASS
  1
SUN
  2
AcDbSun
  3
SCENEOE
 90
     1153
280
     0
281
     0
  0
CLASS
  1
DICTIONARYVAR
  2
AcDbDictionaryVar
  3
ObjectDBX Classes
 90
        0
280
     0
281
     0
  0
CLASS
  1
ACDBPLACEHOLDER
  2
AcDbPlaceHolder
  3
ObjectDBX Classes
 90
        0
280
     0
281
     0
  0
CLASS
  1
LAYOUT
  2
AcDbLayout
  3
ObjectDBX Classes
 90
        0
280
     0
281
     0
  0
ENDSEC
  0
SECTION
  2
TABLES
  0
TABLE
  2
VPORT
  5
8
102
{ACAD_XDICTIONARY
360
181
102
}
330
0
100
AcDbSymbolTable
 70
     1
  0
VPORT
  5
29
330
8
100
AcDbSymbolTableRecord
100
AcDbViewportTableRecord
  2
*Active
 70
     0
 10
0.0
 20
0.0
 11
1.0
 21
1.0
 12
-11.93172792956062
 22
-333.0713584766603
 13
0.0
 23
0.0
 14
0.5
 24
0.5
 15
0.5
 25
0.5
 16
0.0
 26
0.0
 36
1.0
 17
0.0
 27
0.0
 37
0.0
 40
440.543607869502
 41
1.60267857142857
 42
50.0
 43
0.0
 44
0.0
 50
0.0
 51
0.0
 71
     0
 72
   100
 73
     1
 74
     3
 75
     0
 76
     0
 77
     0
 78
     0
281
     0
 65
     1
110
0.0
120
0.0
130
0.0
111
1.0
121
0.0
131
0.0
112
0.0
122
1.0
132
0.0
 79
     0
146
0.0
  0
ENDTAB
  0
TABLE
  2
LTYPE
  5
5
330
0
100
AcDbSymbolTable
 70
     8
  0
LTYPE
  5
14
330
5
100
AcDbSymbolTableRecord
100
AcDbLinetypeTableRecord
  2
ByBlock
 70
     0
  3

 72
    65
 73
     0
 40
0.0
  0
LTYPE
  5
15
330
5
100
AcDbSymbolTableRecord
100
AcDbLinetypeTableRecord
  2
ByLayer
 70
     0
  3

 72
    65
 73
     0
 40
0.0
  0
LTYPE
  5
16
330
5
100
AcDbSymbolTableRecord
100
AcDbLinetypeTableRecord
  2
Continuous
 70
     0
  3
Solid line
 72
    65
 73
     0
 40
0.0
  0
LTYPE
  5
6E
330
5
100
AcDbSymbolTableRecord
100
AcDbLinetypeTableRecord
  2
DASHED
 70
     0
  3
Dashed
 72
    65
 73
     2
 40
15.0
 49
7.0
 74
     0
 49
-8.0
 74
     0
  0
LTYPE
  5
6F
330
5
100
AcDbSymbolTableRecord
100
AcDbLinetypeTableRecord
  2
DOTTED
 70
     0
  3
Dotted
 72
    65
 73
     2
 40
1.0
 49
0.0
 74
     0
 49
-1.0
 74
     0
  0
LTYPE
  5
70
330
5
100
AcDbSymbolTableRecord
100
AcDbLinetypeTableRecord
  2
DOT_CENTER
 70
     0
  3
Dot_Center
 72
    65
 73
     4
 40
14.0
 49
12.0
 74
     0
 49
-1.0
 74
     0
 49
0.0
 74
     0
 49
-1.0
 74
     0
  0
LTYPE
  5
71
330
5
100
AcDbSymbolTableRecord
100
AcDbLinetypeTableRecord
  2
LONG_DASHED
 70
     0
  3
Long_Dashed
 72
    65
 73
     2
 40
15.0
 49
10.0
 74
     0
 49
-5.0
 74
     0
  0
LTYPE
  5
72
330
5
100
AcDbSymbolTableRecord
100
AcDbLinetypeTableRecord
  2
DASH_CENTER
 70
     0
  3
Dash_Center
 72
    65
 73
     4
 40
14.0
 49
11.0
 74
     0
 49
-1.0
 74
     0
 49
1.0
 74
     0
 49
-1.0
 74
     0
  0
LTYPE
  5
73
330
5
100
AcDbSymbolTableRecord
100
AcDbLinetypeTableRecord
  2
PHANTOM
 70
     0
  3
Phantom
 72
    65
 73
     6
 40
13.0
 49
10.0
 74
     0
 49
-1.0
 74
     0
 49
0.0
 74
     0
 49
-1.0
 74
     0
 49
0.0
 74
     0
 49
-1.0
 74
     0
  0
LTYPE
  5
74
330
5
100
AcDbSymbolTableRecord
100
AcDbLinetypeTableRecord
  2
CENTER_DASH_DASH
 70
     0
  3
Center_Dash_Dash
 72
    65
 73
     6
 40
14.0
 49
9.0
 74
     0
 49
-1.0
 74
     0
 49
1.0
 74
     0
 49
-1.0
 74
     0
 49
1.0
 74
     0
 49
-1.0
 74
     0
  0
ENDTAB
  0
TABLE
  2
LAYER
  5
2
330
0
100
AcDbSymbolTable
 70
     2
  0
LAYER
  5
10
330
2
100
AcDbSymbolTableRecord
100
AcDbLayerTableRecord
  2
0
 70
     0
 62
     7
  6
Continuous
370
    -3
390
F
  0
LAYER
  5
75
330
2
100
AcDbSymbolTableRecord
100
AcDbLayerTableRecord
  2
1
 70
     0
 62
     7
  6
Continuous
370
    -3
390
F
  0
ENDTAB
  0
TABLE
  2
STYLE
  5
3
330
0
100
AcDbSymbolTable
 70
     2
  0
STYLE
  5
11
330
3
100
AcDbSymbolTableRecord
100
AcDbTextStyleTableRecord
  2
Standard
 70
     0
 40
0.0
 41
1.0
 50
0.0
 71
     0
 42
0.2
  3
txt
  4

  0
STYLE
  5
EC
330
3
100
AcDbSymbolTableRecord
100
AcDbTextStyleTableRecord
  2
CONVERTER_11
 70
     0
 40
0.0
 41
0.9
 50
0.0
 71
     0
 42
0.2
  3
txt.shx
  4

  0
ENDTAB
  0
TABLE
  2
VIEW
  5
6
330
0
100
AcDbSymbolTable
 70
     0
  0
ENDTAB
  0
TABLE
  2
UCS
  5
7
330
0
100
AcDbSymbolTable
 70
     0
  0
ENDTAB
  0
TABLE
  2
APPID
  5
9
330
0
100
AcDbSymbolTable
 70
     2
  0
APPID
  5
12
330
9
100
AcDbSymbolTableRecord
100
AcDbRegAppTableRecord
  2
ACAD
 70
     0
  0
APPID
  5
1BB
330
9
100
AcDbSymbolTableRecord
100
AcDbRegAppTableRecord
  2
ACAD_MLEADERVER
 70
     0
  0
ENDTAB
  0
TABLE
  2
DIMSTYLE
  5
A
330
0
100
AcDbSymbolTable
 70
     5
100
AcDbDimStyleTable
  0
DIMSTYLE
105
27
330
A
100
AcDbSymbolTableRecord
100
AcDbDimStyleTableRecord
  2
Standard
 70
     0
178
     0
340
11
  0
DIMSTYLE
105
F9
102
{ACAD_REACTORS
330
FA
102
}
330
A
100
AcDbSymbolTableRecord
100
AcDbDimStyleTableRecord
  2
ME10_DIM_10
 70
     0
 41
15.0
 42
0.0
 44
2.0
 73
     0
 74
     0
 77
     1
 78
     8
140
15.0
147
5.0
172
     1
173
     1
174
     1
175
     1
176
     4
177
     4
271
     2
178
     1
271
     2
340
EC
  0
DIMSTYLE
105
104
102
{ACAD_REACTORS
330
105
102
}
330
A
100
AcDbSymbolTableRecord
100
AcDbDimStyleTableRecord
  2
ME10_DIM_11
 70
     0
 41
15.0
 42
0.0
 44
2.0
 73
     0
 74
     0
 77
     1
 78
     8
140
15.0
147
5.0
172
     1
173
     1
174
     1
175
     1
176
     4
177
     4
271
     2
178
     1
271
     2
340
EC
  0
DIMSTYLE
105
111
102
{ACAD_REACTORS
330
112
102
}
330
A
100
AcDbSymbolTableRecord
100
AcDbDimStyleTableRecord
  2
ME10_DIM_12
 70
     0
 41
15.0
 42
0.0
 44
2.0
 73
     0
 74
     0
 77
     1
 78
     8
140
15.0
147
5.0
172
     1
173
     1
174
     1
175
     1
176
     4
177
     4
271
     2
178
     1
271
     2
340
EC
  0
DIMSTYLE
105
178
102
{ACAD_REACTORS
330
179
102
}
330
A
100
AcDbSymbolTableRecord
100
AcDbDimStyleTableRecord
  2
ME10_DIM_13
 70
     0
 41
15.0
 42
0.0
 44
2.0
 73
     0
 74
     0
 77
     1
 78
     8
140
15.0
147
5.0
172
     1
173
     1
174
     1
175
     1
176
     4
177
     4
271
     2
178
     1
271
     2
340
EC
  0
ENDTAB
  0
TABLE
  2
BLOCK_RECORD
  5
1
330
0
100
AcDbSymbolTable
 70
    15
  0
BLOCK_RECORD
  5
1F
330
1
100
AcDbSymbolTableRecord
100
AcDbBlockTableRecord
  2
*Model_Space
340
22
  0
BLOCK_RECORD
  5
1B
330
1
100
AcDbSymbolTableRecord
100
AcDbBlockTableRecord
  2
*Paper_Space
340
1E
  0
BLOCK_RECORD
  5
23
330
1
100
AcDbSymbolTableRecord
100
AcDbBlockTableRecord
  2
*Paper_Space0
340
26
  0
BLOCK_RECORD
  5
76
330
1
100
AcDbSymbolTableRecord
100
AcDbBlockTableRecord
  2
Emblem-HL-8x23-V02_1__1
340
0
102
{BLKREFS
331
80
102
}
  0
BLOCK_RECORD
  5
79
330
1
100
AcDbSymbolTableRecord
100
AcDbBlockTableRecord
  2
HL531PrBlue-Träger-Designabdeckung__2
340
0
102
{BLKREFS
331
81
102
}
  0
BLOCK_RECORD
  5
7C
330
1
100
AcDbSymbolTableRecord
100
AcDbBlockTableRecord
  2
HL531PrBlue-Abdeckung-Design__3
340
0
102
{BLKREFS
331
82
102
}
  0
BLOCK_RECORD
  5
7F
330
1
100
AcDbSymbolTableRecord
100
AcDbBlockTableRecord
  2
HL531PrBlue-Designabdeckung-WEB-Zeichnung__4
340
0
102
{BLKREFS
331
86
102
}
  0
BLOCK_RECORD
  5
85
330
1
100
AcDbSymbolTableRecord
100
AcDbBlockTableRecord
  2
SA_Rechts2
340
0
102
{BLKREFS
331
9C
102
}
  0
BLOCK_RECORD
  5
89
330
1
100
AcDbSymbolTableRecord
100
AcDbBlockTableRecord
  2
HL531PrBlue-Träger-Designabdeckung__5
340
0
102
{BLKREFS
331
93
102
}
  0
BLOCK_RECORD
  5
8C
330
1
100
AcDbSymbolTableRecord
100
AcDbBlockTableRecord
  2
Emblem-HL-8x23-V02_1__6
340
0
102
{BLKREFS
331
94
102
}
  0
BLOCK_RECORD
  5
8F
330
1
100
AcDbSymbolTableRecord
100
AcDbBlockTableRecord
  2
HL531PrBlue-Abdeckung-Design__7
340
0
102
{BLKREFS
331
95
102
}
  0
BLOCK_RECORD
  5
92
330
1
100
AcDbSymbolTableRecord
100
AcDbBlockTableRecord
  2
HL531PrBlue-Designabdeckung-WEB-Zeichnung__8
340
0
102
{BLKREFS
331
99
102
}
  0
BLOCK_RECORD
  5
98
330
1
100
AcDbSymbolTableRecord
100
AcDbBlockTableRecord
  2
Vordans2
340
0
102
{BLKREFS
331
9D
102
}
  0
BLOCK_RECORD
  5
EE
330
1
100
AcDbSymbolTableRecord
100
AcDbBlockTableRecord
  2
*D11
340
0
  0
BLOCK_RECORD
  5
FB
330
1
100
AcDbSymbolTableRecord
100
AcDbBlockTableRecord
  2
*D12
340
0
  0
BLOCK_RECORD
  5
106
330
1
100
AcDbSymbolTableRecord
100
AcDbBlockTableRecord
  2
*D13
340
0
  0
BLOCK_RECORD
  5
16F
330
1
100
AcDbSymbolTableRecord
100
AcDbBlockTableRecord
  2
*D14
340
0
  0
ENDTAB
  0
ENDSEC
  0
SECTION
  2
BLOCKS
  0
BLOCK
  5
20
330
1F
100
AcDbEntity
  8
0
100
AcDbBlockBegin
  2
*Model_Space
 70
     0
 10
0.0
 20
0.0
 30
0.0
  3
*Model_Space
  1

  0
ENDBLK
  5
21
330
1F
100
AcDbEntity
  8
0
100
AcDbBlockEnd
  0
BLOCK
  5
1C
330
1B
100
AcDbEntity
 67
     1
  8
0
100
AcDbBlockBegin
  2
*Paper_Space
 70
     0
 10
0.0
 20
0.0
 30
0.0
  3
*Paper_Space
  1

  0
ENDBLK
  5
1D
330
1B
100
AcDbEntity
 67
     1
  8
0
100
AcDbBlockEnd
  0
BLOCK
  5
24
330
23
100
AcDbEntity
  8
0
100
AcDbBlockBegin
  2
*Paper_Space0
 70
     0
 10
0.0
 20
0.0
 30
0.0
  3
*Paper_Space0
  1

  0
ENDBLK
  5
25
330
23
100
AcDbEntity
  8
0
100
AcDbBlockEnd
  0
BLOCK
  5
77
330
76
100
AcDbEntity
  8
0
100
AcDbBlockBegin
  2
Emblem-HL-8x23-V02_1__1
 70
     0
 10
-283.0901157035642
 20
-350.8965066528199
 30
0.0
  3
Emblem-HL-8x23-V02_1__1
  1

  0
LINE
  5
9E
330
76
100
AcDbEntity
  8
0
  6
Continuous
 62
     3
100
AcDbLine
 10
-282.9757703668573
 20
-346.9718028579036
 30
0.0
 11
-283.0809516759281
 21
-346.9718028579036
 31
0.0
  0
LINE
  5
9F
330
76
100
AcDbEntity
  8
0
  6
Continuous
 62
     3
100
AcDbLine
 10
-282.9812751526731
 20
-348.8674968357942
 30
0.0
 11
-282.9893249119626
 21
-348.8826364319556
 31
0.0
  0
LINE
  5
A0
330
76
100
AcDbEntity
  8
0
  6
Continuous
 62
     7
100
AcDbLine
 10
-282.9647044757892
 20
-346.8979949037971
 30
0.0
 11
-282.9718871993259
 21
-346.8979949037971
 31
0.0
  0
LINE
  5
A1
330
76
100
AcDbEntity
  8
0
  6
Continuous
 62
     7
100
AcDbLine
 10
-282.9080820024236
 20
-349.3978827381757
 30
0.0
 11
-282.9113201653601
 21
-349.398016227762
 31
0.0
  0
LINE
  5
A2
330
76
100
AcDbEntity
  8
0
  6
Continuous
 62
     7
100
AcDbLine
 10
-282.9113201653601
 20
-349.398016227762
 30
0.0
 11
-282.916539641792
 21
-349.398016227762
 31
0.0
  0
LINE
  5
A3
330
76
100
AcDbEntity
  8
0
  6
Continuous
 62
     7
100
AcDbLine
 10
-282.9647285250165
 20
-347.0979949037971
 30
0.0
 11
-282.9722055138756
 21
-347.0979949037971
 31
0.0
  0
LINE
  5
A4
330
76
100
AcDbEntity
  8
0
  6
Continuous
 62
     7
100
AcDbLine
 10
-282.8845368211762
 20
-347.0979949037971
 30
0.0
 11
-282.9647285250165
 21
-347.0979949037971
 31
0.0
  0
LINE
  5
A5
330
76
100
AcDbEntity
  8
0
  6
Continuous
 62
     3
100
AcDbLine
 10
-282.8778790038523
 20
-346.9718028579036
 30
0.0
 11
-282.6059401180934
 21
-346.971802857899
 31
0.0
  0
LINE
  5
A6
330
76
100
AcDbEntity
  8
0
  6
Continuous
 62
     7
100
AcDbLine
 10
-282.8840283470665
 20
-346.8979949037971
 30
0.0
 11
-282.9647044757892
 21
-346.8979949037971
 31
0.0
  0
ARC
  5
A7
330
76
100
AcDbEntity
  8
0
  6
Continuous
 62
     7
100
AcDbCircle
 10
-282.4337061434725
 20
-350.7717033791261
 30
0.0
 40
0.2000994942841874
100
AcDbArc
 50
193.6718411464026
 51
218.5872809761499
  0
ARC
  5
A8
330
76
100
AcDbEntity
  8
0
  6
Continuous
 62
     7
100
AcDbCircle
 10
-266.8401157154118
 20
-346.9718028795719
 30
0.0
 40
16.24999998372669
100
AcDbArc
 50
190.9607719776784
 51
193.6948331445005
  0
ARC
  5
A9
330
76
100
AcDbEntity
  8
0
  6
Continuous
 62
     7
100
AcDbCircle
 10
-267.1122723941472
 20
-346.9456660961798
 30
0.0
 40
15.977125498662
100
AcDbArc
 50
177.9385972345802
 51
178.0809221739624
  0
ARC
  5
AA
330
76
100
AcDbEntity
  8
0
  6
Continuous
 62
     7
100
AcDbCircle
 10
-267.856906681075
 20
-346.8620450135388
 30
0.0
 40
15.23007105820152
100
AcDbArc
 50
177.802118543346
 51
178.1522129178582
  0
ARC
  5
AB
330
76
100
AcDbEntity
  8
0
  6
Continuous
 62
     3
100
AcDbCircle
 10
-282.9262334259603
 20
-345.0390839491715
 30
0.0
 40
0.0663357911187851
100
AcDbArc
 50
171.5062749734662
 51
213.92754724273
  0
ARC
  5
AC
330
76
100
AcDbEntity
  8
0
  6
Continuous
 62
     7
100
AcDbCircle
 10
-266.8401157208959
 20
-346.9718028568115
 30
0.0
 40
16.24999998266821
100
AcDbArc
 50
178.1410508323975
 51
180.0000000038505
  0
ARC
  5
AD
330
76
100
AcDbEntity
  8
0
  6
Continuous
 62
     7
100
AcDbCircle
 10
-266.8401157207901
 20
-346.971802858992
 30
0.0
 40
16.24999998277411
100
AcDbArc
 50
179.9999999961623
 51
181.8589491675716
  0
ARC
  5
AE
330
76
100
AcDbEntity
  8
0
  6
Continuous
 62
     7
100
AcDbCircle
 10
-266.9062079000764
 20
-346.9844448864189
 30
0.0
 40
16.18285070844016
100
AcDbArc
 50
188.1550878581119
 51
188.5768319985548
  0
ARC
  5
AF
330
76
100
AcDbEntity
  8
0
  6
Continuous
 62
     7
100
AcDbCircle
 10
-267.7800731738787
 20
-347.0651765039553
 30
0.0
 40
15.30746466082849
100
AcDbArc
 50
181.8998090226139
 51
182.1848288017352
  0
ARC
  5
B0
330
76
100
AcDbEntity
  8
0
  6
Continuous
 62
     7
100
AcDbCircle
 10
-282.4337097446932
 20
-343.1718977512845
 30
0.0
 40
0.2000949093940343
100
AcDbArc
 50
141.4127110353964
 51
166.3280897237522
  0
ARC
  5
B1
330
76
100
AcDbEntity
  8
0
  6
Continuous
 62
     7
100
AcDbCircle
 10
-266.8401157183744
 20
-346.9718028432625
 30
0.0
 40
16.24999998215436
100
AcDbArc
 50
166.3051532693944
 51
169.039227989728
  0
SPLINE
  5
B2
330
76
100
AcDbEntity
  8
0
  6
Continuous
 62
     3
100
AcDbSpline
210
0.0
220
0.0
230
1.0
 70
  1064
 71
     3
 72
    23
 73
    19
 74
    17
 42
0.000000001
 43
0.0000000001
 44
0.00000001
 40
0.0
 40
0.0
 40
0.0
 40
0.0
 40
0.0843018837617892
 40
0.1624250496243688
 40
0.2343987071556908
 40
0.3002519767970854
 40
0.3600138921710094
 40
0.4137134034119784
 40
0.4613793831442587
 40
0.5030406373452305
 40
0.5391643052217744
 40
0.569629671896568
 40
0.5947234217066593
 40
0.6147322534717548
 40
0.6299428973167839
 40
0.6406421630791583
 40
0.6471171327257349
 40
0.6496567551566892
 40
0.6496567551566892
 40
0.6496567551566892
 40
0.6496567551566892
 10
-282.6313278979469
 20
-350.1693621614516
 30
0.0
 10
-282.6313904691504
 20
-350.1974627276825
 30
0.0
 10
-282.6315110398298
 20
-350.2516042920062
 30
0.0
 10
-282.6315069996504
 20
-350.3297372560243
 30
0.0
 10
-282.6313882814612
 20
-350.4017205481293
 30
0.0
 10
-282.6311708011254
 20
-350.4675831658939
 30
0.0
 10
-282.6308849479094
 20
-350.5273540668791
 30
0.0
 10
-282.630557781311
 20
-350.5810622183355
 30
0.0
 10
-282.6302166062756
 20
-350.6287365874009
 30
0.0
 10
-282.6298887093902
 20
-350.6705522643819
 30
0.0
 10
-282.6295970051034
 20
-350.7066345327056
 30
0.0
 10
-282.6293314504663
 20
-350.737194260387
 30
0.0
 10
-282.6290963987724
 20
-350.762382618254
 30
0.0
 10
-282.6288737818439
 20
-350.7824854544341
 30
0.0
 10
-282.6286991475105
 20
-350.7977915622636
 30
0.0
 10
-282.6284809599998
 20
-350.8085827529304
 30
0.0
 10
-282.6284057089596
 20
-350.8151566410985
 30
0.0
 10
-282.628195198266
 20
-350.8181544649139
 30
0.0
 10
-282.6281358986761
 20
-350.8189990227337
 30
0.0
 11
-282.6313278979469
 21
-350.1693621614516
 31
0.0
 11
-282.631482382664
 21
-350.2536639032257
 31
0.0
 11
-282.6314852306925
 21
-350.3317870690523
 31
0.0
 11
-282.6313642004312
 21
-350.4037606248272
 31
0.0
 11
-282.6311470502789
 21
-350.4696135364458
 31
0.0
 11
-282.6308615386341
 21
-350.5293747698038
 31
0.0
 11
-282.6305354238955
 21
-350.5830732907966
 31
0.0
 11
-282.630196464462
 21
-350.6307380653201
 31
0.0
 11
-282.6298724187323
 21
-350.6723980592698
 31
0.0
 11
-282.6295777943507
 21
-350.7085205256466
 31
0.0
 11
-282.6293123065959
 21
-350.7389847355102
 31
0.0
 11
-282.6290724670651
 21
-350.7640773391255
 31
0.0
 11
-282.6288547873556
 21
-350.7840849867569
 31
0.0
 11
-282.6286557790647
 21
-350.7992943286687
 31
0.0
 11
-282.6284719537896
 21
-350.8099920151257
 31
0.0
 11
-282.6282998231277
 21
-350.8164646963927
 31
0.0
 11
-282.6281358986761
 21
-350.8189990227337
 31
0.0
  0
SPLINE
  5
B3
330
76
100
AcDbEntity
  8
0
  6
Continuous
 62
     3
100
AcDbSpline
210
0.0
220
0.0
230
1.0
 70
  1080
 71
     3
 72
     9
 73
     5
 74
     3
 42
0.000000001
 43
0.0000000001
 44
0.00000001
 40
0.0
 40
0.0
 40
0.0
 40
0.0
 40
0.0007687997422181
 40
0.0015375994843225
 40
0.0015375994843225
 40
0.0015375994843225
 40
0.0015375994843225
 10
-283.0885781040799
 20
-346.9718028579036
 30
0.0
 10
-283.0888343706606
 20
-346.9718028579036
 30
0.0
 10
-283.089346903822
 20
-346.9718028579036
 30
0.0
 10
-283.0898594369835
 20
-346.9718028579036
 30
0.0
 10
-283.0901157035642
 20
-346.9718028579036
 30
0.0
 11
-283.0885781040799
 21
-346.9718028579036
 31
0.0
 11
-283.089346903822
 21
-346.9718028579036
 31
0.0
 11
-283.0901157035642
 21
-346.9718028579036
 31
0.0
  0
SPLINE
  5
B4
330
76
100
AcDbEntity
  8
0
  6
Continuous
 62
     7
100
AcDbSpline
210
0.0
220
0.0
230
1.0
 70
  1064
 71
     3
 72
    20
 73
    16
 74
    14
 42
0.000000001
 43
0.0000000001
 44
0.00000001
 40
0.0
 40
0.0
 40
0.0
 40
0.0
 40
0.0422543074674132
 40
0.0827814812402729
 40
0.1224065912090101
 40
0.1574258150739207
 40
0.189886858228125
 40
0.221263500272297
 40
0.247218327960421
 40
0.268565374141177
 40
0.2854880240244607
 40
0.2945864491790366
 40
0.3016203860755167
 40
0.306207817216
 40
0.3080892465677148
 40
0.3080892465677148
 40
0.3080892465677148
 40
0.3080892465677148
 10
-282.9893249119626
 20
-348.8826364319556
 30
0.0
 10
-282.9913548674931
 20
-348.8686987138485
 30
0.0
 10
-282.9953317906982
 20
-348.8413929761599
 30
0.0
 10
-283.0012145042226
 20
-348.8010170717859
 30
0.0
 10
-283.0067199203098
 20
-348.7630233944874
 30
0.0
 10
-283.0117927205583
 20
-348.7276837267975
 30
0.0
 10
-283.0164218240263
 20
-348.6950584801525
 30
0.0
 10
-283.020568677231
 20
-348.6654152485939
 30
0.0
 10
-283.0241713627985
 20
-348.6394407461977
 30
0.0
 10
-283.0270654979206
 20
-348.6182206195616
 30
0.0
 10
-283.0292814298762
 20
-348.6026081834508
 30
0.0
 10
-283.0307128747142
 20
-348.591643408769
 30
0.0
 10
-283.0320139977864
 20
-348.5849375536433
 30
0.0
 10
-283.0324806227526
 20
-348.5802951166459
 30
0.0
 10
-283.0337545827437
 20
-348.5785296938094
 30
0.0
 10
-283.0341251011487
 20
-348.5780162277619
 30
0.0
 11
-282.9893249119626
 21
-348.8826364319556
 31
0.0
 11
-282.9954151527917
 21
-348.8408233325373
 31
0.0
 11
-283.0012526012868
 21
-348.8007187690926
 31
0.0
 11
-283.0069308613524
 21
-348.761502615502
 31
0.0
 11
-283.0119041440104
 21
-348.7268383327404
 31
0.0
 11
-283.0164619870484
 21
-348.6946988649628
 31
0.0
 11
-283.0208123373429
 21
-348.6636252729991
 31
0.0
 11
-283.0243720060358
 21
-348.6379157059442
 31
0.0
 11
-283.0272853435688
 21
-348.6167683930251
 31
0.0
 11
-283.0296092078805
 21
-348.6000060622944
 31
0.0
 11
-283.0309023033914
 21
-348.5909999953103
 31
0.0
 11
-283.032047416862
 21
-348.5840598958384
 31
0.0
 11
-283.0331023991589
 21
-348.5795954209615
 31
0.0
 11
-283.0341251011487
 21
-348.5780162277619
 31
0.0
  0
SPLINE
  5
B5
330
76
100
AcDbEntity
  8
0
  6
Continuous
 62
     7
100
AcDbSpline
210
0.0
220
0.0
230
1.0
 70
  1064
 71
     3
 72
    22
 73
    18
 74
    16
 42
0.000000001
 43
0.0000000001
 44
0.00000001
 40
0.0
 40
0.0
 40
0.0
 40
0.0
 40
0.0627200334511122
 40
0.1201699246669188
 40
0.1722124516729982
 40
0.218710421045133
 40
0.2595266079820546
 40
0.2945237631750943
 40
0.3235646625971869
 40
0.3465120510982793
 40
0.3632286688692818
 40
0.3735772484816235
 40
0.3774205148154544
 40
0.4774891973542275
 40
0.5733850285534444
 40
0.6657231750952483
 40
0.7551195603333596
 40
0.7551195603333596
 40
0.7551195603333596
 40
0.7551195603333596
 10
-283.0809516759281
 20
-346.9718028579036
 30
0.0
 10
-283.080947295859
 20
-346.9927095362679
 30
0.0
 10
-283.0809388832755
 20
-347.0327661788596
 30
0.0
 10
-283.0808730017063
 20
-347.090170299383
 30
0.0
 10
-283.0807781853257
 20
-347.1421670122905
 30
0.0
 10
-283.0806599856106
 20
-347.1886190937973
 30
0.0
 10
-283.0805281569997
 20
-347.2293893209221
 30
0.0
 10
-283.0803915499532
 20
-347.2643404704609
 30
0.0
 10
-283.0802591457451
 20
-347.2933353178191
 30
0.0
 10
-283.0801400320066
 20
-347.3162366449781
 30
0.0
 10
-283.0800428696927
 20
-347.3329072245274
 30
0.0
 10
-283.0799772385406
 20
-347.3432098376441
 30
0.0
 10
-283.0797125158782
 20
-347.3812957597171
 30
0.0
 10
-283.0792332610239
 20
-347.4478967601565
 30
0.0
 10
-283.0781365255778
 20
-347.5439915700802
 30
0.0
 10
-283.0767367828582
 20
-347.6365250035511
 30
0.0
 10
-283.0754136207059
 20
-347.6970888802876
 30
0.0
 10
-283.074762741455
 20
-347.7268806406966
 30
0.0
 11
-283.0809516759281
 21
-346.9718028579036
 31
0.0
 11
-283.0809282927453
 21
-347.0345228862621
 31
0.0
 11
-283.080864137054
 21
-347.0919727340034
 31
0.0
 11
-283.0807681996392
 21
-347.1440151778522
 31
0.0
 11
-283.0806494712864
 21
-347.1905129945329
 31
0.0
 11
-283.0805169427809
 21
-347.2313289607705
 31
0.0
 11
-283.0803796049079
 21
-347.2663258532892
 31
0.0
 11
-283.0802464484527
 21
-347.295366448814
 31
0.0
 11
-283.0801264642008
 21
-347.3183135240694
 31
0.0
 11
-283.0800286429372
 21
-347.33502985578
 31
0.0
 11
-283.0799619754474
 21
-347.3453782206706
 31
0.0
 11
-283.0799354525165
 21
-347.3492213954656
 31
0.0
 11
-283.0791514397507
 21
-347.449287007363
 31
0.0
 11
-283.0780625380009
 21
-347.545176656346
 31
0.0
 11
-283.0766169157436
 21
-347.6375034861965
 31
0.0
 11
-283.074762741455
 21
-347.7268806406966
 31
0.0
  0
SPLINE
  5
B6
330
76
100
AcDbEntity
  8
0
  6
Continuous
 62
     7
100
AcDbSpline
210
0.0
220
0.0
230
1.0
 70
  1080
 71
     3
 72
     9
 73
     5
 74
     3
 42
0.000000001
 43
0.0000000001
 44
0.00000001
 40
0.0
 40
0.0
 40
0.0
 40
0.0
 40
0.0016610226858092
 40
0.0033220453718533
 40
0.0033220453718533
 40
0.0033220453718533
 40
0.0033220453718533
 10
-283.0805475391944
 20
-346.413944881216
 30
0.0
 10
-283.0805290586455
 20
-346.4133915154954
 30
0.0
 10
-283.0804920975477
 20
-346.4122847840541
 30
0.0
 10
-283.0804551364498
 20
-346.411178052613
 30
0.0
 10
-283.0804366559007
 20
-346.4106246868922
 30
0.0
 11
-283.0805475391944
 21
-346.413944881216
 31
0.0
 11
-283.0804920975476
 21
-346.4122847840541
 31
0.0
 11
-283.0804366559007
 21
-346.4106246868922
 31
0.0
  0
SPLINE
  5
B7
330
76
100
AcDbEntity
  8
0
  6
Continuous
 62
     7
100
AcDbSpline
210
0.0
220
0.0
230
1.0
 70
  1064
 71
     3
 72
     9
 73
     5
 74
     3
 42
0.000000001
 43
0.0000000001
 44
0.00000001
 40
0.0
 40
0.0
 40
0.0
 40
0.0
 40
0.01524351755833
 40
0.0307401677833447
 40
0.0307401677833447
 40
0.0307401677833447
 40
0.0307401677833447
 10
-283.0805475391944
 20
-346.413944881216
 30
0.0
 10
-283.0806663593193
 20
-346.4190247943499
 30
0.0
 10
-283.0809059926787
 20
-346.4292689766654
 30
0.0
 10
-283.0813431635095
 20
-346.4395066367655
 30
0.0
 10
-283.0815635589623
 20
-346.4446676179159
 30
0.0
 11
-283.0805475391944
 21
-346.413944881216
 31
0.0
 11
-283.0809525837983
 21
-346.4291830165475
 31
0.0
 11
-283.0815635589623
 21
-346.4446676179159
 31
0.0
  0
SPLINE
  5
B8
330
76
100
AcDbEntity
  8
0
  6
Continuous
 62
     7
100
AcDbSpline
210
0.0
220
0.0
230
1.0
 70
  1064
 71
     3
 72
     9
 73
     5
 74
     3
 42
0.000000001
 43
0.0000000001
 44
0.00000001
 40
0.0
 40
0.0
 40
0.0
 40
0.0
 40
0.0307759980771331
 40
0.0612426374976116
 40
0.0612426374976116
 40
0.0612426374976116
 40
0.0612426374976116
 10
-283.0757735111554
 20
-346.2779586790417
 30
0.0
 10
-283.0756772151631
 20
-346.267700319209
 30
0.0
 10
-283.0754855711428
 20
-346.2472867163017
 30
0.0
 10
-283.0750028785645
 20
-346.2268779246588
 30
0.0
 10
-283.074762741455
 20
-346.2167250751107
 30
0.0
 11
-283.0757735111554
 21
-346.2779586790417
 31
0.0
 11
-283.0754111139866
 21
-346.247184814662
 31
0.0
 11
-283.074762741455
 21
-346.2167250751107
 31
0.0
  0
SPLINE
  5
B9
330
76
100
AcDbEntity
  8
0
  6
Continuous
 62
     7
100
AcDbSpline
210
0.0
220
0.0
230
1.0
 70
  1064
 71
     3
 72
    11
 73
     7
 74
     5
 42
0.000000001
 43
0.0000000001
 44
0.00000001
 40
0.0
 40
0.0
 40
0.0
 40
0.0
 40
0.1080381590753315
 40
0.2267941814558842
 40
0.3592713321312675
 40
0.5271959678066049
 40
0.5271959678066049
 40
0.5271959678066049
 40
0.5271959678066049
 10
-283.0815635589623
 20
-346.4446676179159
 30
0.0
 10
-283.0824393376994
 20
-346.4806697518921
 30
0.0
 10
-283.0842777610106
 20
-346.5562455911505
 30
0.0
 10
-283.0864762949724
 20
-346.6759831702286
 30
0.0
 10
-283.0882053306886
 20
-346.8156934932098
 30
0.0
 10
-283.0884444463612
 20
-346.9158277794733
 30
0.0
 10
-283.0885781040799
 20
-346.9718028579036
 30
0.0
 11
-283.0815635589623
 21
-346.4446676179159
 31
0.0
 11
-283.0840886423244
 21
-346.5526762646955
 31
0.0
 11
-283.0862803836687
 21
-346.6714120602035
 31
0.0
 11
-283.0878646286279
 21
-346.8038797379025
 31
0.0
 11
-283.0885781040799
 21
-346.9718028579036
 31
0.0
  0
SPLINE
  5
BA
330
76
100
AcDbEntity
  8
0
  6
Continuous
 62
     7
100
AcDbSpline
210
0.0
220
0.0
230
1.0
 70
  1064
 71
     3
 72
    17
 73
    13
 74
    11
 42
0.000000001
 43
0.0000000001
 44
0.00000001
 40
0.0
 40
0.0
 40
0.0
 40
0.0
 40
0.0608781650165188
 40
0.1221127706241092
 40
0.1795410605034588
 40
0.2366616302662759
 40
0.3137565880494994
 40
0.3898067894936251
 40
0.496512193188279
 40
0.6039338600871129
 40
0.7242531109332915
 40
0.8524857015820768
 40
0.8524857015820768
 40
0.8524857015820768
 40
0.8524857015820768
 10
-283.0341251011487
 20
-348.5780162277619
 30
0.0
 10
-283.0363080038433
 20
-348.5578411006749
 30
0.0
 10
-283.0406865755017
 20
-348.5173727199369
 30
0.0
 10
-283.0463792894867
 20
-348.4577954316122
 30
0.0
 10
-283.0513569228569
 20
-348.3994117976814
 30
0.0
 10
-283.0560768180424
 20
-348.335703825142
 30
0.0
 10
-283.060355985121
 20
-348.2657434331366
 30
0.0
 10
-283.0644472378308
 20
-348.1792208921491
 30
0.0
 10
-283.0676376165094
 20
-348.0825443500914
 30
0.0
 10
-283.0700986337779
 20
-347.9710884978797
 30
0.0
 10
-283.0720878197614
 20
-347.852447142403
 30
0.0
 10
-283.0738523789491
 20
-347.7696152031526
 30
0.0
 10
-283.074762741455
 20
-347.7268806406966
 30
0.0
 11
-283.0341251011487
 21
-348.5780162277619
 31
0.0
 11
-283.040547858598
 21
-348.5174778166867
 31
0.0
 11
-283.046392858627
 21
-348.4565228093106
 31
0.0
 11
-283.0512594536119
 21
-348.3993010936124
 31
0.0
 11
-283.0554809101856
 21
-348.3423367292469
 31
0.0
 11
-283.0601984730839
 21
-348.2653862442721
 31
0.0
 11
-283.0638142687917
 21
-348.1894220475638
 31
0.0
 11
-283.0674364044979
 21
-348.0827781384366
 31
0.0
 11
-283.06991402934
 21
-347.9753850476035
 31
0.0
 11
-283.0721316365513
 21
-347.8550862325058
 31
0.0
 11
-283.074762741455
 21
-347.7268806406966
 31
0.0
  0
SPLINE
  5
BB
330
76
100
AcDbEntity
  8
0
  6
Continuous
 62
     7
100
AcDbSpline
210
0.0
220
0.0
230
1.0
 70
  1064
 71
     3
 72
    21
 73
    17
 74
    15
 42
0.000000001
 43
0.0000000001
 44
0.00000001
 40
0.0
 40
0.0
 40
0.0
 40
0.0
 40
0.0627200350390551
 40
0.1201699172441019
 40
0.1722124493350672
 40
0.218710417663584
 40
0.2595265993060468
 40
0.2945237620031599
 40
0.3235646664832569
 40
0.3465120544062026
 40
0.3632286701194478
 40
0.3735772493966436
 40
0.377420515703551
 40
0.4876409314734625
 40
0.5928509563113896
 40
0.6938767096956266
 40
0.6938767096956266
 40
0.6938767096956266
 40
0.6938767096956266
 10
-283.0809516759281
 20
-346.9718028579036
 30
0.0
 10
-283.0809472958593
 20
-346.95089617901
 30
0.0
 10
-283.0809388813333
 20
-346.9108395388952
 30
0.0
 10
-283.080873008947
 20
-346.8534354191401
 30
0.0
 10
-283.0807781853056
 20
-346.8014387078988
 30
0.0
 10
-283.0806599829368
 20
-346.7549866268225
 30
0.0
 10
-283.0805281702463
 20
-346.714216399255
 30
0.0
 10
-283.0803915679597
 20
-346.6792652472832
 30
0.0
 10
-283.0802591728124
 20
-346.6502703958648
 30
0.0
 10
-283.0801400262152
 20
-346.6273690681102
 30
0.0
 10
-283.0800428766137
 20
-346.6106984893932
 30
0.0
 10
-283.0799772283187
 20
-346.6003958773415
 30
0.0
 10
-283.0796891467696
 20
-346.558926123639
 30
0.0
 10
-283.0791397236268
 20
-346.4858369690993
 30
0.0
 10
-283.0778676701777
 20
-346.380358162107
 30
0.0
 10
-283.0764620629834
 20
-346.3116270163703
 30
0.0
 10
-283.0757735111554
 20
-346.2779586790417
 30
0.0
 11
-283.0809516759281
 21
-346.9718028579036
 31
0.0
 11
-283.0809282927454
 21
-346.9090828295435
 31
0.0
 11
-283.0808641370539
 21
-346.8516329818006
 31
0.0
 11
-283.0807681996392
 21
-346.7995905379507
 31
0.0
 11
-283.0806494712864
 21
-346.7530927212689
 31
0.0
 11
-283.0805169427809
 21
-346.7122767550308
 31
0.0
 11
-283.0803796049079
 21
-346.6772798625117
 31
0.0
 11
-283.0802464484527
 21
-346.648239266987
 31
0.0
 11
-283.0801264642007
 21
-346.6252921917322
 31
0.0
 11
-283.0800286429371
 21
-346.6085758600228
 31
0.0
 11
-283.0799619754474
 21
-346.5982274951341
 31
0.0
 11
-283.0799354525165
 21
-346.5943843203415
 31
0.0
 11
-283.0790418001042
 21
-346.4841675257335
 31
0.0
 11
-283.0777008008859
 21
-346.3789660471759
 31
0.0
 11
-283.0757735111554
 21
-346.2779586790417
 31
0.0
  0
SPLINE
  5
BC
330
76
100
AcDbEntity
  8
0
  6
Continuous
 62
     3
100
AcDbSpline
210
0.0
220
0.0
230
1.0
 70
  1064
 71
     3
 72
    13
 73
     9
 74
     7
 42
0.000000001
 43
0.0000000001
 44
0.00000001
 40
0.0
 40
0.0
 40
0.0
 40
0.0
 40
0.2038177623839546
 40
0.4080490401824607
 40
0.7365270217644211
 40
1.136963778586133
 40
1.4186223955066
 40
1.771768525963714
 40
1.771768525963714
 40
1.771768525963714
 40
1.771768525963714
 10
-282.9812751526731
 20
-348.8674968357942
 30
0.0
 10
-282.9884398560248
 20
-348.7999292198563
 30
0.0
 10
-283.0027837842029
 20
-348.6646569021158
 30
0.0
 10
-283.0156704986452
 20
-348.41932641268
 30
0.0
 10
-283.0087250676073
 20
-348.1080713548679
 30
0.0
 10
-282.9850455831399
 20
-347.7720617292269
 30
0.0
 10
-282.9685111120913
 20
-347.4273176923691
 30
0.0
 10
-282.9660806182872
 20
-347.2157123643748
 30
0.0
 10
-282.9647285250165
 20
-347.0979949037971
 30
0.0
 11
-282.9812751526731
 21
-348.8674968357942
 31
0.0
 11
-283.0009717918315
 21
-348.6646330315651
 31
0.0
 11
-283.0115438758331
 21
-348.4606755699908
 31
0.0
 11
-283.0068939362332
 21
-348.1322305001555
 31
0.0
 11
-282.9840161503838
 21
-347.7324478057806
 31
0.0
 11
-282.9711703689695
 21
-347.4510822750259
 31
0.0
 11
-282.9647285250165
 21
-347.0979949037971
 31
0.0
  0
SPLINE
  5
BD
330
76
100
AcDbEntity
  8
0
  6
Continuous
 62
     7
100
AcDbSpline
210
0.0
220
0.0
230
1.0
 70
  1064
 71
     3
 72
    15
 73
    11
 74
     9
 42
0.000000001
 43
0.0000000001
 44
0.00000001
 40
0.0
 40
0.0
 40
0.0
 40
0.0
 40
0.0199990959140614
 40
0.0380543921306333
 40
0.053345354296537
 40
0.057936722642203
 40
0.0633366873948041
 40
0.0685036379845474
 40
0.0724052775804787
 40
0.0740884689673954
 40
0.0740884689673954
 40
0.0740884689673954
 40
0.0740884689673954
 10
-282.9757703668573
 20
-346.9718028579036
 30
0.0
 10
-282.9756805508831
 20
-346.965136923973
 30
0.0
 10
-282.9755096622929
 20
-346.9524529471803
 30
0.0
 10
-282.9750500048855
 20
-346.934678162096
 30
0.0
 10
-282.9745723807786
 20
-346.9220370943145
 30
0.0
 10
-282.9740903509738
 20
-346.9136278456759
 30
0.0
 10
-282.9737848733154
 20
-346.9085714646102
 30
0.0
 10
-282.9732088879524
 20
-346.9038200655379
 30
0.0
 10
-282.9730418721155
 20
-346.9001445619237
 30
0.0
 10
-282.9721546040447
 20
-346.8984927422945
 30
0.0
 10
-282.9718871993259
 20
-346.8979949037971
 30
0.0
 11
-282.9757703668573
 21
-346.9718028579036
 31
0.0
 11
-282.9754575582745
 21
-346.9518062111391
 31
0.0
 11
-282.9749873350649
 21
-346.9337570391053
 31
0.0
 11
-282.9743615072686
 21
-346.9184788892969
 31
0.0
 11
-282.9741034653796
 21
-346.9138947778984
 31
0.0
 11
-282.9737259242302
 21
-346.9085080273739
 31
0.0
 11
-282.973229973231
 21
-346.9033649339987
 31
0.0
 11
-282.9726167017927
 21
-346.8995117940481
 31
0.0
 11
-282.9718871993259
 21
-346.8979949037971
 31
0.0
  0
SPLINE
  5
BE
330
76
100
AcDbEntity
  8
0
  6
Continuous
 62
     7
100
AcDbSpline
210
0.0
220
0.0
230
1.0
 70
  1064
 71
     3
 72
    16
 73
    12
 74
    10
 42
0.000000001
 43
0.0000000001
 44
0.00000001
 40
0.0
 40
0.0
 40
0.0
 40
0.0
 40
0.0100089626969789
 40
0.0256284347564544
 40
0.0455144908681047
 40
0.0671914373164156
 40
0.0870448913453435
 40
0.101176382344023
 40
0.1159468529056004
 40
0.1237665593533027
 40
0.1263987511083076
 40
0.1263987511083076
 40
0.1263987511083076
 40
0.1263987511083076
 10
-282.9757703668573
 20
-346.9718028579036
 30
0.0
 10
-282.9758040778611
 20
-346.9751390114785
 30
0.0
 10
-282.9758904135161
 20
-346.983681394463
 30
0.0
 10
-282.9759550067078
 20
-346.9988528885755
 30
0.0
 10
-282.9759258394025
 20
-347.0179136806867
 30
0.0
 10
-282.9757302713037
 20
-347.0383857897218
 30
0.0
 10
-282.975382797214
 20
-347.0569348584947
 30
0.0
 10
-282.9748415204203
 20
-347.0731840458469
 30
0.0
 10
-282.9742917772513
 20
-347.0853944531284
 30
0.0
 10
-282.9734149744158
 20
-347.0938008217342
 30
0.0
 10
-282.9724488224189
 20
-347.0971511580772
 30
0.0
 10
-282.9722055138756
 20
-347.0979949037971
 30
0.0
 11
-282.9757703668573
 21
-346.9718028579036
 31
0.0
 11
-282.9758638826245
 21
-346.9818113818068
 31
0.0
 11
-282.9759356854096
 21
-346.9974306888986
 31
0.0
 11
-282.9759012989136
 21
-347.0173167152769
 31
0.0
 11
-282.975689852322
 21
-347.0389926303981
 31
0.0
 11
-282.9752907091156
 21
-347.058842071682
 31
0.0
 11
-282.9748218738606
 21
-347.0729657832637
 31
0.0
 11
-282.9739965641514
 21
-347.0877131780698
 31
0.0
 11
-282.9728972096889
 21
-347.0954552200122
 31
0.0
 11
-282.9722055138756
 21
-347.0979949037971
 31
0.0
  0
SPLINE
  5
BF
330
76
100
AcDbEntity
  8
0
  6
Continuous
 62
     3
100
AcDbSpline
210
0.0
220
0.0
230
1.0
 70
  1064
 71
     3
 72
    10
 73
     6
 74
     4
 42
0.000000001
 43
0.0000000001
 44
0.00000001
 40
0.0
 40
0.0
 40
0.0
 40
0.0
 40
0.4657204930407058
 40
0.991838735995886
 40
1.823785132210133
 40
1.823785132210133
 40
1.823785132210133
 40
1.823785132210133
 10
-282.9812751526731
 20
-345.0761088800131
 30
0.0
 10
-282.9957840670409
 20
-345.2309407157235
 30
0.0
 10
-283.0266834865394
 20
-345.5606840164081
 30
0.0
 10
-282.9814177123289
 20
-346.1684553954872
 30
0.0
 10
-282.9710535274669
 20
-346.6208557681228
 30
0.0
 10
-282.9647044757892
 20
-346.8979949037971
 30
0.0
 11
-282.9812751526731
 21
-345.0761088800131
 31
0.0
 11
-283.0125616147338
 21
-345.5407772944892
 31
0.0
 11
-282.992511535744
 21
-346.0665133508248
 31
0.0
 11
-282.9647044757892
 21
-346.8979949037971
 31
0.0
  0
SPLINE
  5
C0
330
76
100
AcDbEntity
  8
0
  6
Continuous
 62
     7
100
AcDbSpline
210
0.0
220
0.0
230
1.0
 70
  1064
 71
     3
 72
    23
 73
    19
 74
    17
 42
0.000000001
 43
0.0000000001
 44
0.00000001
 40
0.0
 40
0.0
 40
0.0
 40
0.0
 40
0.0761168192662239
 40
0.149131798181951
 40
0.2495694008188962
 40
0.3474807328652707
 40
0.4204852441239421
 40
0.4937449269984671
 40
0.5673749358931414
 40
0.6420101948679712
 40
0.702713017061771
 40
0.7635918367099683
 40
0.8239017389534031
 40
0.8837297673175994
 40
0.9612923064764751
 40
1.037565064828705
 40
1.115769589310058
 40
1.191443086755624
 40
1.191443086755624
 40
1.191443086755624
 40
1.191443086755624
 10
-283.074762741455
 20
-346.2167250751107
 30
0.0
 10
-283.0741982172426
 20
-346.1913590558042
 30
0.0
 10
-283.0730921593876
 20
-346.1416607094369
 30
0.0
 10
-283.0715801181484
 20
-346.0584845138018
 30
0.0
 10
-283.0699787129985
 20
-345.9680441410505
 30
0.0
 10
-283.0680046229247
 20
-345.8776137601472
 30
0.0
 10
-283.0655441289795
 20
-345.7962581181569
 30
0.0
 10
-283.0625985658062
 20
-345.7230177262209
 30
0.0
 10
-283.0587256288783
 20
-345.6492755988912
 30
0.0
 10
-283.0541094201975
 20
-345.5797702266103
 30
0.0
 10
-283.0489237246074
 20
-345.5145690722079
 30
0.0
 10
-283.0434275477015
 20
-345.454186919637
 30
0.0
 10
-283.0373217399751
 20
-345.3941567206935
 30
0.0
 10
-283.0300427331053
 20
-345.3286589946185
 30
0.0
 10
-283.0215390618938
 20
-345.2579464101521
 30
0.0
 10
-283.0117623718806
 20
-345.1812198178509
 30
0.0
 10
-283.0017467926655
 20
-345.1051594334292
 30
0.0
 10
-282.9951069638913
 20
-345.0542983383525
 30
0.0
 10
-282.9918416491312
 20
-345.0292860802342
 30
0.0
 11
-283.074762741455
 21
-346.2167250751107
 31
0.0
 11
-283.0731219242294
 21
-346.1406259429805
 31
0.0
 11
-283.0717511049941
 21
-346.0676238334128
 31
0.0
 11
-283.0698939526215
 21
-345.9672034021486
 31
0.0
 11
-283.0676662859977
 21
-345.86931741513
 31
0.0
 11
-283.0654257843918
 21
-345.7963472923138
 31
0.0
 11
-283.0624541818444
 21
-345.7231479021423
 31
0.0
 11
-283.0585747414966
 21
-345.6496201647795
 31
0.0
 11
-283.0536231112578
 21
-345.5751493433106
 31
0.0
 11
-283.0488135691677
 21
-345.5146373533098
 31
0.0
 11
-283.0433029054234
 21
-345.4540084553034
 31
0.0
 11
-283.0372120120356
 21
-345.3940069108853
 31
0.0
 11
-283.0306180346526
 21
-345.3345433720912
 31
0.0
 11
-283.0213964541184
 21
-345.2575309708709
 31
0.0
 11
-283.0117916612467
 21
-345.1818653800983
 31
0.0
 11
-283.0016512659361
 21
-345.1043210699637
 31
0.0
 11
-282.9918416491312
 21
-345.0292860802342
 31
0.0
  0
SPLINE
  5
C1
330
76
100
AcDbEntity
  8
0
  6
Continuous
 62
     3
100
AcDbSpline
210
0.0
220
0.0
230
1.0
 70
  1064
 71
     3
 72
    30
 73
    26
 74
    24
 42
0.000000001
 43
0.0000000001
 44
0.00000001
 40
0.0
 40
0.0
 40
0.0
 40
0.0
 40
0.202318591729055
 40
0.4330553078485156
 40
0.5082526720841222
 40
0.5958064362279308
 40
0.7019221617014768
 40
0.832805784022158
 40
0.9946634362184333
 40
1.148727621759872
 40
1.283890993862126
 40
1.412786915174032
 40
1.548048836035065
 40
1.702310305689151
 40
1.888204914352891
 40
2.08783027000861
 40
2.269696422575998
 40
2.426443136320019
 40
2.550710162865777
 40
2.635137245210348
 40
2.835719677409619
 40
2.990426130238746
 40
3.101095607394761
 40
3.1695669682106
 40
3.197678924574339
 40
3.197678924574339
 40
3.197678924574339
 40
3.197678924574339
 10
-282.6313278980121
 20
-343.7742435545481
 30
0.0
 10
-282.631364071326
 20
-343.8416831838351
 30
0.0
 10
-282.631441483355
 20
-343.9860351643998
 30
0.0
 10
-282.6306504802828
 20
-344.1554513364838
 30
0.0
 10
-282.6302135309034
 20
-344.2866132213856
 30
0.0
 10
-282.6297044185804
 20
-344.3762341626043
 30
0.0
 10
-282.6288450927166
 20
-344.4844152013148
 30
0.0
 10
-282.6274921423918
 20
-344.6173607636777
 30
0.0
 10
-282.6256704606471
 20
-344.7662848386244
 30
0.0
 10
-282.6237047220719
 20
-344.9166337192897
 30
0.0
 10
-282.6219103975213
 20
-345.0559966646669
 30
0.0
 10
-282.6202677106065
 20
-345.1890936126753
 30
0.0
 10
-282.6186866346885
 20
-345.3285577818738
 30
0.0
 10
-282.6170594542956
 20
-345.4870221217093
 30
0.0
 10
-282.6153782333888
 20
-345.6669414277014
 30
0.0
 10
-282.6137033921708
 20
-345.8560627203332
 30
0.0
 10
-282.6121705700997
 20
-346.0354689159928
 30
0.0
 10
-282.610898529283
 20
-346.1897569718611
 30
0.0
 10
-282.6099255246701
 20
-346.3115666949061
 30
0.0
 10
-282.6088725306142
 20
-346.4479881459537
 30
0.0
 10
-282.6078421696064
 20
-346.5945565425146
 30
0.0
 10
-282.6069041473708
 20
-346.7498731898096
 30
0.0
 10
-282.6063470579412
 20
-346.8611542456693
 30
0.0
 10
-282.6060716661187
 20
-346.9302379743521
 30
0.0
 10
-282.6059697694527
 20
-346.9624322525695
 30
0.0
 10
-282.6059401180934
 20
-346.971802857899
 30
0.0
 11
-282.6313278980121
 21
-343.7742435545481
 31
0.0
 11
-282.6312724122681
 21
-343.9765621387673
 31
0.0
 11
-282.6304860123281
 21
-344.2072975150845
 31
0.0
 11
-282.6302000541103
 21
-344.2824943354789
 31
0.0
 11
-282.6297097255371
 21
-344.3700467266559
 31
0.0
 11
-282.6288753149169
 21
-344.4761591721622
 31
0.0
 11
-282.6275571105583
 21
-344.607036155545
 31
0.0
 11
-282.62561540077
 21
-344.7688821603509
 31
0.0
 11
-282.623627797288
 21
-344.9229335241389
 31
0.0
 11
-282.6218957842341
 21
-345.0580857985703
 31
0.0
 11
-282.6203149588213
 21
-345.1869720256057
 31
0.0
 11
-282.6187809182626
 21
-345.3222252472052
 31
0.0
 11
-282.617189259771
 21
-345.4764785053293
 31
0.0
 11
-282.6154355805595
 21
-345.6623648419384
 31
0.0
 11
-282.6136618237355
 21
-345.8619823171371
 31
0.0
 11
-282.6121087670905
 21
-346.0438418383622
 31
0.0
 11
-282.6108167416775
 21
-346.2005832270651
 31
0.0
 11
-282.6098260785491
 21
-346.3248463046974
 31
0.0
 11
-282.6091771087584
 21
-346.4092708927108
 31
0.0
 11
-282.6077720663466
 21
-346.6098484029233
 31
0.0
 11
-282.6068465683124
 21
-346.7645520882377
 31
0.0
 11
-282.6062998924175
 21
-346.8752202149647
 31
0.0
 11
-282.6060313164238
 21
-346.9436910494147
 31
0.0
 11
-282.6059401180934
 21
-346.971802857899
 31
0.0
  0
SPLINE
  5
C2
330
76
100
AcDbEntity
  8
0
  6
Continuous
 62
     7
100
AcDbSpline
210
0.0
220
0.0
230
1.0
 70
  1064
 71
     3
 72
    11
 73
     7
 74
     5
 42
0.000000001
 43
0.0000000001
 44
0.00000001
 40
0.0
 40
0.0
 40
0.0
 40
0.0
 40
0.1083009400713096
 40
0.1549828851758742
 40
0.4424191186708705
 40
0.6747990485562043
 40
0.6747990485562043
 40
0.6747990485562043
 40
0.6747990485562043
 10
-282.7936765742904
 20
-350.061527040913
 30
0.0
 10
-282.8005175077321
 20
-350.0260807964358
 30
0.0
 10
-282.8103071396991
 20
-349.9753558306505
 30
0.0
 10
-282.8379456653201
 20
-349.8304959851604
 30
0.0
 10
-282.8729109526508
 20
-349.6449248116643
 30
0.0
 10
-282.9030612045224
 20
-349.4742950074866
 30
0.0
 10
-282.916539641792
 20
-349.398016227762
 30
0.0
 11
-282.7936765742904
 21
-350.061527040913
 31
0.0
 11
-282.8141468064626
 21
-349.9551782599211
 31
0.0
 11
-282.822900537665
 21
-349.9093244030502
 31
0.0
 11
-282.8757178724914
 21
-349.6267825167466
 31
0.0
 11
-282.916539641792
 21
-349.398016227762
 31
0.0
  0
SPLINE
  5
C3
330
76
100
AcDbEntity
  8
0
  6
Continuous
 62
     7
100
AcDbSpline
210
0.0
220
0.0
230
1.0
 70
  1064
 71
     3
 72
    11
 73
     7
 74
     5
 42
0.000000001
 43
0.0000000001
 44
0.00000001
 40
0.0
 40
0.0
 40
0.0
 40
0.0
 40
0.005027554568715
 40
0.0101190756101914
 40
0.0151443537381635
 40
0.0202381169089648
 40
0.0202381169089648
 40
0.0202381169089648
 40
0.0202381169089648
 10
-282.9750338852739
 20
-348.9780162277621
 30
0.0
 10
-282.9747790719358
 20
-348.9796725938562
 30
0.0
 10
-282.9742661883406
 20
-348.9830063979934
 30
0.0
 10
-282.9734952181921
 20
-348.9879952959323
 30
0.0
 10
-282.9727186009537
 20
-348.9930056521453
 30
0.0
 10
-282.9721997280626
 20
-348.9963385177845
 30
0.0
 10
-282.9719385283373
 20
-348.9980162277622
 30
0.0
 11
-282.9750338852739
 21
-348.9780162277621
 31
0.0
 11
-282.9742688826631
 21
-348.9829852393311
 31
0.0
 11
-282.9734914722601
 21
-348.9880170600391
 31
0.0
 11
-282.9727215606782
 21
-348.9929830097441
 31
0.0
 11
-282.9719385283373
 21
-348.9980162277622
 31
0.0
  0
SPLINE
  5
C4
330
76
100
AcDbEntity
  8
0
  6
Continuous
 62
     7
100
AcDbSpline
210
0.0
220
0.0
230
1.0
 70
  1064
 71
     3
 72
    21
 73
    17
 74
    15
 42
0.000000001
 43
0.0000000001
 44
0.00000001
 40
0.0
 40
0.0
 40
0.0
 40
0.0
 40
0.0003313818245228
 40
0.0017211003774076
 40
0.0049106363502729
 40
0.0107003079476082
 40
0.014215844728831
 40
0.0199797566266796
 40
0.0283448556091721
 40
0.0396658239082013
 40
0.0593925105307623
 40
0.0812479970481118
 40
0.0961498831306151
 40
0.1089991087587642
 40
0.1193407075172185
 40
0.1267191072463984
 40
0.1267191072463984
 40
0.1267191072463984
 40
0.1267191072463984
 10
-282.8845368211762
 20
-347.0979949037971
 30
0.0
 10
-282.8844574374812
 20
-347.0979173431069
 30
0.0
 10
-282.8840451201037
 20
-347.0975145364027
 30
0.0
 10
-282.8835003433884
 20
-347.0959082208627
 30
0.0
 10
-282.882629762408
 20
-347.092606365104
 30
0.0
 10
-282.8820641341648
 20
-347.0884489635694
 30
0.0
 10
-282.8815023060452
 20
-347.0834637688296
 30
0.0
 10
-282.8809611214101
 20
-347.0776042112947
 30
0.0
 10
-282.8803268845255
 20
-347.0691454580369
 30
0.0
 10
-282.8795528945617
 20
-347.0560296501833
 30
0.0
 10
-282.8788034476028
 20
-347.0384105626254
 30
0.0
 10
-282.8782805837158
 20
-347.0195891497536
 30
0.0
 10
-282.8779978209654
 20
-347.0030558616409
 30
0.0
 10
-282.8778808944687
 20
-346.9903587312587
 30
0.0
 10
-282.8778496397226
 20
-346.9801689530026
 30
0.0
 10
-282.8778703757563
 20
-346.974262313426
 30
0.0
 10
-282.8778790038523
 20
-346.9718028579036
 30
0.0
 11
-282.8845368211762
 21
-347.0979949037971
 31
0.0
 11
-282.8843068767379
 21
-347.0977562854496
 31
0.0
 11
-282.8837113977498
 21
-347.0965006097289
 31
0.0
 11
-282.8828919157027
 21
-347.0934181456189
 31
0.0
 11
-282.8819899620864
 21
-347.0876991621024
 31
0.0
 11
-282.881594948089
 21
-347.0842058882828
 31
0.0
 11
-282.881054434322
 21
-347.07846737594
 31
0.0
 11
-282.8804193345177
 21
-347.0701264211003
 31
0.0
 11
-282.8797405624084
 21
-347.0588258197896
 31
0.0
 11
-282.8788795595362
 21
-347.0391179321197
 31
0.0
 11
-282.8782624441287
 21
-347.0172711598701
 31
0.0
 11
-282.8780071796317
 21
-347.0023714602597
 31
0.0
 11
-282.8778877801449
 21
-346.989522789387
 31
0.0
 11
-282.877859852581
 21
-346.9791812282642
 31
0.0
 11
-282.8778790038523
 21
-346.9718028579036
 31
0.0
  0
SPLINE
  5
C5
330
76
100
AcDbEntity
  8
0
  6
Continuous
 62
     3
100
AcDbSpline
210
0.0
220
0.0
230
1.0
 70
  1064
 71
     3
 72
    30
 73
    26
 74
    24
 42
0.000000001
 43
0.0000000001
 44
0.00000001
 40
0.0
 40
0.0
 40
0.0
 40
0.0
 40
0.2022816483142943
 40
0.4329714650604883
 40
0.5081350045523377
 40
0.5956558850721323
 40
0.70174037172864
 40
0.8325951042329072
 40
0.9944269202638445
 40
1.148292724025947
 40
1.283350294785425
 40
1.412211836197169
 40
1.547489639564351
 40
1.701796095468478
 40
1.887743636043676
 40
2.087447589321814
 40
2.269371606426923
 40
2.426115821888899
 40
2.550280357529524
 40
2.634465326494865
 40
2.835240384086802
 40
2.990098833454021
 40
3.100891186687552
 40
3.169467810595939
 40
3.197678924637813
 40
3.197678924637813
 40
3.197678924637813
 40
3.197678924637813
 10
-282.6313278979469
 20
-350.1693621614516
 30
0.0
 10
-282.6313640798517
 20
-350.1019348466439
 30
0.0
 10
-282.6314415094163
 20
-349.9576108136947
 30
0.0
 10
-282.6306506439722
 20
-349.7882338638788
 30
0.0
 10
-282.6302140401837
 20
-349.6571098473348
 30
0.0
 10
-282.6297054479722
 20
-349.5675215528957
 30
0.0
 10
-282.6288467530642
 20
-349.4593715141856
 30
0.0
 10
-282.6274944918273
 20
-349.326454601236
 30
0.0
 10
-282.6256742454586
 20
-349.1776148842284
 30
0.0
 10
-282.6237100937245
 20
-349.0273759986098
 30
0.0
 10
-282.6219169542731
 20
-348.888125901717
 30
0.0
 10
-282.6202743264842
 20
-348.7550703890877
 30
0.0
 10
-282.6186925783172
 20
-348.6155973973372
 30
0.0
 10
-282.6170644180395
 20
-348.4570951319365
 30
0.0
 10
-282.6153822882587
 20
-348.2771169931858
 30
0.0
 10
-282.613706768235
 20
-348.0879325727221
 30
0.0
 10
-282.6121734638743
 20
-347.9084817249272
 30
0.0
 10
-282.610901457754
 20
-347.7542093775263
 30
0.0
 10
-282.6099292483308
 20
-347.6325153526842
 30
0.0
 10
-282.6088763533682
 20
-347.496144562033
 30
0.0
 10
-282.607845339982
 20
-347.3495419996557
 30
0.0
 10
-282.6069060057206
 20
-347.1940695247629
 30
0.0
 10
-282.606348033903
 20
-347.0826617597388
 30
0.0
 10
-282.6060721398142
 20
-347.0134689332653
 30
0.0
 10
-282.6059699086861
 20
-346.9812065155118
 30
0.0
 10
-282.6059401180934
 20
-346.971802857899
 30
0.0
 11
-282.6313278979469
 21
-350.1693621614516
 31
0.0
 11
-282.6312724505555
 21
-349.9670805206379
 31
0.0
 11
-282.6304862840119
 21
-349.7363920431696
 31
0.0
 11
-282.6302005947343
 21
-349.6612290467418
 31
0.0
 11
-282.6297107451161
 21
-349.5737095370229
 31
0.0
 11
-282.6288769549966
 21
-349.4676283264187
 31
0.0
 11
-282.6275594442152
 21
-349.336780227335
 31
0.0
 11
-282.6256184326111
 21
-349.1749600521778
 31
0.0
 11
-282.6236334907332
 21
-349.02110705234
 31
0.0
 11
-282.6219025968038
 21
-348.8860605735972
 31
0.0
 11
-282.6203217642221
 21
-348.7572087291366
 31
0.0
 11
-282.6187870063878
 21
-348.6219396321458
 31
0.0
 11
-282.6171943367001
 21
-348.4676413958118
 31
0.0
 11
-282.6154397685588
 21
-348.2817021333224
 31
0.0
 11
-282.6136651420011
 21
-348.0820060651267
 31
0.0
 11
-282.6121114871302
 21
-347.9000886823627
 31
0.0
 11
-282.6108193782574
 21
-347.7433497927144
 31
0.0
 11
-282.6098293896943
 21
-347.6191892038656
 31
0.0
 11
-282.6091820957525
 21
-347.5350067235004
 31
0.0
 11
-282.6077751501035
 21
-347.3342365966527
 31
0.0
 11
-282.6068483666468
 21
-347.1793809196306
 31
0.0
 11
-282.6063008582487
 21
-347.0685899194723
 31
0.0
 11
-282.6060317377755
 21
-347.0000138232157
 31
0.0
 11
-282.6059401180934
 21
-346.971802857899
 31
0.0
  0
SPLINE
  5
C6
330
76
100
AcDbEntity
  8
0
  6
Continuous
 62
     7
100
AcDbSpline
210
0.0
220
0.0
230
1.0
 70
  1064
 71
     3
 72
    17
 73
    13
 74
    11
 42
0.000000001
 43
0.0000000001
 44
0.00000001
 40
0.0
 40
0.0
 40
0.0
 40
0.0
 40
0.0264800514914911
 40
0.0500551419216774
 40
0.0705453506918155
 40
0.087770760932564
 40
0.1011308633890128
 40
0.1110072417561955
 40
0.1143873168800465
 40
0.1168642914939692
 40
0.117836229954579
 40
0.1188081680443442
 40
0.1188081680443442
 40
0.1188081680443442
 40
0.1188081680443442
 10
-282.9274311994441
 20
-349.2803170798186
 30
0.0
 10
-282.9262028632351
 20
-349.2890578735167
 30
0.0
 10
-282.9238809298569
 20
-349.3055805610537
 30
0.0
 10
-282.9205884001743
 20
-349.3288640831978
 30
0.0
 10
-282.917731338324
 20
-349.3490934043957
 30
0.0
 10
-282.9153558900609
 20
-349.3659525593455
 30
0.0
 10
-282.9135236359568
 20
-349.3793137404934
 30
0.0
 10
-282.9123155810591
 20
-349.3881056145499
 30
0.0
 10
-282.9117127257346
 20
-349.393313102481
 30
0.0
 10
-282.91139469553
 20
-349.3955711539423
 30
0.0
 10
-282.9113593469098
 20
-349.3970451660479
 30
0.0
 10
-282.9113332211998
 20
-349.3976925403995
 30
0.0
 10
-282.9113201653601
 20
-349.398016227762
 30
0.0
 11
-282.9274311994441
 21
-349.2803170798186
 31
0.0
 11
-282.9237421932902
 21
-349.3065389091202
 31
0.0
 11
-282.9204451574166
 21
-349.3298823116736
 31
0.0
 11
-282.9175803461825
 21
-349.3501712621541
 31
0.0
 11
-282.9151880139469
 21
-349.3672297352366
 31
0.0
 11
-282.9133650927869
 21
-349.380464889011
 31
0.0
 11
-282.9120727668119
 21
-349.3902563517347
 31
0.0
 11
-282.9116620317304
 21
-349.3936113784437
 31
0.0
 11
-282.9113932171637
 21
-349.3960737239315
 31
0.0
 11
-282.9113566912619
 21
-349.3970449758468
 31
0.0
 11
-282.9113201653601
 21
-349.398016227762
 31
0.0
  0
SPLINE
  5
C7
330
76
100
AcDbEntity
  8
0
  6
Continuous
 62
     7
100
AcDbSpline
210
0.0
220
0.0
230
1.0
 70
  1064
 71
     3
 72
    11
 73
     7
 74
     5
 42
0.000000001
 43
0.0000000001
 44
0.00000001
 40
0.0
 40
0.0
 40
0.0
 40
0.0
 40
0.0619138623088177
 40
0.1314745364060589
 40
0.2067164342682703
 40
0.285833274143538
 40
0.285833274143538
 40
0.285833274143538
 40
0.285833274143538
 10
-282.9254132302699
 20
-349.2800314434372
 30
0.0
 10
-282.9290562538551
 20
-349.2597172320638
 30
0.0
 10
-282.9367922193742
 20
-349.2165798528998
 30
0.0
 10
-282.9478497328909
 20
-349.148565590433
 30
0.0
 10
-282.9598486526992
 20
-349.0748969007934
 30
0.0
 10
-282.9678416816902
 20
-349.0240684419703
 30
0.0
 10
-282.9719385283373
 20
-348.9980162277622
 30
0.0
 11
-282.9254132302699
 21
-349.2800314434372
 31
0.0
 11
-282.9361863384016
 21
-349.2190620536143
 31
0.0
 11
-282.9475489909195
 21
-349.1504356916844
 31
0.0
 11
-282.9595748464494
 21
-349.0761610522352
 31
0.0
 11
-282.9719385283373
 21
-348.9980162277622
 31
0.0
  0
SPLINE
  5
C8
330
76
100
AcDbEntity
  8
0
  6
Continuous
 62
     3
100
AcDbSpline
210
0.0
220
0.0
230
1.0
 70
  1064
 71
     3
 72
    11
 73
     7
 74
     5
 42
0.000000001
 43
0.0000000001
 44
0.00000001
 40
0.0
 40
0.0
 40
0.0
 40
0.0
 40
0.2875193892127968
 40
0.6262945526893711
 40
0.9678869483898188
 40
1.349224640685588
 40
1.349224640685588
 40
1.349224640685588
 40
1.349224640685588
 10
-282.9812751526731
 20
-348.8674968357942
 30
0.0
 10
-282.9625131724367
 20
-348.9614903034055
 30
0.0
 10
-282.9216445183769
 20
-349.1662333504425
 30
0.0
 10
-282.8448376516346
 20
-349.4796980575092
 30
0.0
 10
-282.7478187854684
 20
-349.8201494104812
 30
0.0
 10
-282.6715557958662
 20
-350.0487682391747
 30
0.0
 10
-282.6313278979469
 20
-350.1693621614516
 30
0.0
 11
-282.9812751526731
 21
-348.8674968357942
 31
0.0
 11
-282.9231280174188
 21
-349.149075084226
 31
0.0
 11
-282.843032768199
 21
-349.4782458039257
 31
0.0
 11
-282.7491730805211
 21
-349.806690204178
 31
0.0
 11
-282.6313278979469
 21
-350.1693621614516
 31
0.0
  0
SPLINE
  5
C9
330
76
100
AcDbEntity
  8
0
  6
Continuous
 62
     7
100
AcDbSpline
210
0.0
220
0.0
230
1.0
 70
  1064
 71
     3
 72
     9
 73
     5
 74
     3
 42
0.000000001
 43
0.0000000001
 44
0.00000001
 40
0.0
 40
0.0
 40
0.0
 40
0.0
 40
0.0361100334306795
 40
0.0737495328809023
 40
0.0737495328809023
 40
0.0737495328809023
 40
0.0737495328809023
 10
-283.0791237262429
 20
-347.5726472309106
 30
0.0
 10
-283.0795053509666
 20
-347.5606165982444
 30
0.0
 10
-283.080284784397
 20
-347.5360457676038
 30
0.0
 10
-283.0811314411299
 20
-347.5114771608369
 30
0.0
 10
-283.0815635589626
 20
-347.4989380978823
 30
0.0
 11
-283.0791237262429
 21
-347.5726472309106
 31
0.0
 11
-283.0802847259957
 21
-347.5365558663673
 31
0.0
 11
-283.0815635589626
 21
-347.4989380978823
 31
0.0
  0
SPLINE
  5
CA
330
76
100
AcDbEntity
  8
0
  6
Continuous
 62
     7
100
AcDbSpline
210
0.0
220
0.0
230
1.0
 70
  1064
 71
     3
 72
    11
 73
     7
 74
     5
 42
0.000000001
 43
0.0000000001
 44
0.00000001
 40
0.0
 40
0.0
 40
0.0
 40
0.0
 40
0.1080381590654937
 40
0.226794181446841
 40
0.3592713321278527
 40
0.527195967797619
 40
0.527195967797619
 40
0.527195967797619
 40
0.527195967797619
 10
-283.0815635589626
 20
-347.4989380978823
 30
0.0
 10
-283.0824393376996
 20
-347.4629359639092
 30
0.0
 10
-283.0842777610106
 20
-347.387360124654
 30
0.0
 10
-283.0864762949726
 20
-347.267622545577
 30
0.0
 10
-283.0882053306888
 20
-347.1279122225956
 30
0.0
 10
-283.0884444463613
 20
-347.027777936332
 30
0.0
 10
-283.0885781040799
 20
-346.9718028579036
 30
0.0
 11
-283.0815635589626
 21
-347.4989380978823
 31
0.0
 11
-283.0840886423244
 21
-347.3909294511125
 31
0.0
 11
-283.0862803836687
 21
-347.2721936556037
 31
0.0
 11
-283.087864628628
 21
-347.1397259778991
 31
0.0
 11
-283.0885781040799
 21
-346.9718028579036
 31
0.0
  0
SPLINE
  5
CB
330
76
100
AcDbEntity
  8
0
  6
Continuous
 62
     7
100
AcDbSpline
210
0.0
220
0.0
230
1.0
 70
  1064
 71
     3
 72
    11
 73
     7
 74
     5
 42
0.000000001
 43
0.0000000001
 44
0.00000001
 40
0.0
 40
0.0
 40
0.0
 40
0.0
 40
0.0242029569168257
 40
0.0485574932767973
 40
0.0724442312095635
 40
0.0964447266509702
 40
0.0964447266509702
 40
0.0964447266509702
 40
0.0964447266509702
 10
-282.9750338852739
 20
-348.9780162277621
 30
0.0
 10
-282.9762555717931
 20
-348.970041609527
 30
0.0
 10
-282.9787065812018
 20
-348.9540424269644
 30
0.0
 10
-282.9823079004641
 20
-348.9301643839351
 30
0.0
 10
-282.9858585791387
 20
-348.9063469807563
 30
0.0
 10
-282.9881676442192
 20
-348.8905524557327
 30
0.0
 10
-282.9893249119626
 20
-348.8826364319556
 30
0.0
 11
-282.9750338852739
 21
-348.9780162277621
 31
0.0
 11
-282.9786897131953
 21
-348.9540909681812
 31
0.0
 11
-282.9823242594578
 21
-348.9300091593676
 31
0.0
 11
-282.9858419033591
 21
-348.90638285133
 31
0.0
 11
-282.9893249119626
 21
-348.8826364319556
 31
0.0
  0
SPLINE
  5
CC
330
76
100
AcDbEntity
  8
0
  6
Continuous
 62
     3
100
AcDbSpline
210
0.0
220
0.0
230
1.0
 70
  1064
 71
     3
 72
    15
 73
    11
 74
     9
 42
0.000000001
 43
0.0000000001
 44
0.00000001
 40
0.0
 40
0.0
 40
0.0
 40
0.0
 40
0.011131118535172
 40
0.0221410803681596
 40
0.0330238674308807
 40
0.043780653008454
 40
0.0544206516775725
 40
0.0649613499886612
 40
0.0754280534564442
 40
0.0858526077373412
 40
0.0858526077373412
 40
0.0858526077373412
 40
0.0858526077373412
 10
-282.6313278979469
 20
-350.1693621614516
 30
0.0
 10
-282.6302602611055
 20
-350.1729163274396
 30
0.0
 10
-282.6281365942189
 20
-350.17998596975
 30
0.0
 10
-282.6243313450962
 20
-350.1903226861739
 30
0.0
 10
-282.6200489250637
 20
-350.2003334658231
 30
0.0
 10
-282.615221383975
 20
-350.2099574766284
 30
0.0
 10
-282.6098392727382
 20
-350.2191528435208
 30
0.0
 10
-282.6038723778124
 20
-350.2278605007868
 30
0.0
 10
-282.5973632423422
 20
-350.2360903059378
 30
0.0
 10
-282.5925283017971
 20
-350.2411068622424
 30
0.0
 10
-282.5901157035643
 20
-350.2436100748429
 30
0.0
 11
-282.6313278979469
 21
-350.1693621614516
 31
0.0
 11
-282.628016912893
 21
-350.1799894453853
 31
0.0
 11
-282.6242284635938
 21
-350.1903270908242
 31
0.0
 11
-282.6199317537056
 21
-350.2003257580687
 31
0.0
 11
-282.6151013632762
 21
-350.2099369898987
 31
0.0
 11
-282.6097155272425
 21
-350.2191131742247
 31
0.0
 11
-282.6037603598592
 21
-350.2278104337354
 31
0.0
 11
-282.5972268476899
 21
-350.2359875435556
 31
0.0
 11
-282.5901157035643
 21
-350.2436100748429
 31
0.0
  0
SPLINE
  5
CD
330
76
100
AcDbEntity
  8
0
  6
Continuous
 62
     7
100
AcDbSpline
210
0.0
220
0.0
230
1.0
 70
  1064
 71
     3
 72
    14
 73
    10
 74
     8
 42
0.000000001
 43
0.0000000001
 44
0.00000001
 40
0.0
 40
0.0
 40
0.0
 40
0.0
 40
0.0027555399944157
 40
0.0086541903041499
 40
0.0155115717075704
 40
0.0210075583949462
 40
0.036107276475128
 40
0.0541058614210635
 40
0.0743367139443993
 40
0.0743367139443993
 40
0.0743367139443993
 40
0.0743367139443993
 10
-282.8840283470665
 20
-346.8979949037971
 30
0.0
 10
-282.8835698706632
 20
-346.8987990495106
 30
0.0
 10
-282.8821299381822
 20
-346.9013245816608
 30
0.0
 10
-282.8817765973005
 20
-346.9066213982348
 30
0.0
 10
-282.8809348880611
 20
-346.9126023039029
 30
0.0
 10
-282.8801662920661
 20
-346.9217373108677
 30
0.0
 10
-282.8792892512797
 20
-346.9345632923187
 30
0.0
 10
-282.8784548649991
 20
-346.9523253119117
 30
0.0
 10
-282.8780782918544
 20
-346.9650624302986
 30
0.0
 10
-282.8778790038523
 20
-346.9718028579036
 30
0.0
 11
-282.8840283470665
 21
-346.8979949037971
 31
0.0
 11
-282.8827789127654
 21
-346.9004508987441
 31
0.0
 11
-282.8817347910949
 21
-346.9062564029076
 31
0.0
 11
-282.8809410872595
 21
-346.9130676958862
 31
0.0
 11
-282.8804429064637
 21
-346.9185410572785
 31
0.0
 11
-282.8794038985788
 21
-346.9336049859334
 31
0.0
 11
-282.8785389114961
 21
-346.9515827738208
 31
0.0
 11
-282.8778790038523
 21
-346.9718028579036
 31
0.0
  0
SPLINE
  5
CE
330
76
100
AcDbEntity
  8
0
  6
Continuous
 62
     3
100
AcDbSpline
210
0.0
220
0.0
230
1.0
 70
  1064
 71
     3
 72
    23
 73
    19
 74
    17
 42
0.000000001
 43
0.0000000001
 44
0.00000001
 40
0.0
 40
0.0
 40
0.0
 40
0.0
 40
0.0843018839102733
 40
0.1624250490786699
 40
0.2343987053328509
 40
0.300251973374327
 40
0.3600138870865173
 40
0.4137133968650691
 40
0.4613793755955987
 40
0.5030406295171019
 40
0.5391644619279871
 40
0.5696302552353687
 40
0.5947246063288872
 40
0.6147341265943758
 40
0.6299454587336167
 40
0.6406453251609926
 40
0.6471207203696883
 40
0.6496605053340081
 40
0.6496605053340081
 40
0.6496605053340081
 40
0.6496605053340081
 10
-282.6313278980121
 20
-343.7742435545481
 30
0.0
 10
-282.6313904689761
 20
-343.7461429882673
 30
0.0
 10
-282.6315110391932
 20
-343.6920014241244
 30
0.0
 10
-282.6315069987367
 20
-343.6138684607143
 30
0.0
 10
-282.6313882804765
 20
-343.5418851697998
 30
0.0
 10
-282.6311708003799
 20
-343.4760225535471
 30
0.0
 10
-282.6308849471254
 20
-343.4162516541379
 30
0.0
 10
-282.6305577817498
 20
-343.3625435040477
 30
0.0
 10
-282.6302166040373
 20
-343.3148691359178
 30
0.0
 10
-282.6298887157826
 20
-343.2730534044512
 30
0.0
 10
-282.6295969829704
 20
-343.2369709393773
 30
0.0
 10
-282.6293313262292
 20
-343.2064108150727
 30
0.0
 10
-282.6290961309854
 20
-343.1812218863555
 30
0.0
 10
-282.6288733493902
 20
-343.1611183925824
 30
0.0
 10
-282.6286985475265
 20
-343.1458116274511
 30
0.0
 10
-282.6284802174511
 20
-343.1350198679281
 30
0.0
 10
-282.6284048578235
 20
-343.1284455850042
 30
0.0
 10
-282.6281943005063
 20
-343.1254475679854
 30
0.0
 10
-282.6281349878547
 20
-343.1246029567819
 30
0.0
 11
-282.6313278980121
 21
-343.7742435545481
 31
0.0
 11
-282.6314823820829
 21
-343.6899418126243
 31
0.0
 11
-282.6314852298059
 21
-343.6118186474919
 31
0.0
 11
-282.6313641995018
 21
-343.5398450929943
 31
0.0
 11
-282.6311470494911
 21
-343.4739921829752
 31
0.0
 11
-282.6308615380945
 21
-343.4142309512777
 31
0.0
 11
-282.6305354236329
 21
-343.3605324317457
 31
0.0
 11
-282.6301964644266
 21
-343.3128676582224
 31
0.0
 11
-282.6298724187964
 21
-343.2712076645513
 31
0.0
 11
-282.6295777553054
 21
-343.2350850339538
 31
0.0
 11
-282.6293121644728
 21
-343.2046203983398
 31
0.0
 11
-282.629072179201
 21
-343.1795271948071
 31
0.0
 11
-282.628854332393
 21
-343.1595188604532
 31
0.0
 11
-282.6286551569516
 21
-343.1443088323762
 31
0.0
 11
-282.6284711857795
 21
-343.1336105476734
 31
0.0
 11
-282.6282989517796
 21
-343.1271374434426
 31
0.0
 11
-282.6281349878547
 21
-343.1246029567819
 31
0.0
  0
SPLINE
  5
CF
330
76
100
AcDbEntity
  8
0
  6
Continuous
 62
     3
100
AcDbSpline
210
0.0
220
0.0
230
1.0
 70
  1064
 71
     3
 72
    15
 73
    11
 74
     9
 42
0.000000001
 43
0.0000000001
 44
0.00000001
 40
0.0
 40
0.0
 40
0.0
 40
0.0
 40
0.0104245542980544
 40
0.0208912577826075
 40
0.0314319561097036
 40
0.0420719547940617
 40
0.0528287403857473
 40
0.0637115274613983
 40
0.0747214893059558
 40
0.0858526078512643
 40
0.0858526078512643
 40
0.0858526078512643
 40
0.0858526078512643
 10
-282.5901157035643
 20
-343.699995641062
 30
0.0
 10
-282.5925283018005
 20
-343.702498853667
 30
0.0
 10
-282.5973632423527
 20
-343.7075154099807
 30
0.0
 10
-282.6038723778322
 20
-343.7157452151454
 30
0.0
 10
-282.6098392727677
 20
-343.7244528724244
 30
0.0
 10
-282.6152213840126
 20
-343.7336482393292
 30
0.0
 10
-282.6200489251092
 20
-343.7432722501466
 30
0.0
 10
-282.6243313451488
 20
-343.7532830298066
 30
0.0
 10
-282.6281365942783
 20
-343.7636197462402
 30
0.0
 10
-282.6302602611688
 20
-343.7706893885572
 30
0.0
 10
-282.6313278980121
 20
-343.7742435545481
 30
0.0
 11
-282.5901157035643
 21
-343.699995641062
 31
0.0
 11
-282.5972268477003
 21
-343.7076181723631
 31
0.0
 11
-282.6037603598793
 21
-343.715795282197
 31
0.0
 11
-282.6097155272719
 21
-343.7244925417207
 31
0.0
 11
-282.615101363314
 21
-343.7336687260594
 31
0.0
 11
-282.6199317537513
 21
-343.7432799579012
 31
0.0
 11
-282.6242284636467
 21
-343.7532786251567
 31
0.0
 11
-282.6280169129524
 21
-343.7636162706056
 31
0.0
 11
-282.6313278980121
 21
-343.7742435545481
 31
0.0
  0
SPLINE
  5
D0
330
76
100
AcDbEntity
  8
0
  6
Continuous
 62
     3
100
AcDbSpline
210
0.0
220
0.0
230
1.0
 70
  1064
 71
     3
 72
    11
 73
     7
 74
     5
 42
0.000000001
 43
0.0000000001
 44
0.00000001
 40
0.0
 40
0.0
 40
0.0
 40
0.0
 40
0.2875193891954257
 40
0.6262945526225709
 40
0.96788694827756
 40
1.349224640482511
 40
1.349224640482511
 40
1.349224640482511
 40
1.349224640482511
 10
-282.9812751526731
 20
-345.0761088800131
 30
0.0
 10
-282.9625131724379
 20
-344.9821154124074
 30
0.0
 10
-282.9216445183827
 20
-344.7773723653925
 30
0.0
 10
-282.8448376516508
 20
-344.4639076583616
 30
0.0
 10
-282.7478187855056
 20
-344.123456305448
 30
0.0
 10
-282.6715557959204
 20
-343.8948374767967
 30
0.0
 10
-282.6313278980121
 20
-343.7742435545481
 30
0.0
 11
-282.9812751526731
 21
-345.0761088800131
 31
0.0
 11
-282.9231280174227
 21
-344.7945306315983
 31
0.0
 11
-282.8430327682162
 21
-344.4653599119462
 31
0.0
 11
-282.7491730805541
 21
-344.1369155117367
 31
0.0
 11
-282.6313278980121
 21
-343.7742435545481
 31
0.0
  0
SPLINE
  5
D1
330
76
100
AcDbEntity
  8
0
  6
Continuous
 62
     3
100
AcDbSpline
210
0.0
220
0.0
230
1.0
 70
  1064
 71
     3
 72
    15
 73
    11
 74
     9
 42
0.000000001
 43
0.0000000001
 44
0.00000001
 40
0.0
 40
0.0
 40
0.0
 40
0.0
 40
0.0031949921477879
 40
0.0060319071625851
 40
0.0085138179837992
 40
0.0106456601800243
 40
0.0120302637245567
 40
0.0138867307020659
 40
0.015582204052433
 40
0.0158244145311668
 40
0.0158244145311668
 40
0.0158244145311668
 40
0.0158244145311668
 10
-282.5901157035643
 20
-346.9718026521445
 30
0.0
 10
-282.5911807009469
 20
-346.971802656412
 30
0.0
 10
-282.5931913366677
 20
-346.9718026621189
 30
0.0
 10
-282.5960292759957
 20
-346.9718026735986
 30
0.0
 10
-282.5985128320064
 20
-346.9718026929253
 30
0.0
 10
-282.6005122841934
 20
-346.9718027190206
 30
0.0
 10
-282.6023032550994
 20
-346.9718027519661
 30
0.0
 10
-282.6039487697228
 20
-346.9718027916485
 30
0.0
 10
-282.6052134866584
 20
-346.9718028315535
 30
0.0
 10
-282.6058593812671
 20
-346.9718028549294
 30
0.0
 10
-282.6059401180934
 20
-346.971802857899
 30
0.0
 11
-282.5901157035643
 21
-346.9718026521445
 31
0.0
 11
-282.5933106957125
 21
-346.9718026660746
 31
0.0
 11
-282.5961476107281
 21
-346.9718026833026
 31
0.0
 11
-282.5986295215499
 21
-346.9718027038929
 31
0.0
 11
-282.6007613637464
 21
-346.9718027278782
 31
0.0
 11
-282.6021459672907
 21
-346.9718027480037
 31
0.0
 11
-282.6040024342672
 21
-346.9718027861017
 31
0.0
 11
-282.6056979076151
 21
-346.9718028489243
 31
0.0
 11
-282.6059401180934
 21
-346.971802857899
 31
0.0
  0
SPLINE
  5
D2
330
76
100
AcDbEntity
  8
0
  6
Continuous
 62
     7
100
AcDbSpline
210
0.0
220
0.0
230
1.0
 70
  1064
 71
     3
 72
    22
 73
    18
 74
    16
 42
0.000000001
 43
0.0000000001
 44
0.00000001
 40
0.0
 40
0.0
 40
0.0
 40
0.0
 40
0.0248467290292346
 40
0.0503975951636581
 40
0.1783887217584665
 40
0.3151269900696066
 40
0.458288751100782
 40
0.6055417607649087
 40
0.7545483191676684
 40
0.9029671177476768
 40
0.9738544706794424
 40
1.032770831669677
 40
1.08018965121942
 40
1.116584338313537
 40
1.142428256384304
 40
1.158194718608101
 40
1.164356986178594
 40
1.164356986178594
 40
1.164356986178594
 40
1.164356986178594
 10
-282.9918416491312
 20
-345.0292860802342
 30
0.0
 10
-282.9907702173816
 20
-345.021073421443
 30
0.0
 10
-282.9885969698699
 20
-345.0044153661647
 30
0.0
 10
-282.9806210725965
 20
-344.9454896223231
 30
0.0
 10
-282.9666716542414
 20
-344.8497363534356
 30
0.0
 10
-282.9454004152119
 20
-344.71544450403
 30
0.0
 10
-282.9218026047091
 20
-344.5750275309534
 30
0.0
 10
-282.8964634805132
 20
-344.4307611522065
 30
0.0
 10
-282.8699846470723
 20
-344.2849186020132
 30
0.0
 10
-282.8474957570087
 20
-344.1642246853509
 30
0.0
 10
-282.8303032038227
 20
-344.0730913750851
 30
0.0
 10
-282.8192916092847
 20
-344.0150525522798
 30
0.0
 10
-282.8103659657202
 20
-343.9683206674812
 30
0.0
 10
-282.8034642257447
 20
-343.9324256804567
 30
0.0
 10
-282.7985226875508
 20
-343.9068978639879
 30
0.0
 10
-282.7954764403774
 20
-343.8912677275193
 30
0.0
 10
-282.7940714023939
 20
-343.8840944591004
 30
0.0
 10
-282.7936765739516
 20
-343.8820786731449
 30
0.0
 11
-282.9918416491312
 21
-345.0292860802342
 31
0.0
 11
-282.98860788204
 21
-345.0046506847137
 31
0.0
 11
-282.9851870263345
 21
-344.9793298509245
 31
0.0
 11
-282.9668386286508
 21
-344.8526607378175
 31
0.0
 11
-282.9455286334679
 21
-344.7175932062189
 31
0.0
 11
-282.9218578022609
 21
-344.5764019120569
 31
0.0
 11
-282.896426896505
 21
-344.4313615112598
 31
0.0
 11
-282.8698366776753
 21
-344.2847466597557
 31
0.0
 11
-282.842687907247
 21
-344.1388320134729
 31
0.0
 11
-282.8295502922425
 21
-344.0691727006119
 31
0.0
 11
-282.8185641199494
 21
-344.0112897013431
 31
0.0
 11
-282.8096657239333
 21
-343.9647132803599
 31
0.0
 11
-282.8027914377598
 21
-343.9289737023554
 31
0.0
 11
-282.7978775949945
 21
-343.9036012320225
 31
0.0
 11
-282.7948605292033
 21
-343.8881261340547
 31
0.0
 11
-282.7936765739516
 21
-343.8820786731449
 31
0.0
  0
ENDBLK
  5
78
330
76
100
AcDbEntity
  8
0
100
AcDbBlockEnd
  0
BLOCK
  5
7A
330
79
100
AcDbEntity
  8
0
100
AcDbBlockBegin
  2
HL531PrBlue-Träger-Designabdeckung__2
 70
     0
 10
-279.5901157035643
 20
-363.0043629916954
 30
0.0
  3
HL531PrBlue-Träger-Designabdeckung__2
  1

  0
LINE
  5
D3
330
79
100
AcDbEntity
  8
0
  6
Continuous
 62
     7
100
AcDbLine
 10
-257.0901157035643
 20
-363.0043629916954
 30
0.0
 11
-257.0901157035643
 21
-361.5043629916953
 31
0.0
  0
LINE
  5
D4
330
79
100
AcDbEntity
  8
0
  6
Continuous
 62
     7
100
AcDbLine
 10
-258.0901157035643
 20
-361.5043629916953
 30
0.0
 11
-257.0901157035643
 21
-361.5043629916953
 31
0.0
  0
LINE
  5
D5
330
79
100
AcDbEntity
  8
0
  6
Continuous
 62
     7
100
AcDbLine
 10
-258.0901157035643
 20
-363.0043629916954
 30
0.0
 11
-257.0901157035643
 21
-363.0043629916954
 31
0.0
  0
LINE
  5
D6
330
79
100
AcDbEntity
  8
0
  6
Continuous
 62
     3
100
AcDbLine
 10
-258.0901157035643
 20
-363.0043629916954
 30
0.0
 11
-258.0901157035643
 21
-361.5043629916953
 31
0.0
  0
LINE
  5
D7
330
79
100
AcDbEntity
  8
0
  6
Continuous
 62
     7
100
AcDbLine
 10
-258.0901157035643
 20
-361.5043629916953
 30
0.0
 11
-277.0901157035643
 21
-361.5043629916953
 31
0.0
  0
LINE
  5
D8
330
79
100
AcDbEntity
  8
0
  6
Continuous
 62
     7
100
AcDbLine
 10
-258.0901157035643
 20
-363.0043629916954
 30
0.0
 11
-277.0901157035643
 21
-363.0043629916954
 31
0.0
  0
LINE
  5
D9
330
79
100
AcDbEntity
  8
0
  6
Continuous
 62
     7
100
AcDbLine
 10
-258.0901157035643
 20
-307.0043629916961
 30
0.0
 11
-257.0901157035643
 21
-307.0043629916961
 31
0.0
  0
LINE
  5
DA
330
79
100
AcDbEntity
  8
0
  6
Continuous
 62
     7
100
AcDbLine
 10
-257.0901157035643
 20
-308.5043629916962
 30
0.0
 11
-258.0901157035643
 21
-308.5043629916962
 31
0.0
  0
LINE
  5
DB
330
79
100
AcDbEntity
  8
0
  6
Continuous
 62
     7
100
AcDbLine
 10
-257.0901157035643
 20
-308.5043629916962
 30
0.0
 11
-257.0901157035643
 21
-307.0043629916961
 31
0.0
  0
LINE
  5
DC
330
79
100
AcDbEntity
  8
0
  6
Continuous
 62
     7
100
AcDbLine
 10
-279.5901157035643
 20
-309.5043629916961
 30
0.0
 11
-279.5901157035643
 21
-360.5043629916954
 31
0.0
  0
LINE
  5
DD
330
79
100
AcDbEntity
  8
0
  6
Continuous
 62
     7
100
AcDbLine
 10
-278.0901157035643
 20
-360.5043629916953
 30
0.0
 11
-278.0901157035643
 21
-309.5043629916962
 31
0.0
  0
LINE
  5
DE
330
79
100
AcDbEntity
  8
0
  6
Continuous
 62
     7
100
AcDbLine
 10
-258.0901157035643
 20
-307.0043629916961
 30
0.0
 11
-277.0901157035643
 21
-307.0043629916961
 31
0.0
  0
LINE
  5
DF
330
79
100
AcDbEntity
  8
0
  6
Continuous
 62
     3
100
AcDbLine
 10
-258.0901157035643
 20
-308.5043629916962
 30
0.0
 11
-258.0901157035643
 21
-307.0043629916961
 31
0.0
  0
LINE
  5
E0
330
79
100
AcDbEntity
  8
0
  6
Continuous
 62
     7
100
AcDbLine
 10
-258.0901157035643
 20
-308.5043629916962
 30
0.0
 11
-277.0901157035643
 21
-308.5043629916962
 31
0.0
  0
ARC
  5
E1
330
79
100
AcDbEntity
  8
0
  6
Continuous
 62
     7
100
AcDbCircle
 10
-277.0901157035643
 20
-360.5043629916954
 30
0.0
 40
1.0
100
AcDbArc
 50
179.9999999999935
 51
270.0
  0
ARC
  5
E2
330
79
100
AcDbEntity
  8
0
  6
Continuous
 62
     7
100
AcDbCircle
 10
-277.0901157035643
 20
-309.5043629916962
 30
0.0
 40
2.500000000000114
100
AcDbArc
 50
90.0
 51
179.9999999999974
  0
ARC
  5
E3
330
79
100
AcDbEntity
  8
0
  6
Continuous
 62
     7
100
AcDbCircle
 10
-277.0901157035643
 20
-360.5043629916954
 30
0.0
 40
2.5
100
AcDbArc
 50
180.0
 51
270.0
  0
ARC
  5
E4
330
79
100
AcDbEntity
  8
0
  6
Continuous
 62
     7
100
AcDbCircle
 10
-277.0901157035643
 20
-309.5043629916962
 30
0.0
 40
1.0
100
AcDbArc
 50
90.0
 51
180.0
  0
ENDBLK
  5
7B
330
79
100
AcDbEntity
  8
0
100
AcDbBlockEnd
  0
BLOCK
  5
7D
330
7C
100
AcDbEntity
  8
0
100
AcDbBlockBegin
  2
HL531PrBlue-Abdeckung-Design__3
 70
     0
 10
-282.5901157035643
 20
-363.0043629916954
 30
0.0
  3
HL531PrBlue-Abdeckung-Design__3
  1

  0
LINE
  5
E5
330
7C
100
AcDbEntity
  8
0
  6
Continuous
 62
     7
100
AcDbLine
 10
-279.5901157035643
 20
-363.0043629916954
 30
0.0
 11
-282.5901157035643
 21
-363.0043629916954
 31
0.0
  0
LINE
  5
E6
330
7C
100
AcDbEntity
  8
0
  6
Continuous
 62
     7
100
AcDbLine
 10
-279.5901157035643
 20
-360.5043629916954
 30
0.0
 11
-279.5901157035643
 21
-363.0043629916954
 31
0.0
  0
LINE
  5
E7
330
7C
100
AcDbEntity
  8
0
  6
Continuous
 62
     7
100
AcDbLine
 10
-279.5901157035643
 20
-307.0043629916961
 30
0.0
 11
-279.5901157035642
 21
-309.4919430230397
 31
0.0
  0
LINE
  5
E8
330
7C
100
AcDbEntity
  8
0
  6
Continuous
 62
     7
100
AcDbLine
 10
-282.5901157035643
 20
-307.0043629916961
 30
0.0
 11
-279.5901157035643
 21
-307.0043629916961
 31
0.0
  0
LINE
  5
E9
330
7C
100
AcDbEntity
  8
0
  6
Continuous
 62
     7
100
AcDbLine
 10
-279.5901157035643
 20
-309.5043629916961
 30
0.0
 11
-279.5901157035643
 21
-360.5043629916954
 31
0.0
  0
LINE
  5
EA
330
7C
100
AcDbEntity
  8
0
  6
Continuous
 62
     7
100
AcDbLine
 10
-282.5901157035643
 20
-363.0043629916954
 30
0.0
 11
-282.5901157035643
 21
-307.0043629916961
 31
0.0
  0
LINE
  5
EB
330
7C
100
AcDbEntity
  8
0
  6
Continuous
 62
     7
100
AcDbLine
 10
-279.5901157035642
 20
-309.4919430230397
 30
0.0
 11
-279.5901157035643
 21
-309.5043629916961
 31
0.0
  0
ENDBLK
  5
7E
330
7C
100
AcDbEntity
  8
0
100
AcDbBlockEnd
  0
BLOCK
  5
83
330
7F
100
AcDbEntity
  8
0
100
AcDbBlockBegin
  2
HL531PrBlue-Designabdeckung-WEB-Zeichnung__4
 70
     0
 10
-283.0901157035642
 20
-363.0043629916954
 30
0.0
  3
HL531PrBlue-Designabdeckung-WEB-Zeichnung__4
  1

  0
INSERT
  5
80
330
7F
100
AcDbEntity
  8
0
100
AcDbBlockReference
  2
Emblem-HL-8x23-V02_1__1
 10
-283.0901157035642
 20
-350.8965066528199
 30
0.0
  0
INSERT
  5
81
330
7F
100
AcDbEntity
  8
0
100
AcDbBlockReference
  2
HL531PrBlue-Träger-Designabdeckung__2
 10
-279.5901157035643
 20
-363.0043629916954
 30
0.0
  0
INSERT
  5
82
330
7F
100
AcDbEntity
  8
0
100
AcDbBlockReference
  2
HL531PrBlue-Abdeckung-Design__3
 10
-282.5901157035643
 20
-363.0043629916954
 30
0.0
  0
ENDBLK
  5
84
330
7F
100
AcDbEntity
  8
0
100
AcDbBlockEnd
  0
BLOCK
  5
87
330
85
100
AcDbEntity
  8
0
100
AcDbBlockBegin
  2
SA_Rechts2
 70
     0
 10
-269.9349650000003
 20
-335.0000000000005
 30
0.0
  3
SA_Rechts2
  1

  0
INSERT
  5
86
330
85
100
AcDbEntity
  8
0
100
AcDbBlockReference
  2
HL531PrBlue-Designabdeckung-WEB-Zeichnung__4
 10
-283.0901157035642
 20
-363.0043629916954
 30
0.0
  0
MTEXT
  5
ED
330
85
100
AcDbEntity
  8
1
 62
     1
100
AcDbMText
 10
-270.1351046183916
 20
-368.4289970500613
 30
0.0
 40
3.5
 41
0.0
 71
     2
 72
     1
  1
 
  7
CONVERTER_11
 73
     1
 44
1.32052821128451
  0
DIMENSION
  5
FA
330
85
100
AcDbEntity
  8
1
100
AcDbDimension
  2
*D11
 10
-282.5901157035643
 20
-292.0326294244553
 30
0.0
 11
-250.7458921701301
 21
-279.5326294244553
 31
0.0
 70
    32
  1
<>
 71
     5
 42
-1.0
 53
0.00013888888889
  3
ME10_DIM_10
100
AcDbAlignedDimension
 13
-279.5901157035643
 23
-307.0043629916961
 33
0.0
 14
-282.5901157035643
 24
-307.0043629916961
 34
0.0
100
AcDbRotatedDimension
  0
DIMENSION
  5
105
330
85
100
AcDbEntity
  8
1
100
AcDbDimension
  2
*D12
 10
-312.8634552533251
 20
-363.0043629916954
 30
0.0
 11
-325.3634552533251
 21
-334.2842849068642
 31
0.0
 70
    32
  1
<>
 71
     5
 42
-1.0
 53
90.0
  3
ME10_DIM_11
100
AcDbAlignedDimension
 13
-282.5901157035643
 23
-307.0043629916961
 33
0.0
 14
-282.5901157035643
 24
-363.0043629916954
 34
0.0
 50
90.0
100
AcDbRotatedDimension
  0
DIMENSION
  5
112
330
85
100
AcDbEntity
  8
1
100
AcDbDimension
  2
*D13
 10
-282.5901157035643
 20
-392.1100875288652
 30
0.0
 11
-220.2649643252011
 21
-378.8600875288652
 31
0.0
 70
    32
  1
<>
 71
     5
 42
-1.0
 53
0.00013888888889
  3
ME10_DIM_12
100
AcDbAlignedDimension
 13
-257.0901157035643
 23
-363.0043629916954
 33
0.0
 14
-282.5901157035643
 24
-363.0043629916954
 34
0.0
100
AcDbRotatedDimension
  0
ENDBLK
  5
88
330
85
100
AcDbEntity
  8
0
100
AcDbBlockEnd
  0
BLOCK
  5
8A
330
89
100
AcDbEntity
  8
0
100
AcDbBlockBegin
  2
HL531PrBlue-Träger-Designabdeckung__5
 70
     0
 10
-177.0000006057963
 20
-363.004362991695
 30
0.0
  3
HL531PrBlue-Träger-Designabdeckung__5
  1

  0
LINE
  5
113
330
89
100
AcDbEntity
  8
0
  6
Continuous
 62
     7
100
AcDbLine
 10
308.9999993942037
 20
-363.004362991695
 30
0.0
 11
-177.0000006057963
 21
-363.004362991695
 31
0.0
  0
LINE
  5
114
330
89
100
AcDbEntity
  8
0
  6
Continuous
 62
     7
100
AcDbLine
 10
308.9999993942037
 20
-360.504362991695
 30
0.0
 11
308.9999993942037
 21
-309.5043629916958
 31
0.0
  0
LINE
  5
115
330
89
100
AcDbEntity
  8
0
  6
Continuous
 62
     7
100
AcDbLine
 10
308.9999993942037
 20
-363.004362991695
 30
0.0
 11
308.9999993942037
 21
-360.504362991695
 31
0.0
  0
LINE
  5
116
330
89
100
AcDbEntity
  8
0
  6
Continuous
 62
     7
100
AcDbLine
 10
308.9999993942037
 20
-309.5043629916958
 30
0.0
 11
308.9999993942037
 21
-307.0043629916958
 31
0.0
  0
LINE
  5
117
330
89
100
AcDbEntity
  8
0
  6
Continuous
 62
     7
100
AcDbLine
 10
308.9999993942037
 20
-307.0043629916958
 30
0.0
 11
-177.0000006057963
 21
-307.0043629916958
 31
0.0
  0
LINE
  5
118
330
89
100
AcDbEntity
  8
0
  6
Continuous
 62
     7
100
AcDbLine
 10
-177.0000006057963
 20
-309.5043629916958
 30
0.0
 11
-177.0000006057963
 21
-307.0043629916958
 31
0.0
  0
LINE
  5
119
330
89
100
AcDbEntity
  8
0
  6
Continuous
 62
     7
100
AcDbLine
 10
-177.0000006057963
 20
-360.504362991695
 30
0.0
 11
-177.0000006057963
 21
-309.5043629916958
 31
0.0
  0
LINE
  5
11A
330
89
100
AcDbEntity
  8
0
  6
Continuous
 62
     7
100
AcDbLine
 10
-177.0000006057963
 20
-363.004362991695
 30
0.0
 11
-177.0000006057963
 21
-360.504362991695
 31
0.0
  0
ENDBLK
  5
8B
330
89
100
AcDbEntity
  8
0
100
AcDbBlockEnd
  0
BLOCK
  5
8D
330
8C
100
AcDbEntity
  8
0
100
AcDbBlockBegin
  2
Emblem-HL-8x23-V02_1__6
 70
     0
 10
274.4999994163288
 20
-350.9718028579032
 30
0.0
  3
Emblem-HL-8x23-V02_1__6
  1

  0
LINE
  5
11B
330
8C
100
AcDbEntity
  8
0
  6
Continuous
 62
     7
100
AcDbLine
 10
289.4583265695487
 20
-349.3980162277616
 30
0.0
 11
287.0883265697381
 21
-349.3980162277616
 31
0.0
  0
LINE
  5
11C
330
8C
100
AcDbEntity
  8
0
  6
Continuous
 62
     7
100
AcDbLine
 10
291.7733468896508
 20
-347.0979949037966
 30
0.0
 11
291.6000017242104
 21
-347.0979949037967
 31
0.0
  0
LINE
  5
11D
330
8C
100
AcDbEntity
  8
0
  6
Continuous
 62
     7
100
AcDbLine
 10
293.4000017251473
 20
-346.8979949037966
 30
0.0
 11
291.7670678093218
 21
-346.8979949037966
 31
0.0
  0
LINE
  5
11E
330
8C
100
AcDbEntity
  8
0
  6
Continuous
 62
     7
100
AcDbLine
 10
293.4000017241249
 20
-347.0979949038066
 30
0.0
 11
291.7733468896508
 21
-347.0979949037966
 31
0.0
  0
LINE
  5
11F
330
8C
100
AcDbEntity
  8
0
  6
Continuous
 62
     7
100
AcDbLine
 10
287.5583265695308
 20
-348.578016227757
 30
0.0
 11
289.4583265695469
 21
-348.5780162277616
 31
0.0
  0
LINE
  5
120
330
8C
100
AcDbEntity
  8
0
  6
Continuous
 62
     7
100
AcDbLine
 10
287.5583265695469
 20
-346.9718028579031
 30
0.0
 11
287.5583265695308
 21
-348.578016227757
 31
0.0
  0
LINE
  5
121
330
8C
100
AcDbEntity
  8
0
  6
Continuous
 62
     7
100
AcDbLine
 10
291.7670678093218
 20
-346.8979949037966
 30
0.0
 11
291.600001724211
 21
-346.8979949037966
 31
0.0
  0
LINE
  5
122
330
8C
100
AcDbEntity
  8
0
  6
Continuous
 62
     7
100
AcDbLine
 10
285.6808771381138
 20
-346.9718028579031
 30
0.0
 11
285.6808771381138
 21
-348.9480162277623
 31
0.0
  0
LINE
  5
123
330
8C
100
AcDbEntity
  8
0
  6
Continuous
 62
     7
100
AcDbLine
 10
280.2329310233359
 20
-346.8979949037966
 30
0.0
 11
280.4000017251495
 21
-346.8979949037567
 31
0.0
  0
LINE
  5
124
330
8C
100
AcDbEntity
  8
0
  6
Continuous
 62
     7
100
AcDbLine
 10
285.230877138114
 20
-349.3980162277616
 30
0.0
 11
285.2108771383028
 21
-349.3980162277616
 31
0.0
  0
LINE
  5
125
330
8C
100
AcDbEntity
  8
0
  6
Continuous
 62
     7
100
AcDbLine
 10
287.1083265693222
 20
-344.5980162277616
 30
0.0
 11
287.0883265695469
 21
-344.5980162277616
 31
0.0
  0
LINE
  5
126
330
8C
100
AcDbEntity
  8
0
  6
Continuous
 62
     7
100
AcDbLine
 10
289.8583265695468
 20
-348.9780162277616
 30
0.0
 11
289.8583265695468
 21
-348.9980162277616
 31
0.0
  0
LINE
  5
127
330
8C
100
AcDbEntity
  8
0
  6
Continuous
 62
     7
100
AcDbLine
 10
287.5583265695469
 20
-346.9718028579031
 30
0.0
 11
287.5583265695401
 21
-345.0480162277734
 31
0.0
  0
LINE
  5
128
330
8C
100
AcDbEntity
  8
0
  6
Continuous
 62
     7
100
AcDbLine
 10
284.7608771381139
 20
-348.9480162277615
 30
0.0
 11
284.7608771381139
 21
-347.3480162277616
 31
0.0
  0
LINE
  5
129
330
8C
100
AcDbEntity
  8
0
  6
Continuous
 62
     7
100
AcDbLine
 10
282.7937272764344
 20
-347.3480162277614
 30
0.0
 11
282.7937272764353
 21
-348.9489322628079
 31
0.0
  0
LINE
  5
12A
330
8C
100
AcDbEntity
  8
0
  6
Continuous
 62
     7
100
AcDbLine
 10
284.7608771381139
 20
-347.3480162277616
 30
0.0
 11
282.7937272764344
 21
-347.3480162277614
 31
0.0
  0
LINE
  5
12B
330
8C
100
AcDbEntity
  8
0
  6
Continuous
 62
     7
100
AcDbLine
 10
281.8737272764354
 20
-345.0685691476734
 30
0.0
 11
281.8737272764354
 21
-345.0480162277609
 31
0.0
  0
LINE
  5
12C
330
8C
100
AcDbEntity
  8
0
  6
Continuous
 62
     7
100
AcDbLine
 10
281.8737272764354
 20
-348.9188927522001
 30
0.0
 11
281.8737272764354
 21
-346.9718028579031
 31
0.0
  0
LINE
  5
12D
330
8C
100
AcDbEntity
  8
0
  6
Continuous
 62
     7
100
AcDbLine
 10
285.2108771380838
 20
-344.5980162277616
 30
0.0
 11
285.2308771381139
 21
-344.5980162277616
 31
0.0
  0
LINE
  5
12E
330
8C
100
AcDbEntity
  8
0
  6
Continuous
 62
     7
100
AcDbLine
 10
282.7937272764353
 20
-346.6480162277613
 30
0.0
 11
284.7608771381139
 21
-346.6480162277616
 31
0.0
  0
LINE
  5
12F
330
8C
100
AcDbEntity
  8
0
  6
Continuous
 62
     7
100
AcDbLine
 10
282.3237272764353
 20
-344.5980162277616
 30
0.0
 11
282.3437272762455
 21
-344.5980162277617
 31
0.0
  0
LINE
  5
130
330
8C
100
AcDbEntity
  8
0
  6
Continuous
 62
     7
100
AcDbLine
 10
282.7937272764368
 20
-345.0480162277622
 30
0.0
 11
282.7937272764353
 21
-346.6480162277613
 31
0.0
  0
LINE
  5
131
330
8C
100
AcDbEntity
  8
0
  6
Continuous
 62
     7
100
AcDbLine
 10
280.4000017242113
 20
-347.0979949037966
 30
0.0
 11
280.228406554672
 21
-347.0979949037966
 31
0.0
  0
LINE
  5
132
330
8C
100
AcDbEntity
  8
0
  6
Continuous
 62
     7
100
AcDbLine
 10
285.6808771381138
 20
-345.0480162278257
 30
0.0
 11
285.6808771381138
 21
-346.9718028579031
 31
0.0
  0
LINE
  5
133
330
8C
100
AcDbEntity
  8
0
  6
Continuous
 62
     7
100
AcDbLine
 10
284.7608771381139
 20
-346.6480162277616
 30
0.0
 11
284.7608771381422
 21
-345.0480162277018
 31
0.0
  0
LINE
  5
134
330
8C
100
AcDbEntity
  8
0
  6
Continuous
 62
     7
100
AcDbLine
 10
286.6383265695469
 20
-348.9480162277616
 30
0.0
 11
286.6383265695469
 21
-346.9718028579031
 31
0.0
  0
LINE
  5
135
330
8C
100
AcDbEntity
  8
0
  6
Continuous
 62
     7
100
AcDbLine
 10
286.6383265695469
 20
-345.0480162278236
 30
0.0
 11
286.6383265695469
 21
-346.9718028579031
 31
0.0
  0
LINE
  5
136
330
8C
100
AcDbEntity
  8
0
  6
Continuous
 62
     7
100
AcDbLine
 10
280.228406554672
 20
-347.0979949037966
 30
0.0
 11
278.6000017242103
 21
-347.0979949037966
 31
0.0
  0
LINE
  5
137
330
8C
100
AcDbEntity
  8
0
  6
Continuous
 62
     7
100
AcDbLine
 10
281.8737272764354
 20
-348.9480162277623
 30
0.0
 11
281.8737272764354
 21
-348.9188927522001
 31
0.0
  0
LINE
  5
138
330
8C
100
AcDbEntity
  8
0
  6
Continuous
 62
     7
100
AcDbLine
 10
278.6000017242392
 20
-346.8979949037681
 30
0.0
 11
280.2329310233359
 21
-346.8979949037966
 31
0.0
  0
LINE
  5
139
330
8C
100
AcDbEntity
  8
0
  6
Continuous
 62
     7
100
AcDbLine
 10
282.3437272764353
 20
-349.3980162277616
 30
0.0
 11
282.3237272766239
 21
-349.3980162277616
 31
0.0
  0
LINE
  5
13A
330
8C
100
AcDbEntity
  8
0
  6
Continuous
 62
     7
100
AcDbLine
 10
281.8737272764354
 20
-346.9718028579031
 30
0.0
 11
281.8737272764354
 21
-345.0685691476734
 31
0.0
  0
ARC
  5
13B
330
8C
100
AcDbEntity
  8
0
  6
Continuous
 62
     7
100
AcDbCircle
 10
289.4583265695469
 20
-348.9980162277616
 30
0.0
 40
0.4000000000000341
100
AcDbArc
 50
270.0000000002606
 51
0.0
  0
ARC
  5
13C
330
8C
100
AcDbEntity
  8
0
  6
Continuous
 62
     7
100
AcDbCircle
 10
285.2308771381139
 20
-348.9480162277616
 30
0.0
 40
0.4499999999999886
100
AcDbArc
 50
270.0000000000145
 51
353.5944083271149
  0
ARC
  5
13D
330
8C
100
AcDbEntity
  8
0
  6
Continuous
 62
     7
100
AcDbCircle
 10
293.4000017242111
 20
-346.9979949037966
 30
0.0
 40
0.1000000000000187
100
AcDbArc
 50
15.18404594846348
 51
89.99999946359054
  0
ARC
  5
13E
330
8C
100
AcDbEntity
  8
0
  6
Continuous
 62
     7
100
AcDbCircle
 10
293.4000017242073
 20
-346.9979949038016
 30
0.0
 40
0.1000000000049681
100
AcDbArc
 50
269.9999999527751
 51
15.18404595065795
  0
ARC
  5
13F
330
8C
100
AcDbEntity
  8
0
  6
Continuous
 62
     7
100
AcDbCircle
 10
291.6000017242111
 20
-346.9979949037966
 30
0.0
 40
0.1000000000000336
100
AcDbArc
 50
164.8159540515051
 51
269.9999999996092
  0
ARC
  5
140
330
8C
100
AcDbEntity
  8
0
  6
Continuous
 62
     7
100
AcDbCircle
 10
289.4583265695469
 20
-348.9780162277615
 30
0.0
 40
0.3999999999999382
100
AcDbArc
 50
13.79504603573162
 51
90.0
  0
ARC
  5
141
330
8C
100
AcDbEntity
  8
0
  6
Continuous
 62
     7
100
AcDbCircle
 10
287.0883265695469
 20
-345.0480162277616
 30
0.0
 40
0.4500000000000492
100
AcDbArc
 50
168.3508774436169
 51
180.0000000078962
  0
ARC
  5
142
330
8C
100
AcDbEntity
  8
0
  6
Continuous
 62
     7
100
AcDbCircle
 10
291.6000017242111
 20
-346.9979949037966
 30
0.0
 40
0.1000000000000227
100
AcDbArc
 50
90.00000000006513
 51
164.8159540515051
  0
ARC
  5
143
330
8C
100
AcDbEntity
  8
0
  6
Continuous
 62
     7
100
AcDbCircle
 10
280.400001724185
 20
-346.9979949037768
 30
0.0
 40
0.1000000000200327
100
AcDbArc
 50
15.18404593364114
 51
89.99999944740381
  0
ARC
  5
144
330
8C
100
AcDbEntity
  8
0
  6
Continuous
 62
     7
100
AcDbCircle
 10
285.2108771381139
 20
-348.9480162277616
 30
0.0
 40
0.4500000000000515
100
AcDbArc
 50
187.5556624558618
 51
270.0000000240503
  0
ARC
  5
145
330
8C
100
AcDbEntity
  8
0
  6
Continuous
 62
     7
100
AcDbCircle
 10
285.2108771381139
 20
-348.9480162277616
 30
0.0
 40
0.4499999999999886
100
AcDbArc
 50
179.9999999999855
 51
187.5556624558618
  0
ARC
  5
146
330
8C
100
AcDbEntity
  8
0
  6
Continuous
 62
     7
100
AcDbCircle
 10
287.1083265695469
 20
-345.0480162277616
 30
0.0
 40
0.4500000000000605
100
AcDbArc
 50
8.87184195628482
 51
90.00000002860996
  0
ARC
  5
147
330
8C
100
AcDbEntity
  8
0
  6
Continuous
 62
     7
100
AcDbCircle
 10
287.0883265695469
 20
-345.0480162277616
 30
0.0
 40
0.4499999999999886
100
AcDbArc
 50
90.0
 51
168.3508774436169
  0
ARC
  5
148
330
8C
100
AcDbEntity
  8
0
  6
Continuous
 62
     7
100
AcDbCircle
 10
289.4583265695469
 20
-348.9780162277615
 30
0.0
 40
0.3999999999999204
100
AcDbArc
 50
359.9999999999837
 51
13.79504603573162
  0
ARC
  5
149
330
8C
100
AcDbEntity
  8
0
  6
Continuous
 62
     7
100
AcDbCircle
 10
285.2308771381139
 20
-348.9480162277616
 30
0.0
 40
0.4499999999999864
100
AcDbArc
 50
353.5944083271149
 51
359.9999999999131
  0
ARC
  5
14A
330
8C
100
AcDbEntity
  8
0
  6
Continuous
 62
     7
100
AcDbCircle
 10
282.3237272764353
 20
-345.0480162277616
 30
0.0
 40
0.4499999999999886
100
AcDbArc
 50
90.0
 51
179.9999999999131
  0
ARC
  5
14B
330
8C
100
AcDbEntity
  8
0
  6
Continuous
 62
     7
100
AcDbCircle
 10
285.2308771381139
 20
-345.0480162277616
 30
0.0
 40
0.4499999999999981
100
AcDbArc
 50
11.90652432305313
 51
90.0
  0
ARC
  5
14C
330
8C
100
AcDbEntity
  8
0
  6
Continuous
 62
     7
100
AcDbCircle
 10
282.343727276436
 20
-345.0480162278602
 30
0.0
 40
0.4500000000007844
100
AcDbArc
 50
0.0000000124775
 51
0.83169804877853
  0
ARC
  5
14D
330
8C
100
AcDbEntity
  8
0
  6
Continuous
 62
     7
100
AcDbCircle
 10
282.3437272764353
 20
-345.0480162277616
 30
0.0
 40
0.4500000000000928
100
AcDbArc
 50
0.83169803622137
 51
90.00000002416611
  0
ARC
  5
14E
330
8C
100
AcDbEntity
  8
0
  6
Continuous
 62
     7
100
AcDbCircle
 10
280.4000017242111
 20
-346.9979949037966
 30
0.0
 40
0.0999999999999659
100
AcDbArc
 50
270.0000000000977
 51
15.18404594849492
  0
ARC
  5
14F
330
8C
100
AcDbEntity
  8
0
  6
Continuous
 62
     7
100
AcDbCircle
 10
285.2308771381139
 20
-345.0480162277616
 30
0.0
 40
0.4499999999998749
100
AcDbArc
 50
359.999999991836
 51
11.90652432305313
  0
ARC
  5
150
330
8C
100
AcDbEntity
  8
0
  6
Continuous
 62
     7
100
AcDbCircle
 10
285.2108771381281
 20
-345.0480162276023
 30
0.0
 40
0.4499999999859353
100
AcDbArc
 50
169.832252746689
 51
180.0000000126657
  0
ARC
  5
151
330
8C
100
AcDbEntity
  8
0
  6
Continuous
 62
     7
100
AcDbCircle
 10
285.2108771381139
 20
-345.0480162277616
 30
0.0
 40
0.4499999999999886
100
AcDbArc
 50
90.0000000038359
 51
169.8322527264085
  0
ARC
  5
152
330
8C
100
AcDbEntity
  8
0
  6
Continuous
 62
     7
100
AcDbCircle
 10
287.0883265695469
 20
-348.9480162277616
 30
0.0
 40
0.4499999999999886
100
AcDbArc
 50
180.0
 51
184.9104090339933
  0
ARC
  5
153
330
8C
100
AcDbEntity
  8
0
  6
Continuous
 62
     7
100
AcDbCircle
 10
287.1083265695435
 20
-345.0480162277179
 30
0.0
 40
0.449999999996578
100
AcDbArc
 50
359.999999992929
 51
8.87184195071989
  0
ARC
  5
154
330
8C
100
AcDbEntity
  8
0
  6
Continuous
 62
     7
100
AcDbCircle
 10
287.0883265695469
 20
-348.9480162277616
 30
0.0
 40
0.4499999999999854
100
AcDbArc
 50
184.9104090339933
 51
270.0000000243471
  0
ARC
  5
155
330
8C
100
AcDbEntity
  8
0
  6
Continuous
 62
     7
100
AcDbCircle
 10
282.3437277435629
 20
-348.9480157615844
 30
0.0
 40
0.4500004661774861
100
AcDbArc
 50
269.9999405235258
 51
359.8833074801561
  0
ARC
  5
156
330
8C
100
AcDbEntity
  8
0
  6
Continuous
 62
     7
100
AcDbCircle
 10
278.6000017242111
 20
-346.9979949037966
 30
0.0
 40
0.1000000000000187
100
AcDbArc
 50
164.8159540515365
 51
269.9999999995441
  0
ARC
  5
157
330
8C
100
AcDbEntity
  8
0
  6
Continuous
 62
     7
100
AcDbCircle
 10
282.3237272764353
 20
-348.9480162277616
 30
0.0
 40
0.4499999999999318
100
AcDbArc
 50
180.0000000000869
 51
270.0000000240141
  0
ARC
  5
158
330
8C
100
AcDbEntity
  8
0
  6
Continuous
 62
     7
100
AcDbCircle
 10
278.6000017242297
 20
-346.9979949037823
 30
0.0
 40
0.1000000000141767
100
AcDbArc
 50
89.999999994561
 51
164.8159540622468
  0
SPLINE
  5
159
330
8C
100
AcDbEntity
  8
0
  6
Continuous
 62
     7
100
AcDbSpline
210
0.0
220
0.0
230
1.0
 70
  1064
 71
     3
 72
    11
 73
     7
 74
     5
 42
0.000000001
 43
0.0000000001
 44
0.00000001
 40
0.0
 40
0.0
 40
0.0
 40
0.0
 40
1.313432228030501
 40
3.127262520977363
 40
4.994840378685849
 40
6.285839021122805
 40
6.285839021122805
 40
6.285839021122805
 40
6.285839021122805
 10
292.2391773379596
 20
-350.1693621614512
 30
0.0
 10
291.8109252561486
 20
-350.2609223121907
 30
0.0
 10
290.7912634413333
 20
-350.4789256472295
 30
0.0
 10
289.1380835825922
 20
-350.6928330322546
 30
0.0
 10
287.4833108550378
 20
-350.8048864715668
 30
0.0
 10
286.4303670340908
 20
-350.8149044155277
 30
0.0
 10
285.9999994163289
 20
-350.8189990226486
 30
0.0
 11
292.2391773379596
 21
-350.1693621614512
 31
0.0
 11
290.951706058656
 21
-350.4292119711154
 31
0.0
 11
289.1542520645185
 21
-350.6723980592694
 31
0.0
 11
287.2908019529399
 21
-350.7964977715553
 31
0.0
 11
285.9999994163289
 21
-350.8189990226486
 31
0.0
  0
SPLINE
  5
15A
330
8C
100
AcDbEntity
  8
0
  6
Continuous
 62
     7
100
AcDbSpline
210
0.0
220
0.0
230
1.0
 70
  1064
 71
     3
 72
    19
 73
    15
 74
    13
 42
0.000000001
 43
0.0000000001
 44
0.00000001
 40
0.0
 40
0.0
 40
0.0
 40
0.0
 40
0.3581224940744055
 40
0.9245884711326504
 40
1.659481942381561
 40
2.486907856610498
 40
3.246505446088052
 40
4.02815388550524
 40
4.815760071211765
 40
5.023891940563189
 40
5.359689038507858
 40
5.754853641900003
 40
6.140437244304731
 40
6.340209778169588
 40
6.340209778169588
 40
6.340209778169588
 40
6.340209778169588
 10
292.2391773379596
 20
-350.1693621614512
 30
0.0
 10
292.3553487449896
 20
-350.1418889466967
 30
0.0
 10
292.655276132051
 20
-350.0709595388236
 30
0.0
 10
293.1904934476028
 20
-349.9308723640085
 30
0.0
 10
293.8715198428449
 20
-349.7312953855544
 30
0.0
 10
294.6071202475132
 20
-349.4895762945052
 30
0.0
 10
295.3374849984796
 20
-349.1863312267823
 30
0.0
 10
296.0138863941195
 20
-348.7998846458648
 30
0.0
 10
296.4750522511548
 20
-348.4220830542701
 30
0.0
 10
296.7829024217107
 20
-348.1022723753491
 30
0.0
 10
296.982561602926
 20
-347.8601553340327
 30
0.0
 10
297.1808628488263
 20
-347.5445798992537
 30
0.0
 10
297.3008213613561
 20
-347.2337934285537
 30
0.0
 10
297.3128044281938
 20
-347.0384652057169
 30
0.0
 10
297.316894050382
 20
-346.9718028578986
 30
0.0
 11
292.2391773379596
 21
-350.1693621614512
 31
0.0
 11
292.5874322381297
 21
-350.085874208685
 31
0.0
 11
293.1355291120427
 21
-349.942788499327
 31
0.0
 11
293.8408438764189
 21
-349.7363920431691
 31
0.0
 11
294.6249575102815
 21
-349.4721961833991
 31
0.0
 11
295.323984820157
 21
-349.1749600521774
 31
0.0
 11
296.0000937568661
 21
-348.7827216190925
 31
0.0
 11
296.6077967917104
 21
-348.281702133322
 31
0.0
 11
296.7519056810514
 21
-348.1315305547223
 31
0.0
 11
296.9645394802076
 21
-347.8716333476127
 31
0.0
 11
297.1715118912957
 21
-347.5350067234999
 31
0.0
 11
297.2976797575442
 21
-347.1706492304219
 31
0.0
 11
297.316894050382
 21
-346.9718028578986
 31
0.0
  0
SPLINE
  5
15B
330
8C
100
AcDbEntity
  8
0
  6
Continuous
 62
     7
100
AcDbSpline
210
0.0
220
0.0
230
1.0
 70
  1064
 71
     3
 72
    19
 73
    15
 74
    13
 42
0.000000001
 43
0.0000000001
 44
0.00000001
 40
0.0
 40
0.0
 40
0.0
 40
0.0
 40
0.3581814284058173
 40
0.9247452241332652
 40
1.659764325077856
 40
2.487175006134311
 40
3.247042514218077
 40
4.02794372862166
 40
4.816413288064496
 40
5.025122016175141
 40
5.360836031835131
 40
5.755597461784039
 40
6.140715317189734
 40
6.340210653622012
 40
6.340210653622012
 40
6.340210653622012
 40
6.340210653622012
 10
292.2391773377558
 20
-343.7742435545477
 30
0.0
 10
292.3553678454253
 20
-343.801721370449
 30
0.0
 10
292.6553460375269
 20
-343.8726630101676
 30
0.0
 10
293.1906536774072
 20
-344.0127768752815
 30
0.0
 10
293.8717451221333
 20
-344.2123793542724
 30
0.0
 10
294.6074613488278
 20
-344.4541506129185
 30
0.0
 10
295.3376631876138
 20
-344.7573679545255
 30
0.0
 10
296.0141522651467
 20
-345.1439048783893
 30
0.0
 10
296.4754964518804
 20
-345.5218717224755
 30
0.0
 10
296.7835751788669
 20
-345.8420915277027
 30
0.0
 10
296.9831730207037
 20
-346.0842989413816
 30
0.0
 10
297.1811680669152
 20
-346.3996944575757
 30
0.0
 10
297.3008687879359
 20
-346.7101526482084
 30
0.0
 10
297.3128168559245
 20
-346.9052329953492
 30
0.0
 10
297.316894050382
 20
-346.9718028578986
 30
0.0
 11
292.2391773377558
 21
-343.7742435545477
 31
0.0
 11
292.5874894423895
 21
-343.8577456886929
 31
0.0
 11
293.135680267245
 21
-344.000858771339
 31
0.0
 11
293.8411135551693
 21
-344.2072975150841
 31
0.0
 11
294.6252077135312
 21
-344.4715034679701
 31
0.0
 11
295.3244677101525
 21
-344.7688821603505
 31
0.0
 11
295.9999196156622
 21
-345.1607640683843
 31
0.0
 11
296.6082623727126
 21
-345.662364841938
 31
0.0
 11
296.7527305163994
 21
-345.8129911630627
 31
0.0
 11
296.9652173756712
 21
-346.072901214361
 31
0.0
 11
297.1718378618346
 21
-346.4092708927103
 31
0.0
 11
297.2977333679411
 21
-346.7732297954485
 31
0.0
 11
297.316894050382
 21
-346.9718028578986
 31
0.0
  0
SPLINE
  5
15C
330
8C
100
AcDbEntity
  8
0
  6
Continuous
 62
     7
100
AcDbSpline
210
0.0
220
0.0
230
1.0
 70
  1064
 71
     3
 72
    11
 73
     7
 74
     5
 42
0.000000001
 43
0.0000000001
 44
0.00000001
 40
0.0
 40
0.0
 40
0.0
 40
0.0
 40
1.323844237914215
 40
3.124425485065975
 40
5.014214219586147
 40
6.281600215213142
 40
6.281600215213142
 40
6.281600215213142
 40
6.281600215213142
 10
279.7655544579935
 20
-350.1654242418731
 30
0.0
 10
280.1971630267012
 20
-350.2578975476809
 30
0.0
 10
281.2158091614424
 20
-350.4761452261192
 30
0.0
 10
282.8751570612513
 20
-350.6922663389172
 30
0.0
 10
284.5250171045057
 20
-350.8056271395826
 30
0.0
 10
285.5775005419481
 20
-350.8151687406623
 30
0.0
 10
285.9999994163289
 20
-350.8189990226486
 30
0.0
 11
279.7655544579935
 21
-350.1654242418731
 31
0.0
 11
281.0631298679343
 21
-350.4278392237532
 31
0.0
 11
282.8472652546816
 21
-350.6706431614562
 31
0.0
 11
284.7327972660945
 21
-350.7974126274195
 31
0.0
 11
285.9999994163289
 21
-350.8189990226486
 31
0.0
  0
SPLINE
  5
15D
330
8C
100
AcDbEntity
  8
0
  6
Continuous
 62
     7
100
AcDbSpline
210
0.0
220
0.0
230
1.0
 70
  1064
 71
     3
 72
    11
 73
     7
 74
     5
 42
0.000000001
 43
0.0000000001
 44
0.00000001
 40
0.0
 40
0.0
 40
0.0
 40
0.0
 40
1.313432629155516
 40
3.127262439907266
 40
4.994350137898453
 40
6.285839232588831
 40
6.285839232588831
 40
6.285839232588831
 40
6.285839232588831
 10
292.2391773377558
 20
-343.7742435545477
 30
0.0
 10
291.8109251284339
 20
-343.68268338146
 30
0.0
 10
290.7912633478571
 20
-343.4646800654407
 30
0.0
 10
289.1382456599202
 20
-343.2507935960145
 30
0.0
 10
287.4834745204715
 20
-343.1387270533121
 30
0.0
 10
286.4305305518707
 20
-343.1287020184303
 30
0.0
 10
285.9999994163289
 20
-343.1246029567815
 30
0.0
 11
292.2391773377558
 21
-343.7742435545477
 31
0.0
 11
290.9517056631079
 21
-343.5143936761661
 31
0.0
 11
289.1542521452034
 21
-343.2712076645508
 31
0.0
 11
287.2912921077477
 21
-343.1471255419044
 31
0.0
 11
285.9999994163289
 21
-343.1246029567815
 31
0.0
  0
SPLINE
  5
15E
330
8C
100
AcDbEntity
  8
0
  6
Continuous
 62
     7
100
AcDbSpline
210
0.0
220
0.0
230
1.0
 70
  1064
 71
     3
 72
    11
 73
     7
 74
     5
 42
0.000000001
 43
0.0000000001
 44
0.00000001
 40
0.0
 40
0.0
 40
0.0
 40
0.0
 40
1.313395587109303
 40
3.127262563499047
 40
4.994350217849254
 40
6.285839221876696
 40
6.285839221876696
 40
6.285839221876696
 40
6.285839221876696
 10
279.760821494105
 20
-343.7742435537951
 30
0.0
 10
280.18906158051
 20
-343.6826857879169
 30
0.0
 10
281.2087232938894
 20
-343.4646820465657
 30
0.0
 10
282.8617409255525
 20
-343.2507943793239
 30
0.0
 10
284.5165243869016
 20
-343.1387270587762
 30
0.0
 10
285.5694683109292
 20
-343.1287020199357
 30
0.0
 10
285.9999994163289
 20
-343.1246029567815
 30
0.0
 11
279.760821494105
 21
-343.7742435537951
 31
0.0
 11
281.0482566565779
 21
-343.5144000015339
 31
0.0
 11
282.8457468211436
 21
-343.2712076512678
 31
0.0
 11
284.7087068155302
 21
-343.147125538659
 31
0.0
 11
285.9999994163289
 21
-343.1246029567815
 31
0.0
  0
SPLINE
  5
15F
330
8C
100
AcDbEntity
  8
0
  6
Continuous
 62
     7
100
AcDbSpline
210
0.0
220
0.0
230
1.0
 70
  1064
 71
     3
 72
    19
 73
    15
 74
    13
 42
0.000000001
 43
0.0000000001
 44
0.00000001
 40
0.0
 40
0.0
 40
0.0
 40
0.0
 40
0.3553975075515807
 40
0.9222556786536444
 40
1.662454207258933
 40
2.494888966873657
 40
3.248628879180673
 40
4.033752787636793
 40
4.816476214972448
 40
5.024724927757334
 40
5.360359865644869
 40
5.755103879643011
 40
6.137368358970422
 40
6.339228354188565
 40
6.339228354188565
 40
6.339228354188565
 40
6.339228354188565
 10
279.7655544579935
 20
-350.1654242418731
 30
0.0
 10
279.6502888794773
 20
-350.1380676023961
 30
0.0
 10
279.3511749791904
 20
-350.0670771921262
 30
0.0
 10
278.815159436978
 20
-349.9261168225664
 30
0.0
 10
278.1310123220412
 20
-349.7245022956428
 30
0.0
 10
277.3942534326576
 20
-349.4815637132158
 30
0.0
 10
276.6630440232283
 20
-349.1782356973789
 30
0.0
 10
275.9881259032371
 20
-348.7940520040576
 30
0.0
 10
275.5267220505962
 20
-348.4173007354994
 30
0.0
 10
275.2192843434033
 20
-348.0993734005947
 30
0.0
 10
275.0191584123572
 20
-347.8578515748515
 30
0.0
 10
274.8207635442378
 20
-347.5438525058817
 30
0.0
 10
274.7001303789865
 20
-347.2340305025347
 30
0.0
 10
274.6874640982053
 20
-347.0391493176372
 30
0.0
 10
274.6830869264009
 20
-346.9718028578986
 30
0.0
 11
279.7655544579935
 21
-350.1654242418731
 31
0.0
 11
279.4200185435557
 21
-350.0822839191344
 31
0.0
 11
278.871700881232
 21
-349.9384926551351
 31
0.0
 11
278.1615771993477
 21
-349.7296429051959
 31
0.0
 11
277.3729744948908
 21
-349.4630844630104
 31
0.0
 11
276.6792354770181
 21
-349.168381171234
 31
0.0
 11
275.9995880684114
 21
-348.7753176249396
 31
0.0
 11
275.3948160716352
 21
-348.2784204569882
 31
0.0
 11
275.2502837911612
 21
-348.1284939875345
 31
0.0
 11
275.0371442454444
 21
-347.8692212635596
 31
0.0
 11
274.8295826073901
 21
-347.5334519942364
 31
0.0
 11
274.7033026079746
 21
-347.1726480409479
 31
0.0
 11
274.6830869264009
 21
-346.9718028578986
 31
0.0
  0
SPLINE
  5
160
330
8C
100
AcDbEntity
  8
0
  6
Continuous
 62
     7
100
AcDbSpline
210
0.0
220
0.0
230
1.0
 70
  1064
 71
     3
 72
    19
 73
    15
 74
    13
 42
0.000000001
 43
0.0000000001
 44
0.00000001
 40
0.0
 40
0.0
 40
0.0
 40
0.0
 40
0.3581308807199487
 40
0.9245959949779987
 40
1.6594819834164
 40
2.486907898667053
 40
3.246505526930626
 40
4.028153915882193
 40
4.815760190671451
 40
5.023892033274407
 40
5.359689166787509
 40
5.754853822735333
 40
6.140081465409462
 40
6.340213735583699
 40
6.340213735583699
 40
6.340213735583699
 40
6.340213735583699
 10
279.760821494105
 20
-343.7742435537951
 30
0.0
 10
279.6446473680539
 20
-343.8017174189393
 30
0.0
 10
279.3447175442658
 20
-343.872647422104
 30
0.0
 10
278.8095002729592
 20
-344.0127348221295
 30
0.0
 10
278.1284765809917
 20
-344.2123111197796
 30
0.0
 10
277.3928785321423
 20
-344.4540294409355
 30
0.0
 10
276.6625137949028
 20
-344.7572745061642
 30
0.0
 10
275.9861123497083
 20
-345.1437211311865
 30
0.0
 10
275.5249465855641
 20
-345.5215226653629
 30
0.0
 10
275.2170962657319
 20
-345.8413334771886
 30
0.0
 10
275.0174376518646
 20
-346.0834501100699
 30
0.0
 10
274.8191969340072
 20
-346.3989270081098
 30
0.0
 10
274.6992217775398
 20
-346.7096929587161
 30
0.0
 10
274.687197854898
 20
-346.9050209717944
 30
0.0
 10
274.6830869264009
 20
-346.9718028578986
 30
0.0
 11
279.760821494105
 21
-343.7742435537951
 31
0.0
 11
279.4125584511212
 21
-343.8577335148935
 31
0.0
 11
278.8644624651262
 21
-344.000819209702
 31
0.0
 11
278.1591549176038
 21
-344.2072136846481
 31
0.0
 11
277.375041283498
 21
-344.4714095468959
 31
0.0
 11
276.6760139403408
 21
-344.7686456989658
 31
0.0
 11
275.9999050512561
 21
-345.1608841135742
 31
0.0
 11
275.3922019562351
 21
-345.6619036663929
 31
0.0
 11
275.2480930893318
 21
-345.8120752294519
 31
0.0
 11
275.0354592768697
 21
-346.0719724716305
 31
0.0
 11
274.8284868613212
 21
-346.4085991546933
 31
0.0
 11
274.7023864914468
 21
-346.7726033197773
 31
0.0
 11
274.6830869264009
 21
-346.9718028578986
 31
0.0
  0
ENDBLK
  5
8E
330
8C
100
AcDbEntity
  8
0
100
AcDbBlockEnd
  0
BLOCK
  5
90
330
8F
100
AcDbEntity
  8
0
100
AcDbBlockBegin
  2
HL531PrBlue-Abdeckung-Design__7
 70
     0
 10
-177.0000006057963
 20
-363.004362991695
 30
0.0
  3
HL531PrBlue-Abdeckung-Design__7
  1

  0
LINE
  5
161
330
8F
100
AcDbEntity
  8
0
  6
Continuous
 62
     7
100
AcDbLine
 10
308.9999993942037
 20
-363.004362991695
 30
0.0
 11
-177.0000006057963
 21
-363.004362991695
 31
0.0
  0
LINE
  5
162
330
8F
100
AcDbEntity
  8
0
  6
Continuous
 62
     7
100
AcDbLine
 10
308.9999993942037
 20
-360.504362991695
 30
0.0
 11
308.9999993942039
 21
-360.4919430230387
 31
0.0
  0
LINE
  5
163
330
8F
100
AcDbEntity
  8
0
  6
Continuous
 62
     7
100
AcDbLine
 10
308.9999993942037
 20
-363.004362991695
 30
0.0
 11
308.9999993942039
 21
-362.9919430230387
 31
0.0
  0
LINE
  5
164
330
8F
100
AcDbEntity
  8
0
  6
Continuous
 62
     7
100
AcDbLine
 10
308.9999993942037
 20
-309.5043629916958
 30
0.0
 11
308.9999993942037
 21
-307.0043629916958
 31
0.0
  0
LINE
  5
165
330
8F
100
AcDbEntity
  8
0
  6
Continuous
 62
     7
100
AcDbLine
 10
308.9999993942037
 20
-307.0043629916958
 30
0.0
 11
-177.0000006057963
 21
-307.0043629916958
 31
0.0
  0
LINE
  5
166
330
8F
100
AcDbEntity
  8
0
  6
Continuous
 62
     7
100
AcDbLine
 10
-177.0000006057963
 20
-309.5043629916958
 30
0.0
 11
-177.0000006057963
 21
-307.0043629916958
 31
0.0
  0
LINE
  5
167
330
8F
100
AcDbEntity
  8
0
  6
Continuous
 62
     7
100
AcDbLine
 10
-177.0000006057963
 20
-360.504362991695
 30
0.0
 11
-177.0000006057961
 21
-360.4919430230387
 31
0.0
  0
LINE
  5
168
330
8F
100
AcDbEntity
  8
0
  6
Continuous
 62
     7
100
AcDbLine
 10
-177.0000006057963
 20
-363.004362991695
 30
0.0
 11
-177.0000006057961
 21
-362.9919430230387
 31
0.0
  0
LINE
  5
169
330
8F
100
AcDbEntity
  8
0
  6
Continuous
 62
     7
100
AcDbLine
 10
-177.0000006057961
 20
-360.4919430230387
 30
0.0
 11
-177.0000006057963
 21
-309.5043629916958
 31
0.0
  0
LINE
  5
16A
330
8F
100
AcDbEntity
  8
0
  6
Continuous
 62
     7
100
AcDbLine
 10
-177.0000006057961
 20
-362.9919430230387
 30
0.0
 11
-177.0000006057963
 21
-360.504362991695
 31
0.0
  0
LINE
  5
16B
330
8F
100
AcDbEntity
  8
0
  6
Continuous
 62
     7
100
AcDbLine
 10
308.9999993942039
 20
-362.9919430230387
 30
0.0
 11
308.9999993942037
 21
-360.504362991695
 31
0.0
  0
LINE
  5
16C
330
8F
100
AcDbEntity
  8
0
  6
Continuous
 62
     7
100
AcDbLine
 10
308.9999993942039
 20
-360.4919430230387
 30
0.0
 11
308.9999993942037
 21
-309.5043629916958
 31
0.0
  0
SPLINE
  5
16D
330
8F
100
AcDbEntity
  8
0
  6
Continuous
 62
     7
100
AcDbSpline
210
0.0
220
0.0
230
1.0
 70
  1067
 71
     3
 72
    39
 73
    35
 74
    33
 42
0.000000001
 43
0.0000000001
 44
0.00000001
 40
0.0
 40
0.0
 40
0.0
 40
0.0
 40
1.918729178858939
 40
3.842599902414555
 40
6.054770005627473
 40
8.266731355804723
 40
10.47869270597234
 40
12.69086280913605
 40
14.61473353256012
 40
16.53346272130764
 40
17.93493671644528
 40
19.36961856266015
 40
20.31551234965664
 40
21.17686206534179
 40
22.03821178095896
 40
22.98410556783594
 40
24.41878741388173
 40
25.82026140888899
 40
27.73899059748733
 40
29.6628613207807
 40
31.87503142380805
 40
34.08699277383719
 40
36.29895412384212
 40
38.51112422680243
 40
40.4349949499835
 40
42.35372413831209
 40
43.75519813288792
 40
45.18987997833403
 40
46.13577376467401
 40
46.99712348003207
 40
47.85847319633255
 40
48.80436698409512
 40
50.23904883171365
 40
51.64052281788057
 40
51.64052281788057
 40
51.64052281788057
 40
51.64052281788057
 10
277.8497804333601
 20
-344.1641865064166
 30
0.0
 10
278.463514210775
 20
-343.9829359105162
 30
0.0
 10
279.6926263639776
 20
-343.619949027154
 30
0.0
 10
281.68025438825
 20
-343.2510022164336
 30
0.0
 10
283.786463548112
 20
-343.0280966921282
 30
0.0
 10
285.9992309140057
 20
-342.9637508795715
 30
0.0
 10
288.211729246607
 20
-343.0286516575657
 30
0.0
 10
290.3187105164884
 20
-343.2489026654656
 30
0.0
 10
292.303862223152
 20
-343.6266786528232
 30
0.0
 10
293.9893778823262
 20
-344.0930222680571
 30
0.0
 10
295.4874772804991
 20
-344.6237804248201
 30
0.0
 10
296.5594719291965
 20
-345.3255003227391
 30
0.0
 10
297.2867063018572
 20
-346.1287314526476
 30
0.0
 10
297.6373712317497
 20
-347.0102912998047
 30
0.0
 10
297.2867063030176
 20
-347.891851140841
 30
0.0
 10
296.5594719240237
 20
-348.6950822945626
 30
0.0
 10
295.48747731288
 20
-349.3968020582001
 30
0.0
 10
293.989377750062
 20
-349.9275608040218
 30
0.0
 10
292.3038629272039
 20
-350.3939014291163
 30
0.0
 10
290.3187077456794
 20
-350.7716898415784
 30
0.0
 10
288.2117413191098
 20
-350.9918877755691
 30
0.0
 10
285.9991860784661
 20
-351.0569920359436
 30
0.0
 10
283.786630832105
 20
-350.991887763082
 30
0.0
 10
281.6796644221925
 20
-350.7716898852061
 30
0.0
 10
279.6945091879836
 20
-350.393901282974
 30
0.0
 10
278.0089945394658
 20
-349.9275612780606
 30
0.0
 10
276.5108944892658
 20
-349.396800784899
 30
0.0
 10
275.4389014104767
 20
-348.6950864929485
 30
0.0
 10
274.7116631946396
 20
-347.8918416123063
 30
0.0
 10
274.3610100032167
 20
-347.010323722049
 30
0.0
 10
274.7116304625427
 20
-346.1286048748718
 30
0.0
 10
275.4390792481985
 20
-345.3261403213987
 30
0.0
 10
276.509847970005
 20
-344.6200374239258
 30
0.0
 10
277.4066363721664
 20
-344.3149460669387
 30
0.0
 10
277.8497804333601
 20
-344.1641865064166
 30
0.0
 11
277.8497804333601
 21
-344.1641865064166
 31
0.0
 11
279.6990392480342
 21
-343.6525581879898
 31
0.0
 11
281.5887595285274
 21
-343.2916761823346
 31
0.0
 11
283.7883617495805
 21
-343.0562050917553
 31
0.0
 11
285.999186086535
 21
-342.9852913006926
 31
0.0
 11
288.2100104234896
 21
-343.0562050917552
 31
0.0
 11
290.4096126445427
 21
-343.2916761823346
 31
0.0
 11
292.2993329250359
 21
-343.6525581879897
 31
0.0
 11
294.1485917397101
 21
-344.1641865064167
 31
0.0
 11
295.4551150137892
 21
-344.6712627269732
 31
0.0
 11
296.6468976987277
 21
-345.4699904854231
 31
0.0
 11
297.2596706449077
 21
-346.1905627392981
 31
0.0
 11
297.5241860865351
 21
-347.0102913006925
 31
0.0
 11
297.2596706449075
 21
-347.8300198620868
 31
0.0
 11
296.6468976987276
 21
-348.5505921159619
 31
0.0
 11
295.4551150137891
 21
-349.3493198744119
 31
0.0
 11
294.14859173971
 21
-349.8563960949684
 31
0.0
 11
292.2993329250358
 21
-350.3680244133953
 31
0.0
 11
290.4096126445427
 21
-350.7289064190504
 31
0.0
 11
288.2100104234896
 21
-350.9643775096298
 31
0.0
 11
285.9991860865351
 21
-351.0352913006926
 31
0.0
 11
283.7883617495805
 21
-350.9643775096298
 31
0.0
 11
281.5887595285274
 21
-350.7289064190504
 31
0.0
 11
279.6990392480344
 21
-350.3680244133953
 31
0.0
 11
277.8497804333602
 21
-349.8563960949684
 31
0.0
 11
276.5432571592812
 21
-349.3493198744119
 31
0.0
 11
275.3514744743425
 21
-348.5505921159619
 31
0.0
 11
274.7387015281626
 21
-347.8300198620868
 31
0.0
 11
274.4741860865352
 21
-347.0102913006925
 31
0.0
 11
274.7387015281626
 21
-346.1905627392981
 31
0.0
 11
275.3514744743425
 21
-345.4699904854231
 31
0.0
 11
276.5432571592812
 21
-344.6712627269732
 31
0.0
 11
277.8497804333601
 21
-344.1641865064166
 31
0.0
  0
ENDBLK
  5
91
330
8F
100
AcDbEntity
  8
0
100
AcDbBlockEnd
  0
BLOCK
  5
96
330
92
100
AcDbEntity
  8
0
100
AcDbBlockBegin
  2
HL531PrBlue-Designabdeckung-WEB-Zeichnung__8
 70
     0
 10
-177.0000006057963
 20
-363.004362991695
 30
0.0
  3
HL531PrBlue-Designabdeckung-WEB-Zeichnung__8
  1

  0
INSERT
  5
93
330
92
100
AcDbEntity
  8
0
100
AcDbBlockReference
  2
HL531PrBlue-Träger-Designabdeckung__5
 10
-177.0000006057963
 20
-363.004362991695
 30
0.0
  0
INSERT
  5
94
330
92
100
AcDbEntity
  8
0
100
AcDbBlockReference
  2
Emblem-HL-8x23-V02_1__6
 10
274.4999994163288
 20
-350.9718028579032
 30
0.0
  0
INSERT
  5
95
330
92
100
AcDbEntity
  8
0
100
AcDbBlockReference
  2
HL531PrBlue-Abdeckung-Design__7
 10
-177.0000006057963
 20
-363.004362991695
 30
0.0
  0
ENDBLK
  5
97
330
92
100
AcDbEntity
  8
0
100
AcDbBlockEnd
  0
BLOCK
  5
9A
330
98
100
AcDbEntity
  8
0
100
AcDbBlockBegin
  2
Vordans2
 70
     0
 10
66.00000099999954
 20
-335.0
 30
0.0
  3
Vordans2
  1

  0
INSERT
  5
99
330
98
100
AcDbEntity
  8
0
100
AcDbBlockReference
  2
HL531PrBlue-Designabdeckung-WEB-Zeichnung__8
 10
-177.0000006057963
 20
-363.004362991695
 30
0.0
  0
MTEXT
  5
16E
330
98
100
AcDbEntity
  8
1
 62
     1
100
AcDbMText
 10
65.999999394204
 20
-368.4289970500613
 30
0.0
 40
3.5
 41
0.0
 71
     2
 72
     1
  1
 
  7
CONVERTER_11
 73
     1
 44
1.32052821128451
  0
DIMENSION
  5
179
330
98
100
AcDbEntity
  8
1
100
AcDbDimension
  2
*D14
 10
-177.0000006057961
 20
-392.110087528865
 30
0.0
 11
57.45654286344501
 21
-379.610087528865
 31
0.0
 70
    32
  1
<>
 71
     5
 42
-1.0
 53
0.00013888888889
  3
ME10_DIM_13
100
AcDbAlignedDimension
 13
308.9999993942039
 23
-362.9919430230387
 33
0.0
 14
-177.0000006057961
 24
-362.9919430230387
 34
0.0
100
AcDbRotatedDimension
  0
ENDBLK
  5
9B
330
98
100
AcDbEntity
  8
0
100
AcDbBlockEnd
  0
BLOCK
  5
F7
330
EE
100
AcDbEntity
  8
0
100
AcDbBlockBegin
  2
*D11
 70
     1
 10
0.0
 20
0.0
 30
0.0
  3
*D11
  1

  0
LINE
  5
EF
330
EE
100
AcDbEntity
  8
1
  6
Continuous
 62
     4
100
AcDbLine
 10
-312.5901157035643
 20
-292.0326294244553
 30
0.0
 11
-282.5901157035643
 21
-292.0326294244553
 31
0.0
  0
LINE
  5
F0
330
EE
100
AcDbEntity
  8
1
  6
Continuous
 62
     4
100
AcDbLine
 10
-282.5901157035643
 20
-292.0326294244553
 30
0.0
 11
-279.5901157035643
 21
-292.0326294244553
 31
0.0
  0
LINE
  5
F1
330
EE
100
AcDbEntity
  8
1
  6
Continuous
 62
     4
100
AcDbLine
 10
-279.5901157035643
 20
-292.0326294244553
 30
0.0
 11
-246.2458921701301
 21
-292.0326294244553
 31
0.0
  0
LINE
  5
F2
330
EE
100
AcDbEntity
  8
1
  6
Continuous
 62
     4
100
AcDbLine
 10
-282.5901157035643
 20
-307.0043629916962
 30
0.0
 11
-282.5901157035643
 21
-290.0326294244553
 31
0.0
  0
LINE
  5
F3
330
EE
100
AcDbEntity
  8
1
  6
Continuous
 62
     4
100
AcDbLine
 10
-279.5901157035643
 20
-307.0043629916962
 30
0.0
 11
-279.5901157035643
 21
-290.0326294244553
 31
0.0
  0
SOLID
  5
F4
330
EE
100
AcDbEntity
  8
1
 62
     4
100
AcDbTrace
 10
-297.5901157035643
 20
-294.0074168882662
 30
0.0
 11
-297.5901157035643
 21
-290.0578419606444
 31
0.0
 12
-282.5901157035643
 22
-292.0326294244553
 32
0.0
 13
-282.5901157035643
 23
-292.0326294244553
 33
0.0
  0
SOLID
  5
F5
330
EE
100
AcDbEntity
  8
1
 62
     4
100
AcDbTrace
 10
-264.5901157035643
 20
-290.0578419606444
 30
0.0
 11
-264.5901157035643
 21
-294.0074168882662
 31
0.0
 12
-279.5901157035643
 22
-292.0326294244553
 32
0.0
 13
-279.5901157035643
 23
-292.0326294244553
 33
0.0
  0
MTEXT
  5
F6
330
EE
100
AcDbEntity
  8
1
 62
     1
100
AcDbMText
 10
-255.2458921701301
 20
-287.0326294244553
 30
0.0
 40
15.0
 41
0.0
 71
     7
 72
     1
  1
3
  7
CONVERTER_11
 11
0.9999999999970619
 21
2.424068405545306E-6
 31
0.0
 73
     1
 44
0.60024009603842
  0
ENDBLK
  5
F8
330
EE
100
AcDbEntity
  8
0
100
AcDbBlockEnd
  0
BLOCK
  5
102
330
FB
100
AcDbEntity
  8
0
100
AcDbBlockBegin
  2
*D12
 70
     1
 10
0.0
 20
0.0
 30
0.0
  3
*D12
  1

  0
LINE
  5
FC
330
FB
100
AcDbEntity
  8
1
  6
Continuous
 62
     4
100
AcDbLine
 10
-312.8634552533251
 20
-363.0043629916954
 30
0.0
 11
-312.8634552533251
 21
-307.004362991696
 31
0.0
  0
LINE
  5
FD
330
FB
100
AcDbEntity
  8
1
  6
Continuous
 62
     4
100
AcDbLine
 10
-282.5901157035643
 20
-363.0043629916954
 30
0.0
 11
-314.8634552533251
 21
-363.0043629916954
 31
0.0
  0
LINE
  5
FE
330
FB
100
AcDbEntity
  8
1
  6
Continuous
 62
     4
100
AcDbLine
 10
-282.5901157035643
 20
-307.004362991696
 30
0.0
 11
-314.8634552533251
 21
-307.004362991696
 31
0.0
  0
SOLID
  5
FF
330
FB
100
AcDbEntity
  8
1
 62
     4
100
AcDbTrace
 10
-314.838242717136
 20
-348.0043629916954
 30
0.0
 11
-310.8886677895142
 21
-348.0043629916954
 31
0.0
 12
-312.8634552533251
 22
-363.0043629916954
 32
0.0
 13
-312.8634552533251
 23
-363.0043629916954
 33
0.0
  0
SOLID
  5
100
330
FB
100
AcDbEntity
  8
1
 62
     4
100
AcDbTrace
 10
-310.8886677895142
 20
-322.004362991696
 30
0.0
 11
-314.838242717136
 21
-322.004362991696
 31
0.0
 12
-312.8634552533251
 22
-307.004362991696
 32
0.0
 13
-312.8634552533251
 23
-307.004362991696
 33
0.0
  0
MTEXT
  5
101
330
FB
100
AcDbEntity
  8
1
 62
     1
100
AcDbMText
 10
-317.8634552533251
 20
-345.5342849068642
 30
0.0
 40
15.0
 41
0.0
 71
     7
 72
     1
  1
56
  7
CONVERTER_11
 11
0.0
 21
1.0
 31
0.0
 73
     1
 44
0.60024009603842
  0
ENDBLK
  5
103
330
FB
100
AcDbEntity
  8
0
100
AcDbBlockEnd
  0
BLOCK
  5
10F
330
106
100
AcDbEntity
  8
0
100
AcDbBlockBegin
  2
*D13
 70
     1
 10
0.0
 20
0.0
 30
0.0
  3
*D13
  1

  0
LINE
  5
107
330
106
100
AcDbEntity
  8
1
  6
Continuous
 62
     4
100
AcDbLine
 10
-312.5901157035643
 20
-392.1100875288652
 30
0.0
 11
-282.5901157035643
 21
-392.1100875288652
 31
0.0
  0
LINE
  5
108
330
106
100
AcDbEntity
  8
1
  6
Continuous
 62
     4
100
AcDbLine
 10
-282.5901157035643
 20
-392.1100875288652
 30
0.0
 11
-257.0901157035643
 21
-392.1100875288652
 31
0.0
  0
LINE
  5
109
330
106
100
AcDbEntity
  8
1
  6
Continuous
 62
     4
100
AcDbLine
 10
-257.0901157035643
 20
-392.1100875288652
 30
0.0
 11
-199.6399643252011
 21
-392.1100875288652
 31
0.0
  0
LINE
  5
10A
330
106
100
AcDbEntity
  8
1
  6
Continuous
 62
     4
100
AcDbLine
 10
-282.5901157035643
 20
-363.0043629916954
 30
0.0
 11
-282.5901157035643
 21
-394.1100875288652
 31
0.0
  0
LINE
  5
10B
330
106
100
AcDbEntity
  8
1
  6
Continuous
 62
     4
100
AcDbLine
 10
-257.0901157035643
 20
-363.0043629916954
 30
0.0
 11
-257.0901157035643
 21
-394.1100875288652
 31
0.0
  0
SOLID
  5
10C
330
106
100
AcDbEntity
  8
1
 62
     4
100
AcDbTrace
 10
-297.5901157035643
 20
-394.0848749926761
 30
0.0
 11
-297.5901157035643
 21
-390.1353000650543
 31
0.0
 12
-282.5901157035643
 22
-392.1100875288652
 32
0.0
 13
-282.5901157035643
 23
-392.1100875288652
 33
0.0
  0
SOLID
  5
10D
330
106
100
AcDbEntity
  8
1
 62
     4
100
AcDbTrace
 10
-242.0901157035643
 20
-390.1353000650543
 30
0.0
 11
-242.0901157035643
 21
-394.0848749926761
 31
0.0
 12
-257.0901157035643
 22
-392.1100875288652
 32
0.0
 13
-257.0901157035643
 23
-392.1100875288652
 33
0.0
  0
MTEXT
  5
10E
330
106
100
AcDbEntity
  8
1
 62
     1
100
AcDbMText
 10
-240.8899643252011
 20
-385.6100875288652
 30
0.0
 40
15.0
 41
0.0
 71
     7
 72
     1
  1
25,5
  7
CONVERTER_11
 11
0.9999999999970619
 21
2.424068405545306E-6
 31
0.0
 73
     1
 44
0.60024009603842
  0
ENDBLK
  5
110
330
106
100
AcDbEntity
  8
0
100
AcDbBlockEnd
  0
BLOCK
  5
176
330
16F
100
AcDbEntity
  8
0
100
AcDbBlockBegin
  2
*D14
 70
     1
 10
0.0
 20
0.0
 30
0.0
  3
*D14
  1

  0
LINE
  5
170
330
16F
100
AcDbEntity
  8
1
  6
Continuous
 62
     4
100
AcDbLine
 10
-177.0000006057961
 20
-392.110087528865
 30
0.0
 11
308.9999993942039
 21
-392.110087528865
 31
0.0
  0
LINE
  5
171
330
16F
100
AcDbEntity
  8
1
  6
Continuous
 62
     4
100
AcDbLine
 10
-177.0000006057961
 20
-362.9919430230387
 30
0.0
 11
-177.0000006057961
 21
-394.110087528865
 31
0.0
  0
LINE
  5
172
330
16F
100
AcDbEntity
  8
1
  6
Continuous
 62
     4
100
AcDbLine
 10
308.9999993942039
 20
-362.9919430230387
 30
0.0
 11
308.9999993942039
 21
-394.110087528865
 31
0.0
  0
SOLID
  5
173
330
16F
100
AcDbEntity
  8
1
 62
     4
100
AcDbTrace
 10
-162.0000006057961
 20
-390.1353000650541
 30
0.0
 11
-162.0000006057961
 21
-394.0848749926759
 31
0.0
 12
-177.0000006057961
 22
-392.110087528865
 32
0.0
 13
-177.0000006057961
 23
-392.110087528865
 33
0.0
  0
SOLID
  5
174
330
16F
100
AcDbEntity
  8
1
 62
     4
100
AcDbTrace
 10
293.9999993942039
 20
-394.0848749926759
 30
0.0
 11
293.9999993942039
 21
-390.1353000650541
 31
0.0
 12
308.9999993942039
 22
-392.110087528865
 32
0.0
 13
308.9999993942039
 23
-392.110087528865
 33
0.0
  0
MTEXT
  5
175
330
16F
100
AcDbEntity
  8
1
 62
     1
100
AcDbMText
 10
39.45654286344501
 20
-387.110087528865
 30
0.0
 40
15.0
 41
0.0
 71
     7
 72
     1
  1
486
  7
CONVERTER_11
 11
0.9999999999970619
 21
2.424068405545306E-6
 31
0.0
 73
     1
 44
0.60024009603842
  0
ENDBLK
  5
177
330
16F
100
AcDbEntity
  8
0
100
AcDbBlockEnd
  0
ENDSEC
  0
SECTION
  2
ENTITIES
  0
INSERT
  5
9C
330
1F
100
AcDbEntity
  8
0
100
AcDbBlockReference
  2
SA_Rechts2
 10
-269.9349650000003
 20
-335.0000000000005
 30
0.0
  0
INSERT
  5
9D
330
1F
100
AcDbEntity
  8
0
100
AcDbBlockReference
  2
Vordans2
 10
66.00000099999954
 20
-335.0
 30
0.0
  0
ENDSEC
  0
SECTION
  2
OBJECTS
  0
DICTIONARY
  5
C
330
0
100
AcDbDictionary
281
     1
  3
ACAD_GROUP
350
D
  3
ACAD_LAYOUT
350
1A
  3
ACAD_MATERIAL
350
43
  3
ACAD_MLEADERSTYLE
350
6B
  3
ACAD_MLINESTYLE
350
17
  3
ACAD_PLOTSETTINGS
350
19
  3
ACAD_PLOTSTYLENAME
350
E
  3
ACAD_SCALELIST
350
47
  3
ACAD_TABLESTYLE
350
69
  3
ACAD_VISUALSTYLE
350
2A
  3
AcDbVariableDictionary
350
17A
  0
DICTIONARY
  5
181
330
8
100
AcDbDictionary
280
     1
281
     1
  3
ACAD_XREC_ROUNDTRIP
360
182
  0
DICTIONARY
  5
D
102
{ACAD_REACTORS
330
C
102
}
330
C
100
AcDbDictionary
281
     1
  0
DICTIONARY
  5
1A
102
{ACAD_REACTORS
330
C
102
}
330
C
100
AcDbDictionary
281
     1
  3
Layout1
350
1E
  3
Layout2
350
26
  3
Model
350
22
  0
DICTIONARY
  5
43
102
{ACAD_REACTORS
330
C
102
}
330
C
100
AcDbDictionary
281
     1
  3
ByBlock
350
45
  3
ByLayer
350
44
  3
Global
350
46
  0
DICTIONARY
  5
6B
102
{ACAD_REACTORS
330
C
102
}
330
C
100
AcDbDictionary
281
     1
  3
Standard
350
6C
  0
DICTIONARY
  5
17
102
{ACAD_REACTORS
330
C
102
}
330
C
100
AcDbDictionary
281
     1
  3
Standard
350
18
  0
DICTIONARY
  5
19
102
{ACAD_REACTORS
330
C
102
}
330
C
100
AcDbDictionary
281
     1
  0
ACDBDICTIONARYWDFLT
  5
E
102
{ACAD_REACTORS
330
C
102
}
330
C
100
AcDbDictionary
281
     1
  3
Normal
350
F
100
AcDbDictionaryWithDefault
340
F
  0
DICTIONARY
  5
47
102
{ACAD_REACTORS
330
C
102
}
330
C
100
AcDbDictionary
281
     1
  3
A0
350
48
  3
A1
350
49
  3
A2
350
4A
  3
A3
350
4B
  3
A4
350
4C
  3
A5
350
4D
  3
A6
350
4E
  3
A7
350
4F
  3
A8
350
50
  3
A9
350
51
  3
B0
350
52
  3
B1
350
53
  3
B2
350
54
  3
B3
350
55
  3
B4
350
56
  3
B5
350
57
  3
B6
350
58
  3
B7
350
59
  3
B8
350
5A
  3
B9
350
5B
  3
C0
350
5C
  3
C1
350
5D
  3
C2
350
5E
  3
C3
350
5F
  3
C4
350
60
  3
C5
350
61
  3
C6
350
62
  3
C7
350
63
  3
C8
350
64
  3
C9
350
65
  3
D0
350
66
  3
D1
350
67
  3
D2
350
68
  0
DICTIONARY
  5
69
102
{ACAD_REACTORS
330
C
102
}
330
C
100
AcDbDictionary
281
     1
  3
Standard
350
6A
  0
DICTIONARY
  5
2A
102
{ACAD_REACTORS
330
C
102
}
330
C
100
AcDbDictionary
281
     1
  3
2dWireframe
350
2F
  3
Basic
350
32
  3
Brighten
350
36
  3
ColorChange
350
3A
  3
Conceptual
350
34
  3
Dim
350
35
  3
EdgeColorOff
350
3D
  3
Facepattern
350
39
  3
Flat
350
2B
  3
FlatWithEdges
350
2C
  3
Gouraud
350
2D
  3
GouraudWithEdges
350
2E
  3
Hidden
350
31
  3
JitterOff
350
3B
  3
Linepattern
350
38
  3
OverhangOff
350
3C
  3
Realistic
350
33
  3
Shaded
350
42
  3
Shaded with edges
350
41
  3
Shades of Gray
350
3E
  3
Sketchy
350
3F
  3
Thicken
350
37
  3
Wireframe
350
30
  3
X-Ray
350
40
  0
DICTIONARY
  5
17A
102
{ACAD_REACTORS
330
C
102
}
330
C
100
AcDbDictionary
281
     1
  3
CANNOSCALE
350
183
  3
CMLEADERSTYLE
350
17C
  3
CTABLESTYLE
350
17B
  3
DIMASSOC
350
17F
  3
HIDETEXT
350
180
  3
MSLTSCALE
350
184
  0
XRECORD
  5
182
102
{ACAD_REACTORS
330
181
102
}
330
181
100
AcDbXrecord
280
     1
102
VTR_0.000_0.000_1.000_1.000_VISUALSTYLE
340
2F
102
VTR_0.000_0.000_1.000_1.000_GRIDDISPLAY
 70
     3
102
VTR_0.000_0.000_1.000_1.000_GRIDMAJOR
 70
     5
102
VTR_0.000_0.000_1.000_1.000_DEFAULTLIGHTING
280
     1
102
VTR_0.000_0.000_1.000_1.000_DEFAULTLIGHTINGTYPE
 70
     1
102
VTR_0.000_0.000_1.000_1.000_BRIGHTNESS
141
0.0
102
VTR_0.000_0.000_1.000_1.000_CONTRAST
142
0.0
  0
LAYOUT
  5
1E
102
{ACAD_REACTORS
330
1A
102
}
330
1A
100
AcDbPlotSettings
  1

  2
none_device
  4

  6

 40
0.0
 41
0.0
 42
0.0
 43
0.0
 44
0.0
 45
0.0
 46
0.0
 47
0.0
 48
0.0
 49
0.0
140
0.0
141
0.0
142
1.0
143
1.0
 70
   688
 72
     0
 73
     0
 74
     5
  7

 75
    16
147
1.0
148
0.0
149
0.0
100
AcDbLayout
  1
Layout1
 70
     1
 71
     1
 10
0.0
 20
0.0
 11
12.0
 21
9.0
 12
0.0
 22
0.0
 32
0.0
 14
1.00000000000000E+20
 24
1.00000000000000E+20
 34
1.00000000000000E+20
 15
-1.00000000000000E+20
 25
-1.00000000000000E+20
 35
-1.00000000000000E+20
146
0.0
 13
0.0
 23
0.0
 33
0.0
 16
1.0
 26
0.0
 36
0.0
 17
0.0
 27
1.0
 37
0.0
 76
     0
330
1B
  0
LAYOUT
  5
26
102
{ACAD_REACTORS
330
1A
102
}
330
1A
100
AcDbPlotSettings
  1

  2
none_device
  4

  6

 40
0.0
 41
0.0
 42
0.0
 43
0.0
 44
0.0
 45
0.0
 46
0.0
 47
0.0
 48
0.0
 49
0.0
140
0.0
141
0.0
142
1.0
143
1.0
 70
   688
 72
     0
 73
     0
 74
     5
  7

 75
    16
147
1.0
148
0.0
149
0.0
100
AcDbLayout
  1
Layout2
 70
     1
 71
     2
 10
0.0
 20
0.0
 11
0.0
 21
0.0
 12
0.0
 22
0.0
 32
0.0
 14
0.0
 24
0.0
 34
0.0
 15
0.0
 25
0.0
 35
0.0
146
0.0
 13
0.0
 23
0.0
 33
0.0
 16
1.0
 26
0.0
 36
0.0
 17
0.0
 27
1.0
 37
0.0
 76
     0
330
23
  0
LAYOUT
  5
22
102
{ACAD_REACTORS
330
1A
102
}
330
1A
100
AcDbPlotSettings
  1

  2
none_device
  4
Letter_(8.50_x_11.00_Inches)
  6

 40
6.35
 41
6.35
 42
6.35000508
 43
6.35000508
 44
215.9
 45
279.4
 46
0.0
 47
0.0
 48
0.0
 49
0.0
140
0.0
141
0.0
142
1.0
143
1.0
 70
  1712
 72
     0
 73
     0
 74
     0
  7

 75
     0
147
1.0
148
0.0
149
0.0
100
AcDbLayout
  1
Model
 70
     1
 71
     0
 10
0.0
 20
0.0
 11
12.0
 21
9.0
 12
0.0
 22
0.0
 32
0.0
 14
-332.8634552533251
 24
-394.1100875288652
 34
0.0
 15
308.9999993942039
 25
-272.0326294244553
 35
0.0
146
0.0
 13
0.0
 23
0.0
 33
0.0
 16
1.0
 26
0.0
 36
0.0
 17
0.0
 27
1.0
 37
0.0
 76
     0
330
1F
331
29
  0
MATERIAL
  5
45
102
{ACAD_REACTORS
330
43
102
}
102
{ACAD_XDICTIONARY
360
1B7
102
}
330
43
100
AcDbMaterial
  1
ByBlock
  0
MATERIAL
  5
44
102
{ACAD_REACTORS
330
43
102
}
102
{ACAD_XDICTIONARY
360
1B5
102
}
330
43
100
AcDbMaterial
  1
ByLayer
  0
MATERIAL
  5
46
102
{ACAD_REACTORS
330
43
102
}
102
{ACAD_XDICTIONARY
360
1B9
102
}
330
43
100
AcDbMaterial
  1
Global
  0
MLEADERSTYLE
  5
6C
102
{ACAD_REACTORS
330
6B
102
}
102
{ACAD_XDICTIONARY
360
1BC
102
}
330
6B
100
AcDbMLeaderStyle
170
     2
171
     1
172
     0
 90
        2
 40
0.0
 41
0.0
173
     1
 91
-1056964608
340
14
 92
       -2
290
     1
 42
0.09
291
     1
 43
0.36
  3
Standard
341
0
 44
0.18
300

342
11
174
     1
178
     6
175
     1
176
     0
 93
-1056964608
 45
0.18
292
     0
297
     0
 46
0.18
343
0
 94
-1056964608
 47
1.0
 49
1.0
140
1.0
293
     1
141
0.0
294
     1
177
     0
142
1.0
295
     0
296
     0
143
0.125
1001
ACAD_MLEADERVER
1070
     2
  0
MLINESTYLE
  5
18
102
{ACAD_REACTORS
330
17
102
}
330
17
100
AcDbMlineStyle
  2
Standard
 70
     0
  3

 62
   256
 51
90.0
 52
90.0
 71
     2
 49
0.5
 62
   256
  6
BYLAYER
 49
-0.5
 62
   256
  6
BYLAYER
  0
ACDBPLACEHOLDER
  5
F
102
{ACAD_REACTORS
330
E
102
}
330
E
  0
SCALE
  5
48
102
{ACAD_REACTORS
330
47
102
}
330
47
100
AcDbScale
 70
     0
300
1:1
140
1.0
141
1.0
290
     1
  0
SCALE
  5
49
102
{ACAD_REACTORS
330
47
102
}
330
47
100
AcDbScale
 70
     0
300
1:2
140
1.0
141
2.0
290
     0
  0
SCALE
  5
4A
102
{ACAD_REACTORS
330
47
102
}
330
47
100
AcDbScale
 70
     0
300
1:4
140
1.0
141
4.0
290
     0
  0
SCALE
  5
4B
102
{ACAD_REACTORS
330
47
102
}
330
47
100
AcDbScale
 70
     0
300
1:5
140
1.0
141
5.0
290
     0
  0
SCALE
  5
4C
102
{ACAD_REACTORS
330
47
102
}
330
47
100
AcDbScale
 70
     0
300
1:8
140
1.0
141
8.0
290
     0
  0
SCALE
  5
4D
102
{ACAD_REACTORS
330
47
102
}
330
47
100
AcDbScale
 70
     0
300
1:10
140
1.0
141
10.0
290
     0
  0
SCALE
  5
4E
102
{ACAD_REACTORS
330
47
102
}
330
47
100
AcDbScale
 70
     0
300
1:16
140
1.0
141
16.0
290
     0
  0
SCALE
  5
4F
102
{ACAD_REACTORS
330
47
102
}
330
47
100
AcDbScale
 70
     0
300
1:20
140
1.0
141
20.0
290
     0
  0
SCALE
  5
50
102
{ACAD_REACTORS
330
47
102
}
330
47
100
AcDbScale
 70
     0
300
1:30
140
1.0
141
30.0
290
     0
  0
SCALE
  5
51
102
{ACAD_REACTORS
330
47
102
}
330
47
100
AcDbScale
 70
     0
300
1:40
140
1.0
141
40.0
290
     0
  0
SCALE
  5
52
102
{ACAD_REACTORS
330
47
102
}
330
47
100
AcDbScale
 70
     0
300
1:50
140
1.0
141
50.0
290
     0
  0
SCALE
  5
53
102
{ACAD_REACTORS
330
47
102
}
330
47
100
AcDbScale
 70
     0
300
1:100
140
1.0
141
100.0
290
     0
  0
SCALE
  5
54
102
{ACAD_REACTORS
330
47
102
}
330
47
100
AcDbScale
 70
     0
300
2:1
140
2.0
141
1.0
290
     0
  0
SCALE
  5
55
102
{ACAD_REACTORS
330
47
102
}
330
47
100
AcDbScale
 70
     0
300
4:1
140
4.0
141
1.0
290
     0
  0
SCALE
  5
56
102
{ACAD_REACTORS
330
47
102
}
330
47
100
AcDbScale
 70
     0
300
8:1
140
8.0
141
1.0
290
     0
  0
SCALE
  5
57
102
{ACAD_REACTORS
330
47
102
}
330
47
100
AcDbScale
 70
     0
300
10:1
140
10.0
141
1.0
290
     0
  0
SCALE
  5
58
102
{ACAD_REACTORS
330
47
102
}
330
47
100
AcDbScale
 70
     0
300
100:1
140
100.0
141
1.0
290
     0
  0
SCALE
  5
59
102
{ACAD_REACTORS
330
47
102
}
330
47
100
AcDbScale
 70
     0
300
1/128" = 1'-0"
140
0.0078125
141
12.0
290
     0
  0
SCALE
  5
5A
102
{ACAD_REACTORS
330
47
102
}
330
47
100
AcDbScale
 70
     0
300
1/64" = 1'-0"
140
0.015625
141
12.0
290
     0
  0
SCALE
  5
5B
102
{ACAD_REACTORS
330
47
102
}
330
47
100
AcDbScale
 70
     0
300
1/32" = 1'-0"
140
0.03125
141
12.0
290
     0
  0
SCALE
  5
5C
102
{ACAD_REACTORS
330
47
102
}
330
47
100
AcDbScale
 70
     0
300
1/16" = 1'-0"
140
0.0625
141
12.0
290
     0
  0
SCALE
  5
5D
102
{ACAD_REACTORS
330
47
102
}
330
47
100
AcDbScale
 70
     0
300
3/32" = 1'-0"
140
0.09375
141
12.0
290
     0
  0
SCALE
  5
5E
102
{ACAD_REACTORS
330
47
102
}
330
47
100
AcDbScale
 70
     0
300
1/8" = 1'-0"
140
0.125
141
12.0
290
     0
  0
SCALE
  5
5F
102
{ACAD_REACTORS
330
47
102
}
330
47
100
AcDbScale
 70
     0
300
3/16" = 1'-0"
140
0.1875
141
12.0
290
     0
  0
SCALE
  5
60
102
{ACAD_REACTORS
330
47
102
}
330
47
100
AcDbScale
 70
     0
300
1/4" = 1'-0"
140
0.25
141
12.0
290
     0
  0
SCALE
  5
61
102
{ACAD_REACTORS
330
47
102
}
330
47
100
AcDbScale
 70
     0
300
3/8" = 1'-0"
140
0.375
141
12.0
290
     0
  0
SCALE
  5
62
102
{ACAD_REACTORS
330
47
102
}
330
47
100
AcDbScale
 70
     0
300
1/2" = 1'-0"
140
0.5
141
12.0
290
     0
  0
SCALE
  5
63
102
{ACAD_REACTORS
330
47
102
}
330
47
100
AcDbScale
 70
     0
300
3/4" = 1'-0"
140
0.75
141
12.0
290
     0
  0
SCALE
  5
64
102
{ACAD_REACTORS
330
47
102
}
330
47
100
AcDbScale
 70
     0
300
1" = 1'-0"
140
1.0
141
12.0
290
     0
  0
SCALE
  5
65
102
{ACAD_REACTORS
330
47
102
}
330
47
100
AcDbScale
 70
     0
300
1-1/2" = 1'-0"
140
1.5
141
12.0
290
     0
  0
SCALE
  5
66
102
{ACAD_REACTORS
330
47
102
}
330
47
100
AcDbScale
 70
     0
300
3" = 1'-0"
140
3.0
141
12.0
290
     0
  0
SCALE
  5
67
102
{ACAD_REACTORS
330
47
102
}
330
47
100
AcDbScale
 70
     0
300
6" = 1'-0"
140
6.0
141
12.0
290
     0
  0
SCALE
  5
68
102
{ACAD_REACTORS
330
47
102
}
330
47
100
AcDbScale
 70
     0
300
1'-0" = 1'-0"
140
12.0
141
12.0
290
     0
  0
TABLESTYLE
  5
6A
102
{ACAD_REACTORS
330
69
102
}
330
69
100
AcDbTableStyle
  3
Standard
 70
     0
 71
     0
 40
0.06
 41
0.06
280
     0
281
     0
  7
Standard
140
0.18
170
     2
 62
     0
 63
   257
283
     0
274
    -2
284
     1
 64
     0
275
    -2
285
     1
 65
     0
276
    -2
286
     1
 66
     0
277
    -2
287
     1
 67
     0
278
    -2
288
     1
 68
     0
279
    -2
289
     1
 69
     0
  7
Standard
140
0.25
170
     5
 62
     0
 63
   257
283
     0
274
    -2
284
     1
 64
     0
275
    -2
285
     1
 65
     0
276
    -2
286
     1
 66
     0
277
    -2
287
     1
 67
     0
278
    -2
288
     1
 68
     0
279
    -2
289
     1
 69
     0
  7
Standard
140
0.18
170
     5
 62
     0
 63
   257
283
     0
274
    -2
284
     1
 64
     0
275
    -2
285
     1
 65
     0
276
    -2
286
     1
 66
     0
277
    -2
287
     1
 67
     0
278
    -2
288
     1
 68
     0
279
    -2
289
     1
 69
     0
  0
VISUALSTYLE
  5
2F
102
{ACAD_REACTORS
330
2A
102
}
102
{ACAD_XDICTIONARY
360
18D
102
}
330
2A
100
AcDbVisualStyle
  2
2dWireframe
 70
     4
 71
     0
 72
     2
 73
     0
 90
        0
 40
0.6
 41
30.0
 62
     5
 63
     7
 74
     1
 91
        4
 64
     7
 65
   257
 75
     1
175
     1
 42
1.0
 92
        0
 66
   257
 43
1.0
 76
     1
 77
     6
 78
     2
 67
     7
 79
     5
170
     0
171
     0
290
     0
174
     0
 93
        1
 44
0.0
173
     0
291
     0
 45
0.0
1001
ACAD
1000
AcDbSavedByObjectVersion
1070
     0
  0
VISUALSTYLE
  5
32
102
{ACAD_REACTORS
330
2A
102
}
102
{ACAD_XDICTIONARY
360
193
102
}
330
2A
100
AcDbVisualStyle
  2
Basic
 70
     7
 71
     1
 72
     0
 73
     1
 90
        0
 40
0.6
 41
30.0
 62
     5
 63
     7
 74
     0
 91
        4
 64
     7
 65
   257
 75
     1
175
     1
 42
1.0
 92
        8
 66
     7
 43
1.0
 76
     1
 77
     6
 78
     2
 67
     7
 79
     5
170
     0
171
     0
290
     0
174
     0
 93
        1
 44
0.0
173
     0
291
     1
 45
0.0
1001
ACAD
1000
AcDbSavedByObjectVersion
1070
     0
  0
VISUALSTYLE
  5
36
102
{ACAD_REACTORS
330
2A
102
}
102
{ACAD_XDICTIONARY
360
19B
102
}
330
2A
100
AcDbVisualStyle
  2
Brighten
 70
    12
 71
     2
 72
     2
 73
     0
 90
        0
 40
0.6
 41
30.0
 62
     5
 63
     7
 74
     1
 91
        4
 64
     7
 65
   257
 75
     1
175
     1
 42
1.0
 92
        8
 66
     7
 43
1.0
 76
     1
 77
     6
 78
     2
 67
     7
 79
     5
170
     0
171
     0
290
     0
174
     0
 93
        1
 44
50.0
173
     0
291
     1
 45
0.0
1001
ACAD
1000
AcDbSavedByObjectVersion
1070
     0
  0
VISUALSTYLE
  5
3A
102
{ACAD_REACTORS
330
2A
102
}
102
{ACAD_XDICTIONARY
360
1A3
102
}
330
2A
100
AcDbVisualStyle
  2
ColorChange
 70
    16
 71
     2
 72
     2
 73
     3
 90
        0
 40
0.6
 41
30.0
 62
     5
 63
     8
 74
     1
 91
        4
 64
     7
 65
   257
 75
     1
175
     1
 42
1.0
 92
        8
 66
     8
 43
1.0
 76
     1
 77
     6
 78
     2
 67
     7
 79
     5
170
     0
171
     0
290
     0
174
     0
 93
        1
 44
0.0
173
     0
291
     1
 45
0.0
1001
ACAD
1000
AcDbSavedByObjectVersion
1070
     0
  0
VISUALSTYLE
  5
34
102
{ACAD_REACTORS
330
2A
102
}
102
{ACAD_XDICTIONARY
360
197
102
}
330
2A
100
AcDbVisualStyle
  2
Conceptual
 70
     9
 71
     3
 72
     2
 73
     0
 90
        0
 40
0.6
 41
30.0
 62
     5
 63
     7
 74
     2
 91
        2
 64
     7
 65
   257
 75
     1
175
     1
 42
179.0
 92
        8
 66
     7
 43
1.0
 76
     1
 77
     6
 78
     2
 67
     7
 79
     3
170
     0
171
     0
290
     0
174
     0
 93
        1
 44
0.0
173
     0
291
     0
 45
0.0
1001
ACAD
1000
AcDbSavedByObjectVersion
1070
     0
  0
VISUALSTYLE
  5
35
102
{ACAD_REACTORS
330
2A
102
}
102
{ACAD_XDICTIONARY
360
199
102
}
330
2A
100
AcDbVisualStyle
  2
Dim
 70
    11
 71
     2
 72
     2
 73
     0
 90
        0
 40
0.6
 41
30.0
 62
     5
 63
     7
 74
     1
 91
        4
 64
     7
 65
   257
 75
     1
175
     1
 42
1.0
 92
        8
 66
     7
 43
1.0
 76
     1
 77
     6
 78
     2
 67
     7
 79
     5
170
     0
171
     0
290
     0
174
     0
 93
        1
 44
-50.0
173
     0
291
     1
 45
0.0
1001
ACAD
1000
AcDbSavedByObjectVersion
1070
     0
  0
VISUALSTYLE
  5
3D
102
{ACAD_REACTORS
330
2A
102
}
102
{ACAD_XDICTIONARY
360
1A9
102
}
330
2A
100
AcDbVisualStyle
  2
EdgeColorOff
 70
    22
 71
     2
 72
     2
 73
     0
 90
        0
 40
0.6
 41
30.0
 62
     5
 63
     7
 74
     1
 91
        4
 64
     7
 65
   257
 75
     1
175
     1
 42
1.0
 92
        8
 66
     7
 43
1.0
 76
     1
 77
     6
 78
     2
 67
     7
 79
     5
170
     0
171
     0
290
     0
174
     0
 93
        1
 44
0.0
173
     0
291
     1
 45
0.0
1001
ACAD
1000
AcDbSavedByObjectVersion
1070
     0
  0
VISUALSTYLE
  5
39
102
{ACAD_REACTORS
330
2A
102
}
102
{ACAD_XDICTIONARY
360
1A1
102
}
330
2A
100
AcDbVisualStyle
  2
Facepattern
 70
    15
 71
     2
 72
     2
 73
     0
 90
        0
 40
0.6
 41
30.0
 62
     5
 63
     7
 74
     1
 91
        4
 64
     7
 65
   257
 75
     1
175
     1
 42
1.0
 92
        8
 66
     7
 43
1.0
 76
     1
 77
     6
 78
     2
 67
     7
 79
     5
170
     0
171
     0
290
     0
174
     0
 93
        1
 44
0.0
173
     0
291
     1
 45
0.0
1001
ACAD
1000
AcDbSavedByObjectVersion
1070
     0
  0
VISUALSTYLE
  5
2B
102
{ACAD_REACTORS
330
2A
102
}
102
{ACAD_XDICTIONARY
360
185
102
}
330
2A
100
AcDbVisualStyle
  2
Flat
 70
     0
 71
     2
 72
     1
 73
     1
 90
        2
 40
0.6
 41
30.0
 62
     5
 63
     7
 74
     0
 91
        0
 64
     7
 65
   257
 75
     1
175
     1
 42
1.0
 92
        8
 66
     7
 43
1.0
 76
     1
 77
     6
 78
     2
 67
     7
 79
     5
170
     0
171
     0
290
     0
174
     0
 93
       13
 44
0.0
173
     0
291
     1
 45
0.0
1001
ACAD
1000
AcDbSavedByObjectVersion
1070
     0
  0
VISUALSTYLE
  5
2C
102
{ACAD_REACTORS
330
2A
102
}
102
{ACAD_XDICTIONARY
360
187
102
}
330
2A
100
AcDbVisualStyle
  2
FlatWithEdges
 70
     1
 71
     2
 72
     1
 73
     1
 90
        2
 40
0.6
 41
30.0
 62
     5
 63
     7
 74
     1
 91
        0
 64
     7
 65
   257
 75
     1
175
     1
 42
1.0
 92
        0
 66
   257
 43
1.0
 76
     1
 77
     6
 78
     2
 67
     7
 79
     5
170
     0
171
     0
290
     0
174
     0
 93
       13
 44
0.0
173
     0
291
     1
 45
0.0
1001
ACAD
1000
AcDbSavedByObjectVersion
1070
     0
  0
VISUALSTYLE
  5
2D
102
{ACAD_REACTORS
330
2A
102
}
102
{ACAD_XDICTIONARY
360
189
102
}
330
2A
100
AcDbVisualStyle
  2
Gouraud
 70
     2
 71
     2
 72
     2
 73
     1
 90
        2
 40
0.6
 41
30.0
 62
     5
 63
     7
 74
     0
 91
        0
 64
     7
 65
   257
 75
     1
175
     1
 42
1.0
 92
        0
 66
     7
 43
1.0
 76
     1
 77
     6
 78
     2
 67
     7
 79
     5
170
     0
171
     0
290
     0
174
     0
 93
       13
 44
0.0
173
     0
291
     1
 45
0.0
1001
ACAD
1000
AcDbSavedByObjectVersion
1070
     0
  0
VISUALSTYLE
  5
2E
102
{ACAD_REACTORS
330
2A
102
}
102
{ACAD_XDICTIONARY
360
18B
102
}
330
2A
100
AcDbVisualStyle
  2
GouraudWithEdges
 70
     3
 71
     2
 72
     2
 73
     1
 90
        2
 40
0.6
 41
30.0
 62
     5
 63
     7
 74
     1
 91
        0
 64
     7
 65
   257
 75
     1
175
     1
 42
1.0
 92
        0
 66
   257
 43
1.0
 76
     1
 77
     6
 78
     2
 67
     7
 79
     5
170
     0
171
     0
290
     0
174
     0
 93
       13
 44
0.0
173
     0
291
     1
 45
0.0
1001
ACAD
1000
AcDbSavedByObjectVersion
1070
     0
  0
VISUALSTYLE
  5
31
102
{ACAD_REACTORS
330
2A
102
}
102
{ACAD_XDICTIONARY
360
191
102
}
330
2A
100
AcDbVisualStyle
  2
Hidden
 70
     6
 71
     1
 72
     2
 73
     2
 90
        0
 40
0.6
 41
30.0
 62
     5
 63
     7
 74
     2
 91
        2
 64
     7
 65
   257
 75
     2
175
     1
 42
40.0
 92
        0
 66
   257
 43
1.0
 76
     1
 77
     6
 78
     2
 67
     7
 79
     3
170
     0
171
     0
290
     0
174
     0
 93
        1
 44
0.0
173
     0
291
     0
 45
0.0
1001
ACAD
1000
AcDbSavedByObjectVersion
1070
     0
  0
VISUALSTYLE
  5
3B
102
{ACAD_REACTORS
330
2A
102
}
102
{ACAD_XDICTIONARY
360
1A5
102
}
330
2A
100
AcDbVisualStyle
  2
JitterOff
 70
    20
 71
     2
 72
     2
 73
     0
 90
        0
 40
0.6
 41
30.0
 62
     5
 63
     7
 74
     1
 91
        4
 64
     7
 65
   257
 75
     1
175
     1
 42
1.0
 92
       10
 66
     7
 43
1.0
 76
     1
 77
     6
 78
     2
 67
     7
 79
     5
170
     0
171
     0
290
     0
174
     0
 93
        1
 44
0.0
173
     0
291
     1
 45
0.0
1001
ACAD
1000
AcDbSavedByObjectVersion
1070
     0
  0
VISUALSTYLE
  5
38
102
{ACAD_REACTORS
330
2A
102
}
102
{ACAD_XDICTIONARY
360
19F
102
}
330
2A
100
AcDbVisualStyle
  2
Linepattern
 70
    14
 71
     2
 72
     2
 73
     0
 90
        0
 40
0.6
 41
30.0
 62
     5
 63
     7
 74
     1
 91
        4
 64
     7
 65
   257
 75
     7
175
     7
 42
1.0
 92
        8
 66
     7
 43
1.0
 76
     1
 77
     6
 78
     2
 67
     7
 79
     5
170
     0
171
     0
290
     0
174
     0
 93
        1
 44
0.0
173
     0
291
     1
 45
0.0
1001
ACAD
1000
AcDbSavedByObjectVersion
1070
     0
  0
VISUALSTYLE
  5
3C
102
{ACAD_REACTORS
330
2A
102
}
102
{ACAD_XDICTIONARY
360
1A7
102
}
330
2A
100
AcDbVisualStyle
  2
OverhangOff
 70
    21
 71
     2
 72
     2
 73
     0
 90
        0
 40
0.6
 41
30.0
 62
     5
 63
     7
 74
     1
 91
        4
 64
     7
 65
   257
 75
     1
175
     1
 42
1.0
 92
        9
 66
     7
 43
1.0
 76
     1
 77
     6
 78
     2
 67
     7
 79
     5
170
     0
171
     0
290
     0
174
     0
 93
        1
 44
0.0
173
     0
291
     1
 45
0.0
1001
ACAD
1000
AcDbSavedByObjectVersion
1070
     0
  0
VISUALSTYLE
  5
33
102
{ACAD_REACTORS
330
2A
102
}
102
{ACAD_XDICTIONARY
360
195
102
}
330
2A
100
AcDbVisualStyle
  2
Realistic
 70
     8
 71
     2
 72
     3
 73
     0
 90
        2
 40
0.6
 41
30.0
 62
     5
 63
     7
 74
     0
 91
        0
 64
     7
 65
   257
 75
     1
175
     1
 42
1.0
 92
        8
 66
   257
 43
1.0
 76
     1
 77
     6
 78
     2
 67
     7
 79
     3
170
     0
171
     0
290
     0
174
     0
 93
       13
 44
0.0
173
     0
291
     0
 45
0.0
1001
ACAD
1000
AcDbSavedByObjectVersion
1070
     0
  0
VISUALSTYLE
  5
42
102
{ACAD_REACTORS
330
2A
102
}
102
{ACAD_XDICTIONARY
360
1B3
102
}
330
2A
100
AcDbVisualStyle
  2
Shaded
 70
    27
 71
     2
 72
     2
 73
     1
 90
        2
 40
0.6
 41
30.0
 62
     5
 63
     7
 74
     0
 91
        4
 64
     7
 65
   257
 75
     1
175
     1
 42
1.0
 92
        8
 66
   257
 43
1.0
 76
     1
 77
     6
 78
     2
 67
     8
 79
     3
170
     0
171
     0
290
     0
174
     0
 93
        5
 44
0.0
173
     0
291
     0
 45
0.0
1001
ACAD
1000
AcDbSavedByObjectVersion
1070
     0
  0
VISUALSTYLE
  5
41
102
{ACAD_REACTORS
330
2A
102
}
102
{ACAD_XDICTIONARY
360
1B1
102
}
330
2A
100
AcDbVisualStyle
  2
Shaded with edges
 70
    26
 71
     2
 72
     2
 73
     1
 90
        2
 40
0.6
 41
30.0
 62
     5
 63
     7
 74
     1
 91
       10
 64
     7
 65
   257
 75
     2
175
     1
 42
1.0
 92
        8
 66
   257
 43
1.0
 76
     1
 77
     6
 78
     2
 67
     7
 79
     3
170
     0
171
     0
290
     0
174
     0
 93
        5
 44
0.0
173
     0
291
     0
 45
0.0
1001
ACAD
1000
AcDbSavedByObjectVersion
1070
     0
  0
VISUALSTYLE
  5
3E
102
{ACAD_REACTORS
330
2A
102
}
102
{ACAD_XDICTIONARY
360
1AB
102
}
330
2A
100
AcDbVisualStyle
  2
Shades of Gray
 70
    23
 71
     2
 72
     2
 73
     3
 90
        0
 40
0.6
 41
30.0
 62
     5
 63
     7
 74
     2
 91
        2
 64
     7
 65
     7
 75
     1
175
     1
 42
40.0
 92
        8
 66
     7
 43
1.0
 76
     1
 77
     6
 78
     2
 67
     7
 79
     3
170
     0
171
     0
290
     0
174
     0
 93
        1
 44
0.0
173
     0
291
     0
 45
0.0
1001
ACAD
1000
AcDbSavedByObjectVersion
1070
     0
  0
VISUALSTYLE
  5
3F
102
{ACAD_REACTORS
330
2A
102
}
102
{ACAD_XDICTIONARY
360
1AD
102
}
330
2A
100
AcDbVisualStyle
  2
Sketchy
 70
    24
 71
     1
 72
     2
 73
     2
 90
        0
 40
0.6
 41
30.0
 62
     5
 63
     7
 74
     2
 91
        2
 64
     7
 65
     7
 75
     1
175
     1
 42
40.0
 92
       11
 66
     7
 43
1.0
 76
     1
 77
     6
 78
     2
 67
     7
 79
     6
170
     0
171
     0
290
     0
174
     0
 93
        1
 44
0.0
173
     0
291
     0
 45
0.0
1001
ACAD
1000
AcDbSavedByObjectVersion
1070
     0
  0
VISUALSTYLE
  5
37
102
{ACAD_REACTORS
330
2A
102
}
102
{ACAD_XDICTIONARY
360
19D
102
}
330
2A
100
AcDbVisualStyle
  2
Thicken
 70
    13
 71
     2
 72
     2
 73
     0
 90
        0
 40
0.6
 41
30.0
 62
     5
 63
     7
 74
     1
 91
        4
 64
     7
 65
   257
 75
     1
175
     1
 42
1.0
 92
       12
 66
     7
 43
1.0
 76
     1
 77
     6
 78
     2
 67
     7
 79
     5
170
     0
171
     0
290
     0
174
     0
 93
        1
 44
0.0
173
     0
291
     1
 45
0.0
1001
ACAD
1000
AcDbSavedByObjectVersion
1070
     0
  0
VISUALSTYLE
  5
30
102
{ACAD_REACTORS
330
2A
102
}
102
{ACAD_XDICTIONARY
360
18F
102
}
330
2A
100
AcDbVisualStyle
  2
Wireframe
 70
     5
 71
     0
 72
     2
 73
     0
 90
        0
 40
0.6
 41
30.0
 62
     5
 63
     7
 74
     1
 91
        4
 64
     7
 65
   257
 75
     1
175
     1
 42
1.0
 92
        0
 66
   257
 43
1.0
 76
     1
 77
     6
 78
     2
 67
     7
 79
     3
170
     0
171
     0
290
     0
174
     0
 93
        1
 44
0.0
173
     0
291
     0
 45
0.0
1001
ACAD
1000
AcDbSavedByObjectVersion
1070
     0
  0
VISUALSTYLE
  5
40
102
{ACAD_REACTORS
330
2A
102
}
102
{ACAD_XDICTIONARY
360
1AF
102
}
330
2A
100
AcDbVisualStyle
  2
X-Ray
 70
    25
 71
     2
 72
     2
 73
     1
 90
        1
 40
0.5
 41
30.0
 62
     5
 63
     7
 74
     1
 91
        0
 64
     7
 65
   257
 75
     1
175
     1
 42
1.0
 92
        8
 66
     7
 43
1.0
 76
     1
 77
     6
 78
     2
 67
     7
 79
     3
170
     0
171
     0
290
     0
174
     0
 93
       13
 44
0.0
173
     0
291
     0
 45
0.0
1001
ACAD
1000
AcDbSavedByObjectVersion
1070
     0
  0
DICTIONARYVAR
  5
183
102
{ACAD_REACTORS
330
17A
102
}
330
17A
100
DictionaryVariables
280
     0
  1
1:1
  0
DICTIONARYVAR
  5
17C
102
{ACAD_REACTORS
330
17A
102
}
330
17A
100
DictionaryVariables
280
     0
  1
Standard
  0
DICTIONARYVAR
  5
17B
102
{ACAD_REACTORS
330
17A
102
}
330
17A
100
DictionaryVariables
280
     0
  1
Standard
  0
DICTIONARYVAR
  5
17F
102
{ACAD_REACTORS
330
17A
102
}
330
17A
100
DictionaryVariables
280
     0
  1
2
  0
DICTIONARYVAR
  5
180
102
{ACAD_REACTORS
330
17A
102
}
330
17A
100
DictionaryVariables
280
     0
  1
1
  0
DICTIONARYVAR
  5
184
102
{ACAD_REACTORS
330
17A
102
}
330
17A
100
DictionaryVariables
280
     0
  1
1
  0
DICTIONARY
  5
1B7
330
45
100
AcDbDictionary
280
     1
281
     1
  3
ACAD_XREC_ROUNDTRIP
360
1B8
  0
DICTIONARY
  5
1B5
330
44
100
AcDbDictionary
280
     1
281
     1
  3
ACAD_XREC_ROUNDTRIP
360
1B6
  0
DICTIONARY
  5
1B9
330
46
100
AcDbDictionary
280
     1
281
     1
  3
ACAD_XREC_ROUNDTRIP
360
1BA
  0
DICTIONARY
  5
1BC
330
6C
100
AcDbDictionary
280
     1
281
     1
  3
ACAD_XREC_ROUNDTRIP
360
1BD
  0
DICTIONARY
  5
18D
330
2F
100
AcDbDictionary
280
     1
281
     1
  3
ACAD_XREC_ROUNDTRIP
360
18E
  0
DICTIONARY
  5
193
330
32
100
AcDbDictionary
280
     1
281
     1
  3
ACAD_XREC_ROUNDTRIP
360
194
  0
DICTIONARY
  5
19B
330
36
100
AcDbDictionary
280
     1
281
     1
  3
ACAD_XREC_ROUNDTRIP
360
19C
  0
DICTIONARY
  5
1A3
330
3A
100
AcDbDictionary
280
     1
281
     1
  3
ACAD_XREC_ROUNDTRIP
360
1A4
  0
DICTIONARY
  5
197
330
34
100
AcDbDictionary
280
     1
281
     1
  3
ACAD_XREC_ROUNDTRIP
360
198
  0
DICTIONARY
  5
199
330
35
100
AcDbDictionary
280
     1
281
     1
  3
ACAD_XREC_ROUNDTRIP
360
19A
  0
DICTIONARY
  5
1A9
330
3D
100
AcDbDictionary
280
     1
281
     1
  3
ACAD_XREC_ROUNDTRIP
360
1AA
  0
DICTIONARY
  5
1A1
330
39
100
AcDbDictionary
280
     1
281
     1
  3
ACAD_XREC_ROUNDTRIP
360
1A2
  0
DICTIONARY
  5
185
330
2B
100
AcDbDictionary
280
     1
281
     1
  3
ACAD_XREC_ROUNDTRIP
360
186
  0
DICTIONARY
  5
187
330
2C
100
AcDbDictionary
280
     1
281
     1
  3
ACAD_XREC_ROUNDTRIP
360
188
  0
DICTIONARY
  5
189
330
2D
100
AcDbDictionary
280
     1
281
     1
  3
ACAD_XREC_ROUNDTRIP
360
18A
  0
DICTIONARY
  5
18B
330
2E
100
AcDbDictionary
280
     1
281
     1
  3
ACAD_XREC_ROUNDTRIP
360
18C
  0
DICTIONARY
  5
191
330
31
100
AcDbDictionary
280
     1
281
     1
  3
ACAD_XREC_ROUNDTRIP
360
192
  0
DICTIONARY
  5
1A5
330
3B
100
AcDbDictionary
280
     1
281
     1
  3
ACAD_XREC_ROUNDTRIP
360
1A6
  0
DICTIONARY
  5
19F
330
38
100
AcDbDictionary
280
     1
281
     1
  3
ACAD_XREC_ROUNDTRIP
360
1A0
  0
DICTIONARY
  5
1A7
330
3C
100
AcDbDictionary
280
     1
281
     1
  3
ACAD_XREC_ROUNDTRIP
360
1A8
  0
DICTIONARY
  5
195
330
33
100
AcDbDictionary
280
     1
281
     1
  3
ACAD_XREC_ROUNDTRIP
360
196
  0
DICTIONARY
  5
1B3
330
42
100
AcDbDictionary
280
     1
281
     1
  3
ACAD_XREC_ROUNDTRIP
360
1B4
  0
DICTIONARY
  5
1B1
330
41
100
AcDbDictionary
280
     1
281
     1
  3
ACAD_XREC_ROUNDTRIP
360
1B2
  0
DICTIONARY
  5
1AB
330
3E
100
AcDbDictionary
280
     1
281
     1
  3
ACAD_XREC_ROUNDTRIP
360
1AC
  0
DICTIONARY
  5
1AD
330
3F
100
AcDbDictionary
280
     1
281
     1
  3
ACAD_XREC_ROUNDTRIP
360
1AE
  0
DICTIONARY
  5
19D
330
37
100
AcDbDictionary
280
     1
281
     1
  3
ACAD_XREC_ROUNDTRIP
360
19E
  0
DICTIONARY
  5
18F
330
30
100
AcDbDictionary
280
     1
281
     1
  3
ACAD_XREC_ROUNDTRIP
360
190
  0
DICTIONARY
  5
1AF
330
40
100
AcDbDictionary
280
     1
281
     1
  3
ACAD_XREC_ROUNDTRIP
360
1B0
  0
XRECORD
  5
1B8
102
{ACAD_REACTORS
330
1B7
102
}
330
1B7
100
AcDbXrecord
280
     1
102
MATERIAL
148
0.0
149
0.0
149
0.0
 93
        0
 94
      127
282
     0
 72
     1
 77
     1
171
     1
175
     1
179
     1
273
     0
  0
XRECORD
  5
1B6
102
{ACAD_REACTORS
330
1B5
102
}
330
1B5
100
AcDbXrecord
280
     1
102
MATERIAL
148
0.0
149
0.0
149
0.0
 93
        0
 94
      127
282
     0
 72
     1
 77
     1
171
     1
175
     1
179
     1
273
     0
  0
XRECORD
  5
1BA
102
{ACAD_REACTORS
330
1B9
102
}
330
1B9
100
AcDbXrecord
280
     1
102
MATERIAL
148
0.0
149
0.0
149
0.0
 93
        0
 94
      127
282
     0
 72
     1
 77
     1
171
     1
175
     1
179
     1
273
     0
  0
XRECORD
  5
1BD
102
{ACAD_REACTORS
330
1BC
102
}
330
1BC
100
AcDbXrecord
280
     1
102
ACAD_ROUNDTRIP_2010_MLEADER_STYLE
  0
XRECORD
  5
18E
102
{ACAD_REACTORS
330
18D
102
}
330
18D
100
AcDbXrecord
280
     1
102
RTVSPropertyOp0
 70
     1
102
RTVSPropertyOp1
 70
     1
102
RTVSPropertyOp2
 70
     1
102
RTVSPropertyOp3
 70
     1
102
RTVSPropertyOp4
 70
     1
102
RTVSPropertyOp5
 70
     1
102
RTVSPropertyOp6
 70
     1
102
RTVSPropertyOp7
 70
     1
102
RTVSPropertyOp8
 70
     1
102
RTVSPropertyOp9
 70
     1
102
RTVSPropertyOp10
 70
     1
102
RTVSPropertyOp11
 70
     1
102
RTVSPropertyOp12
 70
     1
102
RTVSPropertyOp13
 70
     1
102
RTVSPropertyOp14
 70
     1
102
RTVSPropertyOp15
 70
     1
102
RTVSPropertyOp16
 70
     1
102
RTVSPropertyOp17
 70
     1
102
RTVSPropertyOp18
 70
     1
102
RTVSPropertyOp19
 70
     1
102
RTVSPropertyOp20
 70
     1
102
RTVSPropertyOp21
 70
     1
102
RTVSPropertyOp22
 70
     1
102
RTVSPropertyOp23
 70
     1
102
RTVSPropertyOp24
 70
     1
102
RTVSPropertyOp25
 70
     1
102
RTVSPropertyOp26
 70
     1
102
RTVSPropertyOp27
 70
     1
102
RTVSPropertyOp28
 70
     1
102
RTVSPropertyOp29
 70
     1
102
RTVSPropertyOp30
 70
     1
102
RTVSPropertyOp31
 70
     1
102
RTVSPropertyOp32
 70
     1
102
RTVSPropertyOp33
 70
     1
102
RTVSPropertyOp34
 70
     1
102
RTVSPropertyOp35
 70
     1
102
RTVSPropertyOp36
 70
     1
102
RTVSPropertyOp37
 70
     1
102
RTVSPropertyOp38
 70
     1
102
RTVSPropertyOp39
 70
     1
102
RTVSPropertyOp40
 70
     1
102
RTVSPropertyOp41
 70
     1
102
RTVSPropertyOp42
 70
     1
102
RTVSPropertyOp43
 70
     1
102
RTVSPropertyOp44
 70
     1
102
RTVSPropertyOp45
 70
     1
102
RTVSPropertyOp46
 70
     1
102
RTVSPropertyOp47
 70
     1
102
RTVSPropertyOp48
 70
     1
102
RTVSPropertyOp49
 70
     1
102
RTVSPropertyOp50
 70
     1
102
RTVSPropertyOp51
 70
     0
102
RTVSPropertyOp52
 70
     0
102
RTVSPropertyOp53
 70
     1
102
RTVSPropertyOp54
 70
     1
102
RTVSPropertyOp55
 70
     1
102
RTVSPropertyOp56
 70
     1
102
RTVSPropertyOp57
 70
     1
102
RTVSPost2010Prop28
280
     1
102
RTVSPost2010PropOp28
 70
     1
102
RTVSPost2010Prop29
280
     1
102
RTVSPost2010PropOp29
 70
     1
102
RTVSPost2010Prop30
280
     0
102
RTVSPost2010PropOp30
 70
     1
102
RTVSPost2010Prop31
280
     0
102
RTVSPost2010PropOp31
 70
     1
102
RTVSPost2010Prop32
280
     0
102
RTVSPost2010PropOp32
 70
     1
102
RTVSPost2010Prop33
280
     0
102
RTVSPost2010PropOp33
 70
     1
102
RTVSPost2010Prop34
280
     0
102
RTVSPost2010PropOp34
 70
     1
102
RTVSPost2010Prop35
280
     0
102
RTVSPost2010PropOp35
 70
     1
102
RTVSPost2010Prop36
280
     0
102
RTVSPost2010PropOp36
 70
     1
102
RTVSPost2010Prop37
 90
       50
102
RTVSPost2010PropOp37
 70
     1
102
RTVSPost2010Prop38
140
0.0
102
RTVSPost2010PropOp38
 70
     1
102
RTVSPost2010Prop39
140
1.0
102
RTVSPost2010PropOp39
 70
     1
102
RTVSPost2010Prop40
 90
        0
102
RTVSPost2010PropOp40
 70
     1
102
RTVSPost2010Prop41ColorIndex
 90
       18
102
RTVSPost2010Prop41ColorRGB
 90
        0
102
RTVSPost2010PropOp41
 70
     1
102
RTVSPost2010Prop42
 90
       50
102
RTVSPost2010PropOp42
 70
     1
102
RTVSPost2010Prop43
 90
        3
102
RTVSPost2010PropOp43
 70
     1
102
RTVSPost2010Prop44ColorIndex
 90
        5
102
RTVSPost2010Prop44ColorRGB
 90
      255
102
RTVSPost2010PropOp44
 70
     1
102
RTVSPost2010Prop45
280
     0
102
RTVSPost2010PropOp45
 70
     1
102
RTVSPost2010Prop46
 90
       50
102
RTVSPost2010PropOp46
 70
     1
102
RTVSPost2010Prop47
 90
       50
102
RTVSPost2010PropOp47
 70
     1
102
RTVSPost2010Prop48
 90
       50
102
RTVSPost2010PropOp48
 70
     1
102
RTVSPost2010Prop49
280
     0
102
RTVSPost2010PropOp49
 70
     1
102
RTVSPost2010Prop50
 90
       50
102
RTVSPost2010PropOp50
 70
     1
102
RTVSPost2010Prop51ColorIndex
 90
      256
102
RTVSPost2010Prop51ColorRGB
 90
-16777216
102
RTVSPost2010PropOp51
 70
     0
102
RTVSPost2010Prop52
140
1.0
102
RTVSPost2010PropOp52
 70
     0
102
RTVSPost2010Prop53
 90
        2
102
RTVSPost2010PropOp53
 70
     1
102
RTVSPost2010Prop54
  1
strokes_ogs.tif
102
RTVSPost2010PropOp54
 70
     1
102
RTVSPost2010Prop55
280
     0
102
RTVSPost2010PropOp55
 70
     1
102
RTVSPost2010Prop56
140
1.0
102
RTVSPost2010PropOp56
 70
     1
102
RTVSPost2010Prop57
140
1.0
102
RTVSPost2010PropOp57
 70
     1
  0
XRECORD
  5
194
102
{ACAD_REACTORS
330
193
102
}
330
193
100
AcDbXrecord
280
     1
102
RTVSPropertyOp0
 70
     1
102
RTVSPropertyOp1
 70
     1
102
RTVSPropertyOp2
 70
     1
102
RTVSPropertyOp3
 70
     1
102
RTVSPropertyOp4
 70
     1
102
RTVSPropertyOp5
 70
     1
102
RTVSPropertyOp6
 70
     1
102
RTVSPropertyOp7
 70
     1
102
RTVSPropertyOp8
 70
     1
102
RTVSPropertyOp9
 70
     1
102
RTVSPropertyOp10
 70
     1
102
RTVSPropertyOp11
 70
     1
102
RTVSPropertyOp12
 70
     1
102
RTVSPropertyOp13
 70
     1
102
RTVSPropertyOp14
 70
     1
102
RTVSPropertyOp15
 70
     1
102
RTVSPropertyOp16
 70
     1
102
RTVSPropertyOp17
 70
     1
102
RTVSPropertyOp18
 70
     1
102
RTVSPropertyOp19
 70
     1
102
RTVSPropertyOp20
 70
     1
102
RTVSPropertyOp21
 70
     1
102
RTVSPropertyOp22
 70
     1
102
RTVSPropertyOp23
 70
     1
102
RTVSPropertyOp24
 70
     1
102
RTVSPropertyOp25
 70
     1
102
RTVSPropertyOp26
 70
     1
102
RTVSPropertyOp27
 70
     1
102
RTVSPropertyOp28
 70
     1
102
RTVSPropertyOp29
 70
     1
102
RTVSPropertyOp30
 70
     1
102
RTVSPropertyOp31
 70
     1
102
RTVSPropertyOp32
 70
     1
102
RTVSPropertyOp33
 70
     1
102
RTVSPropertyOp34
 70
     1
102
RTVSPropertyOp35
 70
     1
102
RTVSPropertyOp36
 70
     1
102
RTVSPropertyOp37
 70
     1
102
RTVSPropertyOp38
 70
     1
102
RTVSPropertyOp39
 70
     1
102
RTVSPropertyOp40
 70
     1
102
RTVSPropertyOp41
 70
     1
102
RTVSPropertyOp42
 70
     1
102
RTVSPropertyOp43
 70
     1
102
RTVSPropertyOp44
 70
     1
102
RTVSPropertyOp45
 70
     1
102
RTVSPropertyOp46
 70
     1
102
RTVSPropertyOp47
 70
     1
102
RTVSPropertyOp48
 70
     1
102
RTVSPropertyOp49
 70
     1
102
RTVSPropertyOp50
 70
     1
102
RTVSPropertyOp51
 70
     0
102
RTVSPropertyOp52
 70
     0
102
RTVSPropertyOp53
 70
     1
102
RTVSPropertyOp54
 70
     1
102
RTVSPropertyOp55
 70
     1
102
RTVSPropertyOp56
 70
     1
102
RTVSPropertyOp57
 70
     1
102
RTVSPost2010Prop28
280
     0
102
RTVSPost2010PropOp28
 70
     1
102
RTVSPost2010Prop29
280
     1
102
RTVSPost2010PropOp29
 70
     1
102
RTVSPost2010Prop30
280
     1
102
RTVSPost2010PropOp30
 70
     1
102
RTVSPost2010Prop31
280
     0
102
RTVSPost2010PropOp31
 70
     1
102
RTVSPost2010Prop32
280
     0
102
RTVSPost2010PropOp32
 70
     1
102
RTVSPost2010Prop33
280
     0
102
RTVSPost2010PropOp33
 70
     1
102
RTVSPost2010Prop34
280
     0
102
RTVSPost2010PropOp34
 70
     1
102
RTVSPost2010Prop35
280
     0
102
RTVSPost2010PropOp35
 70
     1
102
RTVSPost2010Prop36
280
     0
102
RTVSPost2010PropOp36
 70
     1
102
RTVSPost2010Prop37
 90
       50
102
RTVSPost2010PropOp37
 70
     1
102
RTVSPost2010Prop38
140
0.0
102
RTVSPost2010PropOp38
 70
     1
102
RTVSPost2010Prop39
140
1.0
102
RTVSPost2010PropOp39
 70
     1
102
RTVSPost2010Prop40
 90
        0
102
RTVSPost2010PropOp40
 70
     1
102
RTVSPost2010Prop41ColorIndex
 90
       18
102
RTVSPost2010Prop41ColorRGB
 90
        0
102
RTVSPost2010PropOp41
 70
     1
102
RTVSPost2010Prop42
 90
       50
102
RTVSPost2010PropOp42
 70
     1
102
RTVSPost2010Prop43
 90
        3
102
RTVSPost2010PropOp43
 70
     1
102
RTVSPost2010Prop44ColorIndex
 90
        5
102
RTVSPost2010Prop44ColorRGB
 90
      255
102
RTVSPost2010PropOp44
 70
     1
102
RTVSPost2010Prop45
280
     0
102
RTVSPost2010PropOp45
 70
     1
102
RTVSPost2010Prop46
 90
       50
102
RTVSPost2010PropOp46
 70
     1
102
RTVSPost2010Prop47
 90
       50
102
RTVSPost2010PropOp47
 70
     1
102
RTVSPost2010Prop48
 90
       50
102
RTVSPost2010PropOp48
 70
     1
102
RTVSPost2010Prop49
280
     0
102
RTVSPost2010PropOp49
 70
     1
102
RTVSPost2010Prop50
 90
       50
102
RTVSPost2010PropOp50
 70
     1
102
RTVSPost2010Prop51ColorIndex
 90
      256
102
RTVSPost2010Prop51ColorRGB
 90
-16777216
102
RTVSPost2010PropOp51
 70
     0
102
RTVSPost2010Prop52
140
1.0
102
RTVSPost2010PropOp52
 70
     0
102
RTVSPost2010Prop53
 90
        2
102
RTVSPost2010PropOp53
 70
     1
102
RTVSPost2010Prop54
  1
strokes_ogs.tif
102
RTVSPost2010PropOp54
 70
     1
102
RTVSPost2010Prop55
280
     0
102
RTVSPost2010PropOp55
 70
     1
102
RTVSPost2010Prop56
140
1.0
102
RTVSPost2010PropOp56
 70
     1
102
RTVSPost2010Prop57
140
1.0
102
RTVSPost2010PropOp57
 70
     1
  0
XRECORD
  5
19C
102
{ACAD_REACTORS
330
19B
102
}
330
19B
100
AcDbXrecord
280
     1
102
RTVSPropertyOp0
 70
     1
102
RTVSPropertyOp1
 70
     1
102
RTVSPropertyOp2
 70
     1
102
RTVSPropertyOp3
 70
     1
102
RTVSPropertyOp4
 70
     1
102
RTVSPropertyOp5
 70
     1
102
RTVSPropertyOp6
 70
     1
102
RTVSPropertyOp7
 70
     1
102
RTVSPropertyOp8
 70
     1
102
RTVSPropertyOp9
 70
     1
102
RTVSPropertyOp10
 70
     1
102
RTVSPropertyOp11
 70
     1
102
RTVSPropertyOp12
 70
     1
102
RTVSPropertyOp13
 70
     1
102
RTVSPropertyOp14
 70
     1
102
RTVSPropertyOp15
 70
     1
102
RTVSPropertyOp16
 70
     1
102
RTVSPropertyOp17
 70
     1
102
RTVSPropertyOp18
 70
     1
102
RTVSPropertyOp19
 70
     1
102
RTVSPropertyOp20
 70
     1
102
RTVSPropertyOp21
 70
     1
102
RTVSPropertyOp22
 70
     1
102
RTVSPropertyOp23
 70
     1
102
RTVSPropertyOp24
 70
     1
102
RTVSPropertyOp25
 70
     1
102
RTVSPropertyOp26
 70
     1
102
RTVSPropertyOp27
 70
     1
102
RTVSPropertyOp28
 70
     1
102
RTVSPropertyOp29
 70
     1
102
RTVSPropertyOp30
 70
     1
102
RTVSPropertyOp31
 70
     1
102
RTVSPropertyOp32
 70
     1
102
RTVSPropertyOp33
 70
     1
102
RTVSPropertyOp34
 70
     1
102
RTVSPropertyOp35
 70
     1
102
RTVSPropertyOp36
 70
     1
102
RTVSPropertyOp37
 70
     1
102
RTVSPropertyOp38
 70
     1
102
RTVSPropertyOp39
 70
     1
102
RTVSPropertyOp40
 70
     1
102
RTVSPropertyOp41
 70
     1
102
RTVSPropertyOp42
 70
     1
102
RTVSPropertyOp43
 70
     1
102
RTVSPropertyOp44
 70
     1
102
RTVSPropertyOp45
 70
     1
102
RTVSPropertyOp46
 70
     1
102
RTVSPropertyOp47
 70
     1
102
RTVSPropertyOp48
 70
     1
102
RTVSPropertyOp49
 70
     1
102
RTVSPropertyOp50
 70
     1
102
RTVSPropertyOp51
 70
     0
102
RTVSPropertyOp52
 70
     0
102
RTVSPropertyOp53
 70
     1
102
RTVSPropertyOp54
 70
     1
102
RTVSPropertyOp55
 70
     1
102
RTVSPropertyOp56
 70
     1
102
RTVSPropertyOp57
 70
     1
102
RTVSPost2010Prop28
280
     0
102
RTVSPost2010PropOp28
 70
     1
102
RTVSPost2010Prop29
280
     1
102
RTVSPost2010PropOp29
 70
     1
102
RTVSPost2010Prop30
280
     1
102
RTVSPost2010PropOp30
 70
     1
102
RTVSPost2010Prop31
280
     0
102
RTVSPost2010PropOp31
 70
     1
102
RTVSPost2010Prop32
280
     0
102
RTVSPost2010PropOp32
 70
     1
102
RTVSPost2010Prop33
280
     0
102
RTVSPost2010PropOp33
 70
     1
102
RTVSPost2010Prop34
280
     0
102
RTVSPost2010PropOp34
 70
     1
102
RTVSPost2010Prop35
280
     0
102
RTVSPost2010PropOp35
 70
     1
102
RTVSPost2010Prop36
280
     0
102
RTVSPost2010PropOp36
 70
     1
102
RTVSPost2010Prop37
 90
       50
102
RTVSPost2010PropOp37
 70
     1
102
RTVSPost2010Prop38
140
0.0
102
RTVSPost2010PropOp38
 70
     1
102
RTVSPost2010Prop39
140
1.0
102
RTVSPost2010PropOp39
 70
     1
102
RTVSPost2010Prop40
 90
        0
102
RTVSPost2010PropOp40
 70
     1
102
RTVSPost2010Prop41ColorIndex
 90
       18
102
RTVSPost2010Prop41ColorRGB
 90
        0
102
RTVSPost2010PropOp41
 70
     1
102
RTVSPost2010Prop42
 90
       50
102
RTVSPost2010PropOp42
 70
     1
102
RTVSPost2010Prop43
 90
        3
102
RTVSPost2010PropOp43
 70
     1
102
RTVSPost2010Prop44ColorIndex
 90
        5
102
RTVSPost2010Prop44ColorRGB
 90
      255
102
RTVSPost2010PropOp44
 70
     1
102
RTVSPost2010Prop45
280
     0
102
RTVSPost2010PropOp45
 70
     1
102
RTVSPost2010Prop46
 90
       50
102
RTVSPost2010PropOp46
 70
     1
102
RTVSPost2010Prop47
 90
       50
102
RTVSPost2010PropOp47
 70
     1
102
RTVSPost2010Prop48
 90
       50
102
RTVSPost2010PropOp48
 70
     1
102
RTVSPost2010Prop49
280
     0
102
RTVSPost2010PropOp49
 70
     1
102
RTVSPost2010Prop50
 90
       50
102
RTVSPost2010PropOp50
 70
     1
102
RTVSPost2010Prop51ColorIndex
 90
      256
102
RTVSPost2010Prop51ColorRGB
 90
-16777216
102
RTVSPost2010PropOp51
 70
     0
102
RTVSPost2010Prop52
140
1.0
102
RTVSPost2010PropOp52
 70
     0
102
RTVSPost2010Prop53
 90
        2
102
RTVSPost2010PropOp53
 70
     1
102
RTVSPost2010Prop54
  1
strokes_ogs.tif
102
RTVSPost2010PropOp54
 70
     1
102
RTVSPost2010Prop55
280
     0
102
RTVSPost2010PropOp55
 70
     1
102
RTVSPost2010Prop56
140
1.0
102
RTVSPost2010PropOp56
 70
     1
102
RTVSPost2010Prop57
140
1.0
102
RTVSPost2010PropOp57
 70
     1
  0
XRECORD
  5
1A4
102
{ACAD_REACTORS
330
1A3
102
}
330
1A3
100
AcDbXrecord
280
     1
102
RTVSPropertyOp0
 70
     1
102
RTVSPropertyOp1
 70
     1
102
RTVSPropertyOp2
 70
     1
102
RTVSPropertyOp3
 70
     1
102
RTVSPropertyOp4
 70
     1
102
RTVSPropertyOp5
 70
     1
102
RTVSPropertyOp6
 70
     1
102
RTVSPropertyOp7
 70
     1
102
RTVSPropertyOp8
 70
     1
102
RTVSPropertyOp9
 70
     1
102
RTVSPropertyOp10
 70
     1
102
RTVSPropertyOp11
 70
     1
102
RTVSPropertyOp12
 70
     1
102
RTVSPropertyOp13
 70
     1
102
RTVSPropertyOp14
 70
     1
102
RTVSPropertyOp15
 70
     1
102
RTVSPropertyOp16
 70
     1
102
RTVSPropertyOp17
 70
     1
102
RTVSPropertyOp18
 70
     1
102
RTVSPropertyOp19
 70
     1
102
RTVSPropertyOp20
 70
     1
102
RTVSPropertyOp21
 70
     1
102
RTVSPropertyOp22
 70
     1
102
RTVSPropertyOp23
 70
     1
102
RTVSPropertyOp24
 70
     1
102
RTVSPropertyOp25
 70
     1
102
RTVSPropertyOp26
 70
     1
102
RTVSPropertyOp27
 70
     1
102
RTVSPropertyOp28
 70
     1
102
RTVSPropertyOp29
 70
     1
102
RTVSPropertyOp30
 70
     1
102
RTVSPropertyOp31
 70
     1
102
RTVSPropertyOp32
 70
     1
102
RTVSPropertyOp33
 70
     1
102
RTVSPropertyOp34
 70
     1
102
RTVSPropertyOp35
 70
     1
102
RTVSPropertyOp36
 70
     1
102
RTVSPropertyOp37
 70
     1
102
RTVSPropertyOp38
 70
     1
102
RTVSPropertyOp39
 70
     1
102
RTVSPropertyOp40
 70
     1
102
RTVSPropertyOp41
 70
     1
102
RTVSPropertyOp42
 70
     1
102
RTVSPropertyOp43
 70
     1
102
RTVSPropertyOp44
 70
     1
102
RTVSPropertyOp45
 70
     1
102
RTVSPropertyOp46
 70
     1
102
RTVSPropertyOp47
 70
     1
102
RTVSPropertyOp48
 70
     1
102
RTVSPropertyOp49
 70
     1
102
RTVSPropertyOp50
 70
     1
102
RTVSPropertyOp51
 70
     0
102
RTVSPropertyOp52
 70
     0
102
RTVSPropertyOp53
 70
     1
102
RTVSPropertyOp54
 70
     1
102
RTVSPropertyOp55
 70
     1
102
RTVSPropertyOp56
 70
     1
102
RTVSPropertyOp57
 70
     1
102
RTVSPost2010Prop28
280
     0
102
RTVSPost2010PropOp28
 70
     1
102
RTVSPost2010Prop29
280
     1
102
RTVSPost2010PropOp29
 70
     1
102
RTVSPost2010Prop30
280
     1
102
RTVSPost2010PropOp30
 70
     1
102
RTVSPost2010Prop31
280
     0
102
RTVSPost2010PropOp31
 70
     1
102
RTVSPost2010Prop32
280
     0
102
RTVSPost2010PropOp32
 70
     1
102
RTVSPost2010Prop33
280
     0
102
RTVSPost2010PropOp33
 70
     1
102
RTVSPost2010Prop34
280
     0
102
RTVSPost2010PropOp34
 70
     1
102
RTVSPost2010Prop35
280
     0
102
RTVSPost2010PropOp35
 70
     1
102
RTVSPost2010Prop36
280
     0
102
RTVSPost2010PropOp36
 70
     1
102
RTVSPost2010Prop37
 90
       50
102
RTVSPost2010PropOp37
 70
     1
102
RTVSPost2010Prop38
140
0.0
102
RTVSPost2010PropOp38
 70
     1
102
RTVSPost2010Prop39
140
1.0
102
RTVSPost2010PropOp39
 70
     1
102
RTVSPost2010Prop40
 90
        0
102
RTVSPost2010PropOp40
 70
     1
102
RTVSPost2010Prop41ColorIndex
 90
       18
102
RTVSPost2010Prop41ColorRGB
 90
        0
102
RTVSPost2010PropOp41
 70
     1
102
RTVSPost2010Prop42
 90
       50
102
RTVSPost2010PropOp42
 70
     1
102
RTVSPost2010Prop43
 90
        3
102
RTVSPost2010PropOp43
 70
     1
102
RTVSPost2010Prop44ColorIndex
 90
        5
102
RTVSPost2010Prop44ColorRGB
 90
      255
102
RTVSPost2010PropOp44
 70
     1
102
RTVSPost2010Prop45
280
     0
102
RTVSPost2010PropOp45
 70
     1
102
RTVSPost2010Prop46
 90
       50
102
RTVSPost2010PropOp46
 70
     1
102
RTVSPost2010Prop47
 90
       50
102
RTVSPost2010PropOp47
 70
     1
102
RTVSPost2010Prop48
 90
       50
102
RTVSPost2010PropOp48
 70
     1
102
RTVSPost2010Prop49
280
     0
102
RTVSPost2010PropOp49
 70
     1
102
RTVSPost2010Prop50
 90
       50
102
RTVSPost2010PropOp50
 70
     1
102
RTVSPost2010Prop51ColorIndex
 90
      256
102
RTVSPost2010Prop51ColorRGB
 90
-16777216
102
RTVSPost2010PropOp51
 70
     0
102
RTVSPost2010Prop52
140
1.0
102
RTVSPost2010PropOp52
 70
     0
102
RTVSPost2010Prop53
 90
        2
102
RTVSPost2010PropOp53
 70
     1
102
RTVSPost2010Prop54
  1
strokes_ogs.tif
102
RTVSPost2010PropOp54
 70
     1
102
RTVSPost2010Prop55
280
     0
102
RTVSPost2010PropOp55
 70
     1
102
RTVSPost2010Prop56
140
1.0
102
RTVSPost2010PropOp56
 70
     1
102
RTVSPost2010Prop57
140
1.0
102
RTVSPost2010PropOp57
 70
     1
  0
XRECORD
  5
198
102
{ACAD_REACTORS
330
197
102
}
330
197
100
AcDbXrecord
280
     1
102
RTVSPropertyOp0
 70
     1
102
RTVSPropertyOp1
 70
     1
102
RTVSPropertyOp2
 70
     1
102
RTVSPropertyOp3
 70
     1
102
RTVSPropertyOp4
 70
     1
102
RTVSPropertyOp5
 70
     1
102
RTVSPropertyOp6
 70
     1
102
RTVSPropertyOp7
 70
     1
102
RTVSPropertyOp8
 70
     1
102
RTVSPropertyOp9
 70
     1
102
RTVSPropertyOp10
 70
     1
102
RTVSPropertyOp11
 70
     1
102
RTVSPropertyOp12
 70
     1
102
RTVSPropertyOp13
 70
     1
102
RTVSPropertyOp14
 70
     1
102
RTVSPropertyOp15
 70
     1
102
RTVSPropertyOp16
 70
     1
102
RTVSPropertyOp17
 70
     1
102
RTVSPropertyOp18
 70
     1
102
RTVSPropertyOp19
 70
     1
102
RTVSPropertyOp20
 70
     1
102
RTVSPropertyOp21
 70
     1
102
RTVSPropertyOp22
 70
     1
102
RTVSPropertyOp23
 70
     1
102
RTVSPropertyOp24
 70
     1
102
RTVSPropertyOp25
 70
     1
102
RTVSPropertyOp26
 70
     1
102
RTVSPropertyOp27
 70
     1
102
RTVSPropertyOp28
 70
     1
102
RTVSPropertyOp29
 70
     1
102
RTVSPropertyOp30
 70
     1
102
RTVSPropertyOp31
 70
     1
102
RTVSPropertyOp32
 70
     1
102
RTVSPropertyOp33
 70
     1
102
RTVSPropertyOp34
 70
     1
102
RTVSPropertyOp35
 70
     1
102
RTVSPropertyOp36
 70
     1
102
RTVSPropertyOp37
 70
     1
102
RTVSPropertyOp38
 70
     1
102
RTVSPropertyOp39
 70
     1
102
RTVSPropertyOp40
 70
     1
102
RTVSPropertyOp41
 70
     1
102
RTVSPropertyOp42
 70
     1
102
RTVSPropertyOp43
 70
     1
102
RTVSPropertyOp44
 70
     1
102
RTVSPropertyOp45
 70
     1
102
RTVSPropertyOp46
 70
     1
102
RTVSPropertyOp47
 70
     1
102
RTVSPropertyOp48
 70
     1
102
RTVSPropertyOp49
 70
     1
102
RTVSPropertyOp50
 70
     1
102
RTVSPropertyOp51
 70
     0
102
RTVSPropertyOp52
 70
     0
102
RTVSPropertyOp53
 70
     1
102
RTVSPropertyOp54
 70
     1
102
RTVSPropertyOp55
 70
     1
102
RTVSPropertyOp56
 70
     1
102
RTVSPropertyOp57
 70
     1
102
RTVSPost2010Prop28
280
     0
102
RTVSPost2010PropOp28
 70
     1
102
RTVSPost2010Prop29
280
     1
102
RTVSPost2010PropOp29
 70
     1
102
RTVSPost2010Prop30
280
     1
102
RTVSPost2010PropOp30
 70
     1
102
RTVSPost2010Prop31
280
     0
102
RTVSPost2010PropOp31
 70
     1
102
RTVSPost2010Prop32
280
     0
102
RTVSPost2010PropOp32
 70
     1
102
RTVSPost2010Prop33
280
     0
102
RTVSPost2010PropOp33
 70
     1
102
RTVSPost2010Prop34
280
     0
102
RTVSPost2010PropOp34
 70
     1
102
RTVSPost2010Prop35
280
     0
102
RTVSPost2010PropOp35
 70
     1
102
RTVSPost2010Prop36
280
     0
102
RTVSPost2010PropOp36
 70
     1
102
RTVSPost2010Prop37
 90
       50
102
RTVSPost2010PropOp37
 70
     1
102
RTVSPost2010Prop38
140
0.0
102
RTVSPost2010PropOp38
 70
     1
102
RTVSPost2010Prop39
140
1.0
102
RTVSPost2010PropOp39
 70
     1
102
RTVSPost2010Prop40
 90
        0
102
RTVSPost2010PropOp40
 70
     1
102
RTVSPost2010Prop41ColorIndex
 90
       18
102
RTVSPost2010Prop41ColorRGB
 90
        0
102
RTVSPost2010PropOp41
 70
     1
102
RTVSPost2010Prop42
 90
       50
102
RTVSPost2010PropOp42
 70
     1
102
RTVSPost2010Prop43
 90
        3
102
RTVSPost2010PropOp43
 70
     1
102
RTVSPost2010Prop44ColorIndex
 90
        5
102
RTVSPost2010Prop44ColorRGB
 90
      255
102
RTVSPost2010PropOp44
 70
     1
102
RTVSPost2010Prop45
280
     0
102
RTVSPost2010PropOp45
 70
     1
102
RTVSPost2010Prop46
 90
       50
102
RTVSPost2010PropOp46
 70
     1
102
RTVSPost2010Prop47
 90
       50
102
RTVSPost2010PropOp47
 70
     1
102
RTVSPost2010Prop48
 90
       50
102
RTVSPost2010PropOp48
 70
     1
102
RTVSPost2010Prop49
280
     0
102
RTVSPost2010PropOp49
 70
     1
102
RTVSPost2010Prop50
 90
       50
102
RTVSPost2010PropOp50
 70
     1
102
RTVSPost2010Prop51ColorIndex
 90
      256
102
RTVSPost2010Prop51ColorRGB
 90
-16777216
102
RTVSPost2010PropOp51
 70
     0
102
RTVSPost2010Prop52
140
1.0
102
RTVSPost2010PropOp52
 70
     0
102
RTVSPost2010Prop53
 90
        2
102
RTVSPost2010PropOp53
 70
     1
102
RTVSPost2010Prop54
  1
strokes_ogs.tif
102
RTVSPost2010PropOp54
 70
     1
102
RTVSPost2010Prop55
280
     0
102
RTVSPost2010PropOp55
 70
     1
102
RTVSPost2010Prop56
140
1.0
102
RTVSPost2010PropOp56
 70
     1
102
RTVSPost2010Prop57
140
1.0
102
RTVSPost2010PropOp57
 70
     1
  0
XRECORD
  5
19A
102
{ACAD_REACTORS
330
199
102
}
330
199
100
AcDbXrecord
280
     1
102
RTVSPropertyOp0
 70
     1
102
RTVSPropertyOp1
 70
     1
102
RTVSPropertyOp2
 70
     1
102
RTVSPropertyOp3
 70
     1
102
RTVSPropertyOp4
 70
     1
102
RTVSPropertyOp5
 70
     1
102
RTVSPropertyOp6
 70
     1
102
RTVSPropertyOp7
 70
     1
102
RTVSPropertyOp8
 70
     1
102
RTVSPropertyOp9
 70
     1
102
RTVSPropertyOp10
 70
     1
102
RTVSPropertyOp11
 70
     1
102
RTVSPropertyOp12
 70
     1
102
RTVSPropertyOp13
 70
     1
102
RTVSPropertyOp14
 70
     1
102
RTVSPropertyOp15
 70
     1
102
RTVSPropertyOp16
 70
     1
102
RTVSPropertyOp17
 70
     1
102
RTVSPropertyOp18
 70
     1
102
RTVSPropertyOp19
 70
     1
102
RTVSPropertyOp20
 70
     1
102
RTVSPropertyOp21
 70
     1
102
RTVSPropertyOp22
 70
     1
102
RTVSPropertyOp23
 70
     1
102
RTVSPropertyOp24
 70
     1
102
RTVSPropertyOp25
 70
     1
102
RTVSPropertyOp26
 70
     1
102
RTVSPropertyOp27
 70
     1
102
RTVSPropertyOp28
 70
     1
102
RTVSPropertyOp29
 70
     1
102
RTVSPropertyOp30
 70
     1
102
RTVSPropertyOp31
 70
     1
102
RTVSPropertyOp32
 70
     1
102
RTVSPropertyOp33
 70
     1
102
RTVSPropertyOp34
 70
     1
102
RTVSPropertyOp35
 70
     1
102
RTVSPropertyOp36
 70
     1
102
RTVSPropertyOp37
 70
     1
102
RTVSPropertyOp38
 70
     1
102
RTVSPropertyOp39
 70
     1
102
RTVSPropertyOp40
 70
     1
102
RTVSPropertyOp41
 70
     1
102
RTVSPropertyOp42
 70
     1
102
RTVSPropertyOp43
 70
     1
102
RTVSPropertyOp44
 70
     1
102
RTVSPropertyOp45
 70
     1
102
RTVSPropertyOp46
 70
     1
102
RTVSPropertyOp47
 70
     1
102
RTVSPropertyOp48
 70
     1
102
RTVSPropertyOp49
 70
     1
102
RTVSPropertyOp50
 70
     1
102
RTVSPropertyOp51
 70
     0
102
RTVSPropertyOp52
 70
     0
102
RTVSPropertyOp53
 70
     1
102
RTVSPropertyOp54
 70
     1
102
RTVSPropertyOp55
 70
     1
102
RTVSPropertyOp56
 70
     1
102
RTVSPropertyOp57
 70
     1
102
RTVSPost2010Prop28
280
     0
102
RTVSPost2010PropOp28
 70
     1
102
RTVSPost2010Prop29
280
     1
102
RTVSPost2010PropOp29
 70
     1
102
RTVSPost2010Prop30
280
     1
102
RTVSPost2010PropOp30
 70
     1
102
RTVSPost2010Prop31
280
     0
102
RTVSPost2010PropOp31
 70
     1
102
RTVSPost2010Prop32
280
     0
102
RTVSPost2010PropOp32
 70
     1
102
RTVSPost2010Prop33
280
     0
102
RTVSPost2010PropOp33
 70
     1
102
RTVSPost2010Prop34
280
     0
102
RTVSPost2010PropOp34
 70
     1
102
RTVSPost2010Prop35
280
     0
102
RTVSPost2010PropOp35
 70
     1
102
RTVSPost2010Prop36
280
     0
102
RTVSPost2010PropOp36
 70
     1
102
RTVSPost2010Prop37
 90
       50
102
RTVSPost2010PropOp37
 70
     1
102
RTVSPost2010Prop38
140
0.0
102
RTVSPost2010PropOp38
 70
     1
102
RTVSPost2010Prop39
140
1.0
102
RTVSPost2010PropOp39
 70
     1
102
RTVSPost2010Prop40
 90
        0
102
RTVSPost2010PropOp40
 70
     1
102
RTVSPost2010Prop41ColorIndex
 90
       18
102
RTVSPost2010Prop41ColorRGB
 90
        0
102
RTVSPost2010PropOp41
 70
     1
102
RTVSPost2010Prop42
 90
       50
102
RTVSPost2010PropOp42
 70
     1
102
RTVSPost2010Prop43
 90
        3
102
RTVSPost2010PropOp43
 70
     1
102
RTVSPost2010Prop44ColorIndex
 90
        5
102
RTVSPost2010Prop44ColorRGB
 90
      255
102
RTVSPost2010PropOp44
 70
     1
102
RTVSPost2010Prop45
280
     0
102
RTVSPost2010PropOp45
 70
     1
102
RTVSPost2010Prop46
 90
       50
102
RTVSPost2010PropOp46
 70
     1
102
RTVSPost2010Prop47
 90
       50
102
RTVSPost2010PropOp47
 70
     1
102
RTVSPost2010Prop48
 90
       50
102
RTVSPost2010PropOp48
 70
     1
102
RTVSPost2010Prop49
280
     0
102
RTVSPost2010PropOp49
 70
     1
102
RTVSPost2010Prop50
 90
       50
102
RTVSPost2010PropOp50
 70
     1
102
RTVSPost2010Prop51ColorIndex
 90
      256
102
RTVSPost2010Prop51ColorRGB
 90
-16777216
102
RTVSPost2010PropOp51
 70
     0
102
RTVSPost2010Prop52
140
1.0
102
RTVSPost2010PropOp52
 70
     0
102
RTVSPost2010Prop53
 90
        2
102
RTVSPost2010PropOp53
 70
     1
102
RTVSPost2010Prop54
  1
strokes_ogs.tif
102
RTVSPost2010PropOp54
 70
     1
102
RTVSPost2010Prop55
280
     0
102
RTVSPost2010PropOp55
 70
     1
102
RTVSPost2010Prop56
140
1.0
102
RTVSPost2010PropOp56
 70
     1
102
RTVSPost2010Prop57
140
1.0
102
RTVSPost2010PropOp57
 70
     1
  0
XRECORD
  5
1AA
102
{ACAD_REACTORS
330
1A9
102
}
330
1A9
100
AcDbXrecord
280
     1
102
RTVSPropertyOp0
 70
     0
102
RTVSPropertyOp1
 70
     0
102
RTVSPropertyOp2
 70
     0
102
RTVSPropertyOp3
 70
     0
102
RTVSPropertyOp4
 70
     0
102
RTVSPropertyOp5
 70
     0
102
RTVSPropertyOp6
 70
     0
102
RTVSPropertyOp7
 70
     0
102
RTVSPropertyOp8
 70
     0
102
RTVSPropertyOp9
 70
     0
102
RTVSPropertyOp10
 70
     0
102
RTVSPropertyOp11
 70
     0
102
RTVSPropertyOp12
 70
     0
102
RTVSPropertyOp13
 70
     0
102
RTVSPropertyOp14
 70
     2
102
RTVSPropertyOp15
 70
     0
102
RTVSPropertyOp16
 70
     0
102
RTVSPropertyOp17
 70
     0
102
RTVSPropertyOp18
 70
     0
102
RTVSPropertyOp19
 70
     0
102
RTVSPropertyOp20
 70
     0
102
RTVSPropertyOp21
 70
     0
102
RTVSPropertyOp22
 70
     0
102
RTVSPropertyOp23
 70
     0
102
RTVSPropertyOp24
 70
     0
102
RTVSPropertyOp25
 70
     0
102
RTVSPropertyOp26
 70
     0
102
RTVSPropertyOp27
 70
     0
102
RTVSPropertyOp28
 70
     0
102
RTVSPropertyOp29
 70
     0
102
RTVSPropertyOp30
 70
     0
102
RTVSPropertyOp31
 70
     0
102
RTVSPropertyOp32
 70
     0
102
RTVSPropertyOp33
 70
     0
102
RTVSPropertyOp34
 70
     0
102
RTVSPropertyOp35
 70
     0
102
RTVSPropertyOp36
 70
     0
102
RTVSPropertyOp37
 70
     0
102
RTVSPropertyOp38
 70
     0
102
RTVSPropertyOp39
 70
     0
102
RTVSPropertyOp40
 70
     0
102
RTVSPropertyOp41
 70
     0
102
RTVSPropertyOp42
 70
     0
102
RTVSPropertyOp43
 70
     0
102
RTVSPropertyOp44
 70
     0
102
RTVSPropertyOp45
 70
     0
102
RTVSPropertyOp46
 70
     0
102
RTVSPropertyOp47
 70
     0
102
RTVSPropertyOp48
 70
     0
102
RTVSPropertyOp49
 70
     0
102
RTVSPropertyOp50
 70
     0
102
RTVSPropertyOp51
 70
     0
102
RTVSPropertyOp52
 70
     0
102
RTVSPropertyOp53
 70
     0
102
RTVSPropertyOp54
 70
     0
102
RTVSPropertyOp55
 70
     0
102
RTVSPropertyOp56
 70
     0
102
RTVSPropertyOp57
 70
     0
102
RTVSPost2010Prop28
280
     0
102
RTVSPost2010PropOp28
 70
     0
102
RTVSPost2010Prop29
280
     1
102
RTVSPost2010PropOp29
 70
     0
102
RTVSPost2010Prop30
280
     1
102
RTVSPost2010PropOp30
 70
     0
102
RTVSPost2010Prop31
280
     0
102
RTVSPost2010PropOp31
 70
     0
102
RTVSPost2010Prop32
280
     0
102
RTVSPost2010PropOp32
 70
     0
102
RTVSPost2010Prop33
280
     0
102
RTVSPost2010PropOp33
 70
     0
102
RTVSPost2010Prop34
280
     0
102
RTVSPost2010PropOp34
 70
     0
102
RTVSPost2010Prop35
280
     0
102
RTVSPost2010PropOp35
 70
     0
102
RTVSPost2010Prop36
280
     0
102
RTVSPost2010PropOp36
 70
     0
102
RTVSPost2010Prop37
 90
       50
102
RTVSPost2010PropOp37
 70
     0
102
RTVSPost2010Prop38
140
0.0
102
RTVSPost2010PropOp38
 70
     0
102
RTVSPost2010Prop39
140
1.0
102
RTVSPost2010PropOp39
 70
     0
102
RTVSPost2010Prop40
 90
        0
102
RTVSPost2010PropOp40
 70
     0
102
RTVSPost2010Prop41ColorIndex
 90
       18
102
RTVSPost2010Prop41ColorRGB
 90
        0
102
RTVSPost2010PropOp41
 70
     0
102
RTVSPost2010Prop42
 90
       50
102
RTVSPost2010PropOp42
 70
     0
102
RTVSPost2010Prop43
 90
        3
102
RTVSPost2010PropOp43
 70
     0
102
RTVSPost2010Prop44ColorIndex
 90
        5
102
RTVSPost2010Prop44ColorRGB
 90
      255
102
RTVSPost2010PropOp44
 70
     0
102
RTVSPost2010Prop45
280
     0
102
RTVSPost2010PropOp45
 70
     0
102
RTVSPost2010Prop46
 90
       50
102
RTVSPost2010PropOp46
 70
     0
102
RTVSPost2010Prop47
 90
       50
102
RTVSPost2010PropOp47
 70
     0
102
RTVSPost2010Prop48
 90
       50
102
RTVSPost2010PropOp48
 70
     0
102
RTVSPost2010Prop49
280
     0
102
RTVSPost2010PropOp49
 70
     0
102
RTVSPost2010Prop50
 90
       50
102
RTVSPost2010PropOp50
 70
     0
102
RTVSPost2010Prop51ColorIndex
 90
      256
102
RTVSPost2010Prop51ColorRGB
 90
-16777216
102
RTVSPost2010PropOp51
 70
     0
102
RTVSPost2010Prop52
140
1.0
102
RTVSPost2010PropOp52
 70
     0
102
RTVSPost2010Prop53
 90
        2
102
RTVSPost2010PropOp53
 70
     0
102
RTVSPost2010Prop54
  1
strokes_ogs.tif
102
RTVSPost2010PropOp54
 70
     0
102
RTVSPost2010Prop55
280
     0
102
RTVSPost2010PropOp55
 70
     0
102
RTVSPost2010Prop56
140
1.0
102
RTVSPost2010PropOp56
 70
     0
102
RTVSPost2010Prop57
140
1.0
102
RTVSPost2010PropOp57
 70
     0
  0
XRECORD
  5
1A2
102
{ACAD_REACTORS
330
1A1
102
}
330
1A1
100
AcDbXrecord
280
     1
102
RTVSPropertyOp0
 70
     1
102
RTVSPropertyOp1
 70
     1
102
RTVSPropertyOp2
 70
     1
102
RTVSPropertyOp3
 70
     1
102
RTVSPropertyOp4
 70
     1
102
RTVSPropertyOp5
 70
     1
102
RTVSPropertyOp6
 70
     1
102
RTVSPropertyOp7
 70
     1
102
RTVSPropertyOp8
 70
     1
102
RTVSPropertyOp9
 70
     1
102
RTVSPropertyOp10
 70
     1
102
RTVSPropertyOp11
 70
     1
102
RTVSPropertyOp12
 70
     1
102
RTVSPropertyOp13
 70
     1
102
RTVSPropertyOp14
 70
     1
102
RTVSPropertyOp15
 70
     1
102
RTVSPropertyOp16
 70
     1
102
RTVSPropertyOp17
 70
     1
102
RTVSPropertyOp18
 70
     1
102
RTVSPropertyOp19
 70
     1
102
RTVSPropertyOp20
 70
     1
102
RTVSPropertyOp21
 70
     1
102
RTVSPropertyOp22
 70
     1
102
RTVSPropertyOp23
 70
     1
102
RTVSPropertyOp24
 70
     1
102
RTVSPropertyOp25
 70
     1
102
RTVSPropertyOp26
 70
     1
102
RTVSPropertyOp27
 70
     1
102
RTVSPropertyOp28
 70
     1
102
RTVSPropertyOp29
 70
     1
102
RTVSPropertyOp30
 70
     1
102
RTVSPropertyOp31
 70
     1
102
RTVSPropertyOp32
 70
     1
102
RTVSPropertyOp33
 70
     1
102
RTVSPropertyOp34
 70
     1
102
RTVSPropertyOp35
 70
     1
102
RTVSPropertyOp36
 70
     1
102
RTVSPropertyOp37
 70
     1
102
RTVSPropertyOp38
 70
     1
102
RTVSPropertyOp39
 70
     1
102
RTVSPropertyOp40
 70
     1
102
RTVSPropertyOp41
 70
     1
102
RTVSPropertyOp42
 70
     1
102
RTVSPropertyOp43
 70
     1
102
RTVSPropertyOp44
 70
     1
102
RTVSPropertyOp45
 70
     1
102
RTVSPropertyOp46
 70
     1
102
RTVSPropertyOp47
 70
     1
102
RTVSPropertyOp48
 70
     1
102
RTVSPropertyOp49
 70
     1
102
RTVSPropertyOp50
 70
     1
102
RTVSPropertyOp51
 70
     0
102
RTVSPropertyOp52
 70
     0
102
RTVSPropertyOp53
 70
     1
102
RTVSPropertyOp54
 70
     1
102
RTVSPropertyOp55
 70
     1
102
RTVSPropertyOp56
 70
     1
102
RTVSPropertyOp57
 70
     1
102
RTVSPost2010Prop28
280
     0
102
RTVSPost2010PropOp28
 70
     1
102
RTVSPost2010Prop29
280
     1
102
RTVSPost2010PropOp29
 70
     1
102
RTVSPost2010Prop30
280
     1
102
RTVSPost2010PropOp30
 70
     1
102
RTVSPost2010Prop31
280
     0
102
RTVSPost2010PropOp31
 70
     1
102
RTVSPost2010Prop32
280
     0
102
RTVSPost2010PropOp32
 70
     1
102
RTVSPost2010Prop33
280
     0
102
RTVSPost2010PropOp33
 70
     1
102
RTVSPost2010Prop34
280
     0
102
RTVSPost2010PropOp34
 70
     1
102
RTVSPost2010Prop35
280
     0
102
RTVSPost2010PropOp35
 70
     1
102
RTVSPost2010Prop36
280
     0
102
RTVSPost2010PropOp36
 70
     1
102
RTVSPost2010Prop37
 90
       50
102
RTVSPost2010PropOp37
 70
     1
102
RTVSPost2010Prop38
140
0.0
102
RTVSPost2010PropOp38
 70
     1
102
RTVSPost2010Prop39
140
1.0
102
RTVSPost2010PropOp39
 70
     1
102
RTVSPost2010Prop40
 90
        0
102
RTVSPost2010PropOp40
 70
     1
102
RTVSPost2010Prop41ColorIndex
 90
       18
102
RTVSPost2010Prop41ColorRGB
 90
        0
102
RTVSPost2010PropOp41
 70
     1
102
RTVSPost2010Prop42
 90
       50
102
RTVSPost2010PropOp42
 70
     1
102
RTVSPost2010Prop43
 90
        3
102
RTVSPost2010PropOp43
 70
     1
102
RTVSPost2010Prop44ColorIndex
 90
        5
102
RTVSPost2010Prop44ColorRGB
 90
      255
102
RTVSPost2010PropOp44
 70
     1
102
RTVSPost2010Prop45
280
     0
102
RTVSPost2010PropOp45
 70
     1
102
RTVSPost2010Prop46
 90
       50
102
RTVSPost2010PropOp46
 70
     1
102
RTVSPost2010Prop47
 90
       50
102
RTVSPost2010PropOp47
 70
     1
102
RTVSPost2010Prop48
 90
       50
102
RTVSPost2010PropOp48
 70
     1
102
RTVSPost2010Prop49
280
     0
102
RTVSPost2010PropOp49
 70
     1
102
RTVSPost2010Prop50
 90
       50
102
RTVSPost2010PropOp50
 70
     1
102
RTVSPost2010Prop51ColorIndex
 90
      256
102
RTVSPost2010Prop51ColorRGB
 90
-16777216
102
RTVSPost2010PropOp51
 70
     0
102
RTVSPost2010Prop52
140
1.0
102
RTVSPost2010PropOp52
 70
     0
102
RTVSPost2010Prop53
 90
        2
102
RTVSPost2010PropOp53
 70
     1
102
RTVSPost2010Prop54
  1
strokes_ogs.tif
102
RTVSPost2010PropOp54
 70
     1
102
RTVSPost2010Prop55
280
     0
102
RTVSPost2010PropOp55
 70
     1
102
RTVSPost2010Prop56
140
1.0
102
RTVSPost2010PropOp56
 70
     1
102
RTVSPost2010Prop57
140
1.0
102
RTVSPost2010PropOp57
 70
     1
  0
XRECORD
  5
186
102
{ACAD_REACTORS
330
185
102
}
330
185
100
AcDbXrecord
280
     1
102
RTVSPropertyOp0
 70
     1
102
RTVSPropertyOp1
 70
     1
102
RTVSPropertyOp2
 70
     1
102
RTVSPropertyOp3
 70
     1
102
RTVSPropertyOp4
 70
     1
102
RTVSPropertyOp5
 70
     1
102
RTVSPropertyOp6
 70
     1
102
RTVSPropertyOp7
 70
     1
102
RTVSPropertyOp8
 70
     1
102
RTVSPropertyOp9
 70
     1
102
RTVSPropertyOp10
 70
     1
102
RTVSPropertyOp11
 70
     1
102
RTVSPropertyOp12
 70
     1
102
RTVSPropertyOp13
 70
     1
102
RTVSPropertyOp14
 70
     1
102
RTVSPropertyOp15
 70
     1
102
RTVSPropertyOp16
 70
     1
102
RTVSPropertyOp17
 70
     1
102
RTVSPropertyOp18
 70
     1
102
RTVSPropertyOp19
 70
     1
102
RTVSPropertyOp20
 70
     1
102
RTVSPropertyOp21
 70
     1
102
RTVSPropertyOp22
 70
     1
102
RTVSPropertyOp23
 70
     1
102
RTVSPropertyOp24
 70
     1
102
RTVSPropertyOp25
 70
     1
102
RTVSPropertyOp26
 70
     1
102
RTVSPropertyOp27
 70
     1
102
RTVSPropertyOp28
 70
     1
102
RTVSPropertyOp29
 70
     1
102
RTVSPropertyOp30
 70
     1
102
RTVSPropertyOp31
 70
     1
102
RTVSPropertyOp32
 70
     1
102
RTVSPropertyOp33
 70
     1
102
RTVSPropertyOp34
 70
     1
102
RTVSPropertyOp35
 70
     1
102
RTVSPropertyOp36
 70
     1
102
RTVSPropertyOp37
 70
     1
102
RTVSPropertyOp38
 70
     1
102
RTVSPropertyOp39
 70
     1
102
RTVSPropertyOp40
 70
     1
102
RTVSPropertyOp41
 70
     1
102
RTVSPropertyOp42
 70
     1
102
RTVSPropertyOp43
 70
     1
102
RTVSPropertyOp44
 70
     1
102
RTVSPropertyOp45
 70
     1
102
RTVSPropertyOp46
 70
     1
102
RTVSPropertyOp47
 70
     1
102
RTVSPropertyOp48
 70
     1
102
RTVSPropertyOp49
 70
     1
102
RTVSPropertyOp50
 70
     1
102
RTVSPropertyOp51
 70
     0
102
RTVSPropertyOp52
 70
     0
102
RTVSPropertyOp53
 70
     1
102
RTVSPropertyOp54
 70
     1
102
RTVSPropertyOp55
 70
     1
102
RTVSPropertyOp56
 70
     1
102
RTVSPropertyOp57
 70
     1
102
RTVSPost2010Prop28
280
     0
102
RTVSPost2010PropOp28
 70
     1
102
RTVSPost2010Prop29
280
     1
102
RTVSPost2010PropOp29
 70
     1
102
RTVSPost2010Prop30
280
     1
102
RTVSPost2010PropOp30
 70
     1
102
RTVSPost2010Prop31
280
     0
102
RTVSPost2010PropOp31
 70
     1
102
RTVSPost2010Prop32
280
     0
102
RTVSPost2010PropOp32
 70
     1
102
RTVSPost2010Prop33
280
     0
102
RTVSPost2010PropOp33
 70
     1
102
RTVSPost2010Prop34
280
     0
102
RTVSPost2010PropOp34
 70
     1
102
RTVSPost2010Prop35
280
     0
102
RTVSPost2010PropOp35
 70
     1
102
RTVSPost2010Prop36
280
     0
102
RTVSPost2010PropOp36
 70
     1
102
RTVSPost2010Prop37
 90
       50
102
RTVSPost2010PropOp37
 70
     1
102
RTVSPost2010Prop38
140
0.0
102
RTVSPost2010PropOp38
 70
     1
102
RTVSPost2010Prop39
140
1.0
102
RTVSPost2010PropOp39
 70
     1
102
RTVSPost2010Prop40
 90
        0
102
RTVSPost2010PropOp40
 70
     1
102
RTVSPost2010Prop41ColorIndex
 90
       18
102
RTVSPost2010Prop41ColorRGB
 90
        0
102
RTVSPost2010PropOp41
 70
     1
102
RTVSPost2010Prop42
 90
       50
102
RTVSPost2010PropOp42
 70
     1
102
RTVSPost2010Prop43
 90
        3
102
RTVSPost2010PropOp43
 70
     1
102
RTVSPost2010Prop44ColorIndex
 90
        5
102
RTVSPost2010Prop44ColorRGB
 90
      255
102
RTVSPost2010PropOp44
 70
     1
102
RTVSPost2010Prop45
280
     0
102
RTVSPost2010PropOp45
 70
     1
102
RTVSPost2010Prop46
 90
       50
102
RTVSPost2010PropOp46
 70
     1
102
RTVSPost2010Prop47
 90
       50
102
RTVSPost2010PropOp47
 70
     1
102
RTVSPost2010Prop48
 90
       50
102
RTVSPost2010PropOp48
 70
     1
102
RTVSPost2010Prop49
280
     0
102
RTVSPost2010PropOp49
 70
     1
102
RTVSPost2010Prop50
 90
       50
102
RTVSPost2010PropOp50
 70
     1
102
RTVSPost2010Prop51ColorIndex
 90
      256
102
RTVSPost2010Prop51ColorRGB
 90
-16777216
102
RTVSPost2010PropOp51
 70
     0
102
RTVSPost2010Prop52
140
1.0
102
RTVSPost2010PropOp52
 70
     0
102
RTVSPost2010Prop53
 90
        2
102
RTVSPost2010PropOp53
 70
     1
102
RTVSPost2010Prop54
  1
strokes_ogs.tif
102
RTVSPost2010PropOp54
 70
     1
102
RTVSPost2010Prop55
280
     0
102
RTVSPost2010PropOp55
 70
     1
102
RTVSPost2010Prop56
140
1.0
102
RTVSPost2010PropOp56
 70
     1
102
RTVSPost2010Prop57
140
1.0
102
RTVSPost2010PropOp57
 70
     1
  0
XRECORD
  5
188
102
{ACAD_REACTORS
330
187
102
}
330
187
100
AcDbXrecord
280
     1
102
RTVSPropertyOp0
 70
     1
102
RTVSPropertyOp1
 70
     1
102
RTVSPropertyOp2
 70
     1
102
RTVSPropertyOp3
 70
     1
102
RTVSPropertyOp4
 70
     1
102
RTVSPropertyOp5
 70
     1
102
RTVSPropertyOp6
 70
     1
102
RTVSPropertyOp7
 70
     1
102
RTVSPropertyOp8
 70
     1
102
RTVSPropertyOp9
 70
     1
102
RTVSPropertyOp10
 70
     1
102
RTVSPropertyOp11
 70
     1
102
RTVSPropertyOp12
 70
     1
102
RTVSPropertyOp13
 70
     1
102
RTVSPropertyOp14
 70
     1
102
RTVSPropertyOp15
 70
     1
102
RTVSPropertyOp16
 70
     1
102
RTVSPropertyOp17
 70
     1
102
RTVSPropertyOp18
 70
     1
102
RTVSPropertyOp19
 70
     1
102
RTVSPropertyOp20
 70
     1
102
RTVSPropertyOp21
 70
     1
102
RTVSPropertyOp22
 70
     1
102
RTVSPropertyOp23
 70
     1
102
RTVSPropertyOp24
 70
     1
102
RTVSPropertyOp25
 70
     1
102
RTVSPropertyOp26
 70
     1
102
RTVSPropertyOp27
 70
     1
102
RTVSPropertyOp28
 70
     1
102
RTVSPropertyOp29
 70
     1
102
RTVSPropertyOp30
 70
     1
102
RTVSPropertyOp31
 70
     1
102
RTVSPropertyOp32
 70
     1
102
RTVSPropertyOp33
 70
     1
102
RTVSPropertyOp34
 70
     1
102
RTVSPropertyOp35
 70
     1
102
RTVSPropertyOp36
 70
     1
102
RTVSPropertyOp37
 70
     1
102
RTVSPropertyOp38
 70
     1
102
RTVSPropertyOp39
 70
     1
102
RTVSPropertyOp40
 70
     1
102
RTVSPropertyOp41
 70
     1
102
RTVSPropertyOp42
 70
     1
102
RTVSPropertyOp43
 70
     1
102
RTVSPropertyOp44
 70
     1
102
RTVSPropertyOp45
 70
     1
102
RTVSPropertyOp46
 70
     1
102
RTVSPropertyOp47
 70
     1
102
RTVSPropertyOp48
 70
     1
102
RTVSPropertyOp49
 70
     1
102
RTVSPropertyOp50
 70
     1
102
RTVSPropertyOp51
 70
     0
102
RTVSPropertyOp52
 70
     0
102
RTVSPropertyOp53
 70
     1
102
RTVSPropertyOp54
 70
     1
102
RTVSPropertyOp55
 70
     1
102
RTVSPropertyOp56
 70
     1
102
RTVSPropertyOp57
 70
     1
102
RTVSPost2010Prop28
280
     0
102
RTVSPost2010PropOp28
 70
     1
102
RTVSPost2010Prop29
280
     1
102
RTVSPost2010PropOp29
 70
     1
102
RTVSPost2010Prop30
280
     1
102
RTVSPost2010PropOp30
 70
     1
102
RTVSPost2010Prop31
280
     0
102
RTVSPost2010PropOp31
 70
     1
102
RTVSPost2010Prop32
280
     0
102
RTVSPost2010PropOp32
 70
     1
102
RTVSPost2010Prop33
280
     0
102
RTVSPost2010PropOp33
 70
     1
102
RTVSPost2010Prop34
280
     0
102
RTVSPost2010PropOp34
 70
     1
102
RTVSPost2010Prop35
280
     0
102
RTVSPost2010PropOp35
 70
     1
102
RTVSPost2010Prop36
280
     0
102
RTVSPost2010PropOp36
 70
     1
102
RTVSPost2010Prop37
 90
       50
102
RTVSPost2010PropOp37
 70
     1
102
RTVSPost2010Prop38
140
0.0
102
RTVSPost2010PropOp38
 70
     1
102
RTVSPost2010Prop39
140
1.0
102
RTVSPost2010PropOp39
 70
     1
102
RTVSPost2010Prop40
 90
        0
102
RTVSPost2010PropOp40
 70
     1
102
RTVSPost2010Prop41ColorIndex
 90
       18
102
RTVSPost2010Prop41ColorRGB
 90
        0
102
RTVSPost2010PropOp41
 70
     1
102
RTVSPost2010Prop42
 90
       50
102
RTVSPost2010PropOp42
 70
     1
102
RTVSPost2010Prop43
 90
        3
102
RTVSPost2010PropOp43
 70
     1
102
RTVSPost2010Prop44ColorIndex
 90
        5
102
RTVSPost2010Prop44ColorRGB
 90
      255
102
RTVSPost2010PropOp44
 70
     1
102
RTVSPost2010Prop45
280
     0
102
RTVSPost2010PropOp45
 70
     1
102
RTVSPost2010Prop46
 90
       50
102
RTVSPost2010PropOp46
 70
     1
102
RTVSPost2010Prop47
 90
       50
102
RTVSPost2010PropOp47
 70
     1
102
RTVSPost2010Prop48
 90
       50
102
RTVSPost2010PropOp48
 70
     1
102
RTVSPost2010Prop49
280
     0
102
RTVSPost2010PropOp49
 70
     1
102
RTVSPost2010Prop50
 90
       50
102
RTVSPost2010PropOp50
 70
     1
102
RTVSPost2010Prop51ColorIndex
 90
      256
102
RTVSPost2010Prop51ColorRGB
 90
-16777216
102
RTVSPost2010PropOp51
 70
     0
102
RTVSPost2010Prop52
140
1.0
102
RTVSPost2010PropOp52
 70
     0
102
RTVSPost2010Prop53
 90
        2
102
RTVSPost2010PropOp53
 70
     1
102
RTVSPost2010Prop54
  1
strokes_ogs.tif
102
RTVSPost2010PropOp54
 70
     1
102
RTVSPost2010Prop55
280
     0
102
RTVSPost2010PropOp55
 70
     1
102
RTVSPost2010Prop56
140
1.0
102
RTVSPost2010PropOp56
 70
     1
102
RTVSPost2010Prop57
140
1.0
102
RTVSPost2010PropOp57
 70
     1
  0
XRECORD
  5
18A
102
{ACAD_REACTORS
330
189
102
}
330
189
100
AcDbXrecord
280
     1
102
RTVSPropertyOp0
 70
     1
102
RTVSPropertyOp1
 70
     1
102
RTVSPropertyOp2
 70
     1
102
RTVSPropertyOp3
 70
     1
102
RTVSPropertyOp4
 70
     1
102
RTVSPropertyOp5
 70
     1
102
RTVSPropertyOp6
 70
     1
102
RTVSPropertyOp7
 70
     1
102
RTVSPropertyOp8
 70
     1
102
RTVSPropertyOp9
 70
     1
102
RTVSPropertyOp10
 70
     1
102
RTVSPropertyOp11
 70
     1
102
RTVSPropertyOp12
 70
     1
102
RTVSPropertyOp13
 70
     1
102
RTVSPropertyOp14
 70
     1
102
RTVSPropertyOp15
 70
     1
102
RTVSPropertyOp16
 70
     1
102
RTVSPropertyOp17
 70
     1
102
RTVSPropertyOp18
 70
     1
102
RTVSPropertyOp19
 70
     1
102
RTVSPropertyOp20
 70
     1
102
RTVSPropertyOp21
 70
     1
102
RTVSPropertyOp22
 70
     1
102
RTVSPropertyOp23
 70
     1
102
RTVSPropertyOp24
 70
     1
102
RTVSPropertyOp25
 70
     1
102
RTVSPropertyOp26
 70
     1
102
RTVSPropertyOp27
 70
     1
102
RTVSPropertyOp28
 70
     1
102
RTVSPropertyOp29
 70
     1
102
RTVSPropertyOp30
 70
     1
102
RTVSPropertyOp31
 70
     1
102
RTVSPropertyOp32
 70
     1
102
RTVSPropertyOp33
 70
     1
102
RTVSPropertyOp34
 70
     1
102
RTVSPropertyOp35
 70
     1
102
RTVSPropertyOp36
 70
     1
102
RTVSPropertyOp37
 70
     1
102
RTVSPropertyOp38
 70
     1
102
RTVSPropertyOp39
 70
     1
102
RTVSPropertyOp40
 70
     1
102
RTVSPropertyOp41
 70
     1
102
RTVSPropertyOp42
 70
     1
102
RTVSPropertyOp43
 70
     1
102
RTVSPropertyOp44
 70
     1
102
RTVSPropertyOp45
 70
     1
102
RTVSPropertyOp46
 70
     1
102
RTVSPropertyOp47
 70
     1
102
RTVSPropertyOp48
 70
     1
102
RTVSPropertyOp49
 70
     1
102
RTVSPropertyOp50
 70
     1
102
RTVSPropertyOp51
 70
     0
102
RTVSPropertyOp52
 70
     0
102
RTVSPropertyOp53
 70
     1
102
RTVSPropertyOp54
 70
     1
102
RTVSPropertyOp55
 70
     1
102
RTVSPropertyOp56
 70
     1
102
RTVSPropertyOp57
 70
     1
102
RTVSPost2010Prop28
280
     0
102
RTVSPost2010PropOp28
 70
     1
102
RTVSPost2010Prop29
280
     1
102
RTVSPost2010PropOp29
 70
     1
102
RTVSPost2010Prop30
280
     1
102
RTVSPost2010PropOp30
 70
     1
102
RTVSPost2010Prop31
280
     0
102
RTVSPost2010PropOp31
 70
     1
102
RTVSPost2010Prop32
280
     0
102
RTVSPost2010PropOp32
 70
     1
102
RTVSPost2010Prop33
280
     0
102
RTVSPost2010PropOp33
 70
     1
102
RTVSPost2010Prop34
280
     0
102
RTVSPost2010PropOp34
 70
     1
102
RTVSPost2010Prop35
280
     0
102
RTVSPost2010PropOp35
 70
     1
102
RTVSPost2010Prop36
280
     0
102
RTVSPost2010PropOp36
 70
     1
102
RTVSPost2010Prop37
 90
       50
102
RTVSPost2010PropOp37
 70
     1
102
RTVSPost2010Prop38
140
0.0
102
RTVSPost2010PropOp38
 70
     1
102
RTVSPost2010Prop39
140
1.0
102
RTVSPost2010PropOp39
 70
     1
102
RTVSPost2010Prop40
 90
        0
102
RTVSPost2010PropOp40
 70
     1
102
RTVSPost2010Prop41ColorIndex
 90
       18
102
RTVSPost2010Prop41ColorRGB
 90
        0
102
RTVSPost2010PropOp41
 70
     1
102
RTVSPost2010Prop42
 90
       50
102
RTVSPost2010PropOp42
 70
     1
102
RTVSPost2010Prop43
 90
        3
102
RTVSPost2010PropOp43
 70
     1
102
RTVSPost2010Prop44ColorIndex
 90
        5
102
RTVSPost2010Prop44ColorRGB
 90
      255
102
RTVSPost2010PropOp44
 70
     1
102
RTVSPost2010Prop45
280
     0
102
RTVSPost2010PropOp45
 70
     1
102
RTVSPost2010Prop46
 90
       50
102
RTVSPost2010PropOp46
 70
     1
102
RTVSPost2010Prop47
 90
       50
102
RTVSPost2010PropOp47
 70
     1
102
RTVSPost2010Prop48
 90
       50
102
RTVSPost2010PropOp48
 70
     1
102
RTVSPost2010Prop49
280
     0
102
RTVSPost2010PropOp49
 70
     1
102
RTVSPost2010Prop50
 90
       50
102
RTVSPost2010PropOp50
 70
     1
102
RTVSPost2010Prop51ColorIndex
 90
      256
102
RTVSPost2010Prop51ColorRGB
 90
-16777216
102
RTVSPost2010PropOp51
 70
     0
102
RTVSPost2010Prop52
140
1.0
102
RTVSPost2010PropOp52
 70
     0
102
RTVSPost2010Prop53
 90
        2
102
RTVSPost2010PropOp53
 70
     1
102
RTVSPost2010Prop54
  1
strokes_ogs.tif
102
RTVSPost2010PropOp54
 70
     1
102
RTVSPost2010Prop55
280
     0
102
RTVSPost2010PropOp55
 70
     1
102
RTVSPost2010Prop56
140
1.0
102
RTVSPost2010PropOp56
 70
     1
102
RTVSPost2010Prop57
140
1.0
102
RTVSPost2010PropOp57
 70
     1
  0
XRECORD
  5
18C
102
{ACAD_REACTORS
330
18B
102
}
330
18B
100
AcDbXrecord
280
     1
102
RTVSPropertyOp0
 70
     1
102
RTVSPropertyOp1
 70
     1
102
RTVSPropertyOp2
 70
     1
102
RTVSPropertyOp3
 70
     1
102
RTVSPropertyOp4
 70
     1
102
RTVSPropertyOp5
 70
     1
102
RTVSPropertyOp6
 70
     1
102
RTVSPropertyOp7
 70
     1
102
RTVSPropertyOp8
 70
     1
102
RTVSPropertyOp9
 70
     1
102
RTVSPropertyOp10
 70
     1
102
RTVSPropertyOp11
 70
     1
102
RTVSPropertyOp12
 70
     1
102
RTVSPropertyOp13
 70
     1
102
RTVSPropertyOp14
 70
     1
102
RTVSPropertyOp15
 70
     1
102
RTVSPropertyOp16
 70
     1
102
RTVSPropertyOp17
 70
     1
102
RTVSPropertyOp18
 70
     1
102
RTVSPropertyOp19
 70
     1
102
RTVSPropertyOp20
 70
     1
102
RTVSPropertyOp21
 70
     1
102
RTVSPropertyOp22
 70
     1
102
RTVSPropertyOp23
 70
     1
102
RTVSPropertyOp24
 70
     1
102
RTVSPropertyOp25
 70
     1
102
RTVSPropertyOp26
 70
     1
102
RTVSPropertyOp27
 70
     1
102
RTVSPropertyOp28
 70
     1
102
RTVSPropertyOp29
 70
     1
102
RTVSPropertyOp30
 70
     1
102
RTVSPropertyOp31
 70
     1
102
RTVSPropertyOp32
 70
     1
102
RTVSPropertyOp33
 70
     1
102
RTVSPropertyOp34
 70
     1
102
RTVSPropertyOp35
 70
     1
102
RTVSPropertyOp36
 70
     1
102
RTVSPropertyOp37
 70
     1
102
RTVSPropertyOp38
 70
     1
102
RTVSPropertyOp39
 70
     1
102
RTVSPropertyOp40
 70
     1
102
RTVSPropertyOp41
 70
     1
102
RTVSPropertyOp42
 70
     1
102
RTVSPropertyOp43
 70
     1
102
RTVSPropertyOp44
 70
     1
102
RTVSPropertyOp45
 70
     1
102
RTVSPropertyOp46
 70
     1
102
RTVSPropertyOp47
 70
     1
102
RTVSPropertyOp48
 70
     1
102
RTVSPropertyOp49
 70
     1
102
RTVSPropertyOp50
 70
     1
102
RTVSPropertyOp51
 70
     0
102
RTVSPropertyOp52
 70
     0
102
RTVSPropertyOp53
 70
     1
102
RTVSPropertyOp54
 70
     1
102
RTVSPropertyOp55
 70
     1
102
RTVSPropertyOp56
 70
     1
102
RTVSPropertyOp57
 70
     1
102
RTVSPost2010Prop28
280
     0
102
RTVSPost2010PropOp28
 70
     1
102
RTVSPost2010Prop29
280
     1
102
RTVSPost2010PropOp29
 70
     1
102
RTVSPost2010Prop30
280
     1
102
RTVSPost2010PropOp30
 70
     1
102
RTVSPost2010Prop31
280
     0
102
RTVSPost2010PropOp31
 70
     1
102
RTVSPost2010Prop32
280
     0
102
RTVSPost2010PropOp32
 70
     1
102
RTVSPost2010Prop33
280
     0
102
RTVSPost2010PropOp33
 70
     1
102
RTVSPost2010Prop34
280
     0
102
RTVSPost2010PropOp34
 70
     1
102
RTVSPost2010Prop35
280
     0
102
RTVSPost2010PropOp35
 70
     1
102
RTVSPost2010Prop36
280
     0
102
RTVSPost2010PropOp36
 70
     1
102
RTVSPost2010Prop37
 90
       50
102
RTVSPost2010PropOp37
 70
     1
102
RTVSPost2010Prop38
140
0.0
102
RTVSPost2010PropOp38
 70
     1
102
RTVSPost2010Prop39
140
1.0
102
RTVSPost2010PropOp39
 70
     1
102
RTVSPost2010Prop40
 90
        0
102
RTVSPost2010PropOp40
 70
     1
102
RTVSPost2010Prop41ColorIndex
 90
       18
102
RTVSPost2010Prop41ColorRGB
 90
        0
102
RTVSPost2010PropOp41
 70
     1
102
RTVSPost2010Prop42
 90
       50
102
RTVSPost2010PropOp42
 70
     1
102
RTVSPost2010Prop43
 90
        3
102
RTVSPost2010PropOp43
 70
     1
102
RTVSPost2010Prop44ColorIndex
 90
        5
102
RTVSPost2010Prop44ColorRGB
 90
      255
102
RTVSPost2010PropOp44
 70
     1
102
RTVSPost2010Prop45
280
     0
102
RTVSPost2010PropOp45
 70
     1
102
RTVSPost2010Prop46
 90
       50
102
RTVSPost2010PropOp46
 70
     1
102
RTVSPost2010Prop47
 90
       50
102
RTVSPost2010PropOp47
 70
     1
102
RTVSPost2010Prop48
 90
       50
102
RTVSPost2010PropOp48
 70
     1
102
RTVSPost2010Prop49
280
     0
102
RTVSPost2010PropOp49
 70
     1
102
RTVSPost2010Prop50
 90
       50
102
RTVSPost2010PropOp50
 70
     1
102
RTVSPost2010Prop51ColorIndex
 90
      256
102
RTVSPost2010Prop51ColorRGB
 90
-16777216
102
RTVSPost2010PropOp51
 70
     0
102
RTVSPost2010Prop52
140
1.0
102
RTVSPost2010PropOp52
 70
     0
102
RTVSPost2010Prop53
 90
        2
102
RTVSPost2010PropOp53
 70
     1
102
RTVSPost2010Prop54
  1
strokes_ogs.tif
102
RTVSPost2010PropOp54
 70
     1
102
RTVSPost2010Prop55
280
     0
102
RTVSPost2010PropOp55
 70
     1
102
RTVSPost2010Prop56
140
1.0
102
RTVSPost2010PropOp56
 70
     1
102
RTVSPost2010Prop57
140
1.0
102
RTVSPost2010PropOp57
 70
     1
  0
XRECORD
  5
192
102
{ACAD_REACTORS
330
191
102
}
330
191
100
AcDbXrecord
280
     1
102
RTVSPropertyOp0
 70
     1
102
RTVSPropertyOp1
 70
     1
102
RTVSPropertyOp2
 70
     1
102
RTVSPropertyOp3
 70
     1
102
RTVSPropertyOp4
 70
     1
102
RTVSPropertyOp5
 70
     1
102
RTVSPropertyOp6
 70
     1
102
RTVSPropertyOp7
 70
     1
102
RTVSPropertyOp8
 70
     1
102
RTVSPropertyOp9
 70
     1
102
RTVSPropertyOp10
 70
     1
102
RTVSPropertyOp11
 70
     1
102
RTVSPropertyOp12
 70
     1
102
RTVSPropertyOp13
 70
     1
102
RTVSPropertyOp14
 70
     1
102
RTVSPropertyOp15
 70
     1
102
RTVSPropertyOp16
 70
     1
102
RTVSPropertyOp17
 70
     1
102
RTVSPropertyOp18
 70
     1
102
RTVSPropertyOp19
 70
     1
102
RTVSPropertyOp20
 70
     1
102
RTVSPropertyOp21
 70
     1
102
RTVSPropertyOp22
 70
     1
102
RTVSPropertyOp23
 70
     1
102
RTVSPropertyOp24
 70
     1
102
RTVSPropertyOp25
 70
     1
102
RTVSPropertyOp26
 70
     1
102
RTVSPropertyOp27
 70
     1
102
RTVSPropertyOp28
 70
     1
102
RTVSPropertyOp29
 70
     1
102
RTVSPropertyOp30
 70
     1
102
RTVSPropertyOp31
 70
     1
102
RTVSPropertyOp32
 70
     1
102
RTVSPropertyOp33
 70
     1
102
RTVSPropertyOp34
 70
     1
102
RTVSPropertyOp35
 70
     1
102
RTVSPropertyOp36
 70
     1
102
RTVSPropertyOp37
 70
     1
102
RTVSPropertyOp38
 70
     1
102
RTVSPropertyOp39
 70
     1
102
RTVSPropertyOp40
 70
     1
102
RTVSPropertyOp41
 70
     1
102
RTVSPropertyOp42
 70
     1
102
RTVSPropertyOp43
 70
     1
102
RTVSPropertyOp44
 70
     1
102
RTVSPropertyOp45
 70
     1
102
RTVSPropertyOp46
 70
     1
102
RTVSPropertyOp47
 70
     1
102
RTVSPropertyOp48
 70
     1
102
RTVSPropertyOp49
 70
     1
102
RTVSPropertyOp50
 70
     1
102
RTVSPropertyOp51
 70
     0
102
RTVSPropertyOp52
 70
     0
102
RTVSPropertyOp53
 70
     1
102
RTVSPropertyOp54
 70
     1
102
RTVSPropertyOp55
 70
     1
102
RTVSPropertyOp56
 70
     1
102
RTVSPropertyOp57
 70
     1
102
RTVSPost2010Prop28
280
     0
102
RTVSPost2010PropOp28
 70
     1
102
RTVSPost2010Prop29
280
     1
102
RTVSPost2010PropOp29
 70
     1
102
RTVSPost2010Prop30
280
     1
102
RTVSPost2010PropOp30
 70
     1
102
RTVSPost2010Prop31
280
     0
102
RTVSPost2010PropOp31
 70
     1
102
RTVSPost2010Prop32
280
     0
102
RTVSPost2010PropOp32
 70
     1
102
RTVSPost2010Prop33
280
     0
102
RTVSPost2010PropOp33
 70
     1
102
RTVSPost2010Prop34
280
     0
102
RTVSPost2010PropOp34
 70
     1
102
RTVSPost2010Prop35
280
     0
102
RTVSPost2010PropOp35
 70
     1
102
RTVSPost2010Prop36
280
     0
102
RTVSPost2010PropOp36
 70
     1
102
RTVSPost2010Prop37
 90
       50
102
RTVSPost2010PropOp37
 70
     1
102
RTVSPost2010Prop38
140
0.0
102
RTVSPost2010PropOp38
 70
     1
102
RTVSPost2010Prop39
140
1.0
102
RTVSPost2010PropOp39
 70
     1
102
RTVSPost2010Prop40
 90
        0
102
RTVSPost2010PropOp40
 70
     1
102
RTVSPost2010Prop41ColorIndex
 90
       18
102
RTVSPost2010Prop41ColorRGB
 90
        0
102
RTVSPost2010PropOp41
 70
     1
102
RTVSPost2010Prop42
 90
       50
102
RTVSPost2010PropOp42
 70
     1
102
RTVSPost2010Prop43
 90
        3
102
RTVSPost2010PropOp43
 70
     1
102
RTVSPost2010Prop44ColorIndex
 90
        5
102
RTVSPost2010Prop44ColorRGB
 90
      255
102
RTVSPost2010PropOp44
 70
     1
102
RTVSPost2010Prop45
280
     0
102
RTVSPost2010PropOp45
 70
     1
102
RTVSPost2010Prop46
 90
       50
102
RTVSPost2010PropOp46
 70
     1
102
RTVSPost2010Prop47
 90
       50
102
RTVSPost2010PropOp47
 70
     1
102
RTVSPost2010Prop48
 90
       50
102
RTVSPost2010PropOp48
 70
     1
102
RTVSPost2010Prop49
280
     0
102
RTVSPost2010PropOp49
 70
     1
102
RTVSPost2010Prop50
 90
       50
102
RTVSPost2010PropOp50
 70
     1
102
RTVSPost2010Prop51ColorIndex
 90
      256
102
RTVSPost2010Prop51ColorRGB
 90
-16777216
102
RTVSPost2010PropOp51
 70
     0
102
RTVSPost2010Prop52
140
1.0
102
RTVSPost2010PropOp52
 70
     0
102
RTVSPost2010Prop53
 90
        2
102
RTVSPost2010PropOp53
 70
     1
102
RTVSPost2010Prop54
  1
strokes_ogs.tif
102
RTVSPost2010PropOp54
 70
     1
102
RTVSPost2010Prop55
280
     0
102
RTVSPost2010PropOp55
 70
     1
102
RTVSPost2010Prop56
140
1.0
102
RTVSPost2010PropOp56
 70
     1
102
RTVSPost2010Prop57
140
1.0
102
RTVSPost2010PropOp57
 70
     1
  0
XRECORD
  5
1A6
102
{ACAD_REACTORS
330
1A5
102
}
330
1A5
100
AcDbXrecord
280
     1
102
RTVSPropertyOp0
 70
     0
102
RTVSPropertyOp1
 70
     0
102
RTVSPropertyOp2
 70
     0
102
RTVSPropertyOp3
 70
     0
102
RTVSPropertyOp4
 70
     0
102
RTVSPropertyOp5
 70
     0
102
RTVSPropertyOp6
 70
     0
102
RTVSPropertyOp7
 70
     0
102
RTVSPropertyOp8
 70
     0
102
RTVSPropertyOp9
 70
     0
102
RTVSPropertyOp10
 70
     0
102
RTVSPropertyOp11
 70
     0
102
RTVSPropertyOp12
 70
     0
102
RTVSPropertyOp13
 70
     0
102
RTVSPropertyOp14
 70
     2
102
RTVSPropertyOp15
 70
     0
102
RTVSPropertyOp16
 70
     0
102
RTVSPropertyOp17
 70
     0
102
RTVSPropertyOp18
 70
     0
102
RTVSPropertyOp19
 70
     0
102
RTVSPropertyOp20
 70
     0
102
RTVSPropertyOp21
 70
     0
102
RTVSPropertyOp22
 70
     0
102
RTVSPropertyOp23
 70
     0
102
RTVSPropertyOp24
 70
     0
102
RTVSPropertyOp25
 70
     0
102
RTVSPropertyOp26
 70
     0
102
RTVSPropertyOp27
 70
     0
102
RTVSPropertyOp28
 70
     0
102
RTVSPropertyOp29
 70
     0
102
RTVSPropertyOp30
 70
     0
102
RTVSPropertyOp31
 70
     0
102
RTVSPropertyOp32
 70
     0
102
RTVSPropertyOp33
 70
     0
102
RTVSPropertyOp34
 70
     0
102
RTVSPropertyOp35
 70
     0
102
RTVSPropertyOp36
 70
     0
102
RTVSPropertyOp37
 70
     0
102
RTVSPropertyOp38
 70
     0
102
RTVSPropertyOp39
 70
     0
102
RTVSPropertyOp40
 70
     0
102
RTVSPropertyOp41
 70
     0
102
RTVSPropertyOp42
 70
     0
102
RTVSPropertyOp43
 70
     0
102
RTVSPropertyOp44
 70
     0
102
RTVSPropertyOp45
 70
     0
102
RTVSPropertyOp46
 70
     0
102
RTVSPropertyOp47
 70
     0
102
RTVSPropertyOp48
 70
     0
102
RTVSPropertyOp49
 70
     0
102
RTVSPropertyOp50
 70
     0
102
RTVSPropertyOp51
 70
     0
102
RTVSPropertyOp52
 70
     0
102
RTVSPropertyOp53
 70
     0
102
RTVSPropertyOp54
 70
     0
102
RTVSPropertyOp55
 70
     0
102
RTVSPropertyOp56
 70
     0
102
RTVSPropertyOp57
 70
     0
102
RTVSPost2010Prop28
280
     0
102
RTVSPost2010PropOp28
 70
     0
102
RTVSPost2010Prop29
280
     1
102
RTVSPost2010PropOp29
 70
     0
102
RTVSPost2010Prop30
280
     1
102
RTVSPost2010PropOp30
 70
     0
102
RTVSPost2010Prop31
280
     0
102
RTVSPost2010PropOp31
 70
     0
102
RTVSPost2010Prop32
280
     0
102
RTVSPost2010PropOp32
 70
     0
102
RTVSPost2010Prop33
280
     0
102
RTVSPost2010PropOp33
 70
     0
102
RTVSPost2010Prop34
280
     0
102
RTVSPost2010PropOp34
 70
     0
102
RTVSPost2010Prop35
280
     0
102
RTVSPost2010PropOp35
 70
     0
102
RTVSPost2010Prop36
280
     0
102
RTVSPost2010PropOp36
 70
     0
102
RTVSPost2010Prop37
 90
       50
102
RTVSPost2010PropOp37
 70
     0
102
RTVSPost2010Prop38
140
0.0
102
RTVSPost2010PropOp38
 70
     0
102
RTVSPost2010Prop39
140
1.0
102
RTVSPost2010PropOp39
 70
     0
102
RTVSPost2010Prop40
 90
        0
102
RTVSPost2010PropOp40
 70
     0
102
RTVSPost2010Prop41ColorIndex
 90
       18
102
RTVSPost2010Prop41ColorRGB
 90
        0
102
RTVSPost2010PropOp41
 70
     0
102
RTVSPost2010Prop42
 90
       50
102
RTVSPost2010PropOp42
 70
     0
102
RTVSPost2010Prop43
 90
        3
102
RTVSPost2010PropOp43
 70
     0
102
RTVSPost2010Prop44ColorIndex
 90
        5
102
RTVSPost2010Prop44ColorRGB
 90
      255
102
RTVSPost2010PropOp44
 70
     0
102
RTVSPost2010Prop45
280
     0
102
RTVSPost2010PropOp45
 70
     0
102
RTVSPost2010Prop46
 90
       50
102
RTVSPost2010PropOp46
 70
     0
102
RTVSPost2010Prop47
 90
       50
102
RTVSPost2010PropOp47
 70
     0
102
RTVSPost2010Prop48
 90
       50
102
RTVSPost2010PropOp48
 70
     0
102
RTVSPost2010Prop49
280
     0
102
RTVSPost2010PropOp49
 70
     0
102
RTVSPost2010Prop50
 90
       50
102
RTVSPost2010PropOp50
 70
     0
102
RTVSPost2010Prop51ColorIndex
 90
      256
102
RTVSPost2010Prop51ColorRGB
 90
-16777216
102
RTVSPost2010PropOp51
 70
     0
102
RTVSPost2010Prop52
140
1.0
102
RTVSPost2010PropOp52
 70
     0
102
RTVSPost2010Prop53
 90
        2
102
RTVSPost2010PropOp53
 70
     0
102
RTVSPost2010Prop54
  1
strokes_ogs.tif
102
RTVSPost2010PropOp54
 70
     0
102
RTVSPost2010Prop55
280
     0
102
RTVSPost2010PropOp55
 70
     0
102
RTVSPost2010Prop56
140
1.0
102
RTVSPost2010PropOp56
 70
     0
102
RTVSPost2010Prop57
140
1.0
102
RTVSPost2010PropOp57
 70
     0
  0
XRECORD
  5
1A0
102
{ACAD_REACTORS
330
19F
102
}
330
19F
100
AcDbXrecord
280
     1
102
RTVSPropertyOp0
 70
     1
102
RTVSPropertyOp1
 70
     1
102
RTVSPropertyOp2
 70
     1
102
RTVSPropertyOp3
 70
     1
102
RTVSPropertyOp4
 70
     1
102
RTVSPropertyOp5
 70
     1
102
RTVSPropertyOp6
 70
     1
102
RTVSPropertyOp7
 70
     1
102
RTVSPropertyOp8
 70
     1
102
RTVSPropertyOp9
 70
     1
102
RTVSPropertyOp10
 70
     1
102
RTVSPropertyOp11
 70
     1
102
RTVSPropertyOp12
 70
     1
102
RTVSPropertyOp13
 70
     1
102
RTVSPropertyOp14
 70
     1
102
RTVSPropertyOp15
 70
     1
102
RTVSPropertyOp16
 70
     1
102
RTVSPropertyOp17
 70
     1
102
RTVSPropertyOp18
 70
     1
102
RTVSPropertyOp19
 70
     1
102
RTVSPropertyOp20
 70
     1
102
RTVSPropertyOp21
 70
     1
102
RTVSPropertyOp22
 70
     1
102
RTVSPropertyOp23
 70
     1
102
RTVSPropertyOp24
 70
     1
102
RTVSPropertyOp25
 70
     1
102
RTVSPropertyOp26
 70
     1
102
RTVSPropertyOp27
 70
     1
102
RTVSPropertyOp28
 70
     1
102
RTVSPropertyOp29
 70
     1
102
RTVSPropertyOp30
 70
     1
102
RTVSPropertyOp31
 70
     1
102
RTVSPropertyOp32
 70
     1
102
RTVSPropertyOp33
 70
     1
102
RTVSPropertyOp34
 70
     1
102
RTVSPropertyOp35
 70
     1
102
RTVSPropertyOp36
 70
     1
102
RTVSPropertyOp37
 70
     1
102
RTVSPropertyOp38
 70
     1
102
RTVSPropertyOp39
 70
     1
102
RTVSPropertyOp40
 70
     1
102
RTVSPropertyOp41
 70
     1
102
RTVSPropertyOp42
 70
     1
102
RTVSPropertyOp43
 70
     1
102
RTVSPropertyOp44
 70
     1
102
RTVSPropertyOp45
 70
     1
102
RTVSPropertyOp46
 70
     1
102
RTVSPropertyOp47
 70
     1
102
RTVSPropertyOp48
 70
     1
102
RTVSPropertyOp49
 70
     1
102
RTVSPropertyOp50
 70
     1
102
RTVSPropertyOp51
 70
     0
102
RTVSPropertyOp52
 70
     0
102
RTVSPropertyOp53
 70
     1
102
RTVSPropertyOp54
 70
     1
102
RTVSPropertyOp55
 70
     1
102
RTVSPropertyOp56
 70
     1
102
RTVSPropertyOp57
 70
     1
102
RTVSPost2010Prop28
280
     0
102
RTVSPost2010PropOp28
 70
     1
102
RTVSPost2010Prop29
280
     1
102
RTVSPost2010PropOp29
 70
     1
102
RTVSPost2010Prop30
280
     1
102
RTVSPost2010PropOp30
 70
     1
102
RTVSPost2010Prop31
280
     0
102
RTVSPost2010PropOp31
 70
     1
102
RTVSPost2010Prop32
280
     0
102
RTVSPost2010PropOp32
 70
     1
102
RTVSPost2010Prop33
280
     0
102
RTVSPost2010PropOp33
 70
     1
102
RTVSPost2010Prop34
280
     0
102
RTVSPost2010PropOp34
 70
     1
102
RTVSPost2010Prop35
280
     0
102
RTVSPost2010PropOp35
 70
     1
102
RTVSPost2010Prop36
280
     0
102
RTVSPost2010PropOp36
 70
     1
102
RTVSPost2010Prop37
 90
       50
102
RTVSPost2010PropOp37
 70
     1
102
RTVSPost2010Prop38
140
0.0
102
RTVSPost2010PropOp38
 70
     1
102
RTVSPost2010Prop39
140
1.0
102
RTVSPost2010PropOp39
 70
     1
102
RTVSPost2010Prop40
 90
        0
102
RTVSPost2010PropOp40
 70
     1
102
RTVSPost2010Prop41ColorIndex
 90
       18
102
RTVSPost2010Prop41ColorRGB
 90
        0
102
RTVSPost2010PropOp41
 70
     1
102
RTVSPost2010Prop42
 90
       50
102
RTVSPost2010PropOp42
 70
     1
102
RTVSPost2010Prop43
 90
        3
102
RTVSPost2010PropOp43
 70
     1
102
RTVSPost2010Prop44ColorIndex
 90
        5
102
RTVSPost2010Prop44ColorRGB
 90
      255
102
RTVSPost2010PropOp44
 70
     1
102
RTVSPost2010Prop45
280
     0
102
RTVSPost2010PropOp45
 70
     1
102
RTVSPost2010Prop46
 90
       50
102
RTVSPost2010PropOp46
 70
     1
102
RTVSPost2010Prop47
 90
       50
102
RTVSPost2010PropOp47
 70
     1
102
RTVSPost2010Prop48
 90
       50
102
RTVSPost2010PropOp48
 70
     1
102
RTVSPost2010Prop49
280
     0
102
RTVSPost2010PropOp49
 70
     1
102
RTVSPost2010Prop50
 90
       50
102
RTVSPost2010PropOp50
 70
     1
102
RTVSPost2010Prop51ColorIndex
 90
      256
102
RTVSPost2010Prop51ColorRGB
 90
-16777216
102
RTVSPost2010PropOp51
 70
     0
102
RTVSPost2010Prop52
140
1.0
102
RTVSPost2010PropOp52
 70
     0
102
RTVSPost2010Prop53
 90
        2
102
RTVSPost2010PropOp53
 70
     1
102
RTVSPost2010Prop54
  1
strokes_ogs.tif
102
RTVSPost2010PropOp54
 70
     1
102
RTVSPost2010Prop55
280
     0
102
RTVSPost2010PropOp55
 70
     1
102
RTVSPost2010Prop56
140
1.0
102
RTVSPost2010PropOp56
 70
     1
102
RTVSPost2010Prop57
140
1.0
102
RTVSPost2010PropOp57
 70
     1
  0
XRECORD
  5
1A8
102
{ACAD_REACTORS
330
1A7
102
}
330
1A7
100
AcDbXrecord
280
     1
102
RTVSPropertyOp0
 70
     0
102
RTVSPropertyOp1
 70
     0
102
RTVSPropertyOp2
 70
     0
102
RTVSPropertyOp3
 70
     0
102
RTVSPropertyOp4
 70
     0
102
RTVSPropertyOp5
 70
     0
102
RTVSPropertyOp6
 70
     0
102
RTVSPropertyOp7
 70
     0
102
RTVSPropertyOp8
 70
     0
102
RTVSPropertyOp9
 70
     0
102
RTVSPropertyOp10
 70
     0
102
RTVSPropertyOp11
 70
     0
102
RTVSPropertyOp12
 70
     0
102
RTVSPropertyOp13
 70
     0
102
RTVSPropertyOp14
 70
     2
102
RTVSPropertyOp15
 70
     0
102
RTVSPropertyOp16
 70
     0
102
RTVSPropertyOp17
 70
     0
102
RTVSPropertyOp18
 70
     0
102
RTVSPropertyOp19
 70
     0
102
RTVSPropertyOp20
 70
     0
102
RTVSPropertyOp21
 70
     0
102
RTVSPropertyOp22
 70
     0
102
RTVSPropertyOp23
 70
     0
102
RTVSPropertyOp24
 70
     0
102
RTVSPropertyOp25
 70
     0
102
RTVSPropertyOp26
 70
     0
102
RTVSPropertyOp27
 70
     0
102
RTVSPropertyOp28
 70
     0
102
RTVSPropertyOp29
 70
     0
102
RTVSPropertyOp30
 70
     0
102
RTVSPropertyOp31
 70
     0
102
RTVSPropertyOp32
 70
     0
102
RTVSPropertyOp33
 70
     0
102
RTVSPropertyOp34
 70
     0
102
RTVSPropertyOp35
 70
     0
102
RTVSPropertyOp36
 70
     0
102
RTVSPropertyOp37
 70
     0
102
RTVSPropertyOp38
 70
     0
102
RTVSPropertyOp39
 70
     0
102
RTVSPropertyOp40
 70
     0
102
RTVSPropertyOp41
 70
     0
102
RTVSPropertyOp42
 70
     0
102
RTVSPropertyOp43
 70
     0
102
RTVSPropertyOp44
 70
     0
102
RTVSPropertyOp45
 70
     0
102
RTVSPropertyOp46
 70
     0
102
RTVSPropertyOp47
 70
     0
102
RTVSPropertyOp48
 70
     0
102
RTVSPropertyOp49
 70
     0
102
RTVSPropertyOp50
 70
     0
102
RTVSPropertyOp51
 70
     0
102
RTVSPropertyOp52
 70
     0
102
RTVSPropertyOp53
 70
     0
102
RTVSPropertyOp54
 70
     0
102
RTVSPropertyOp55
 70
     0
102
RTVSPropertyOp56
 70
     0
102
RTVSPropertyOp57
 70
     0
102
RTVSPost2010Prop28
280
     0
102
RTVSPost2010PropOp28
 70
     0
102
RTVSPost2010Prop29
280
     1
102
RTVSPost2010PropOp29
 70
     0
102
RTVSPost2010Prop30
280
     1
102
RTVSPost2010PropOp30
 70
     0
102
RTVSPost2010Prop31
280
     0
102
RTVSPost2010PropOp31
 70
     0
102
RTVSPost2010Prop32
280
     0
102
RTVSPost2010PropOp32
 70
     0
102
RTVSPost2010Prop33
280
     0
102
RTVSPost2010PropOp33
 70
     0
102
RTVSPost2010Prop34
280
     0
102
RTVSPost2010PropOp34
 70
     0
102
RTVSPost2010Prop35
280
     0
102
RTVSPost2010PropOp35
 70
     0
102
RTVSPost2010Prop36
280
     0
102
RTVSPost2010PropOp36
 70
     0
102
RTVSPost2010Prop37
 90
       50
102
RTVSPost2010PropOp37
 70
     0
102
RTVSPost2010Prop38
140
0.0
102
RTVSPost2010PropOp38
 70
     0
102
RTVSPost2010Prop39
140
1.0
102
RTVSPost2010PropOp39
 70
     0
102
RTVSPost2010Prop40
 90
        0
102
RTVSPost2010PropOp40
 70
     0
102
RTVSPost2010Prop41ColorIndex
 90
       18
102
RTVSPost2010Prop41ColorRGB
 90
        0
102
RTVSPost2010PropOp41
 70
     0
102
RTVSPost2010Prop42
 90
       50
102
RTVSPost2010PropOp42
 70
     0
102
RTVSPost2010Prop43
 90
        3
102
RTVSPost2010PropOp43
 70
     0
102
RTVSPost2010Prop44ColorIndex
 90
        5
102
RTVSPost2010Prop44ColorRGB
 90
      255
102
RTVSPost2010PropOp44
 70
     0
102
RTVSPost2010Prop45
280
     0
102
RTVSPost2010PropOp45
 70
     0
102
RTVSPost2010Prop46
 90
       50
102
RTVSPost2010PropOp46
 70
     0
102
RTVSPost2010Prop47
 90
       50
102
RTVSPost2010PropOp47
 70
     0
102
RTVSPost2010Prop48
 90
       50
102
RTVSPost2010PropOp48
 70
     0
102
RTVSPost2010Prop49
280
     0
102
RTVSPost2010PropOp49
 70
     0
102
RTVSPost2010Prop50
 90
       50
102
RTVSPost2010PropOp50
 70
     0
102
RTVSPost2010Prop51ColorIndex
 90
      256
102
RTVSPost2010Prop51ColorRGB
 90
-16777216
102
RTVSPost2010PropOp51
 70
     0
102
RTVSPost2010Prop52
140
1.0
102
RTVSPost2010PropOp52
 70
     0
102
RTVSPost2010Prop53
 90
        2
102
RTVSPost2010PropOp53
 70
     0
102
RTVSPost2010Prop54
  1
strokes_ogs.tif
102
RTVSPost2010PropOp54
 70
     0
102
RTVSPost2010Prop55
280
     0
102
RTVSPost2010PropOp55
 70
     0
102
RTVSPost2010Prop56
140
1.0
102
RTVSPost2010PropOp56
 70
     0
102
RTVSPost2010Prop57
140
1.0
102
RTVSPost2010PropOp57
 70
     0
  0
XRECORD
  5
196
102
{ACAD_REACTORS
330
195
102
}
330
195
100
AcDbXrecord
280
     1
102
RTVSPropertyOp0
 70
     1
102
RTVSPropertyOp1
 70
     1
102
RTVSPropertyOp2
 70
     1
102
RTVSPropertyOp3
 70
     1
102
RTVSPropertyOp4
 70
     1
102
RTVSPropertyOp5
 70
     1
102
RTVSPropertyOp6
 70
     1
102
RTVSPropertyOp7
 70
     1
102
RTVSPropertyOp8
 70
     1
102
RTVSPropertyOp9
 70
     1
102
RTVSPropertyOp10
 70
     1
102
RTVSPropertyOp11
 70
     1
102
RTVSPropertyOp12
 70
     1
102
RTVSPropertyOp13
 70
     1
102
RTVSPropertyOp14
 70
     1
102
RTVSPropertyOp15
 70
     1
102
RTVSPropertyOp16
 70
     1
102
RTVSPropertyOp17
 70
     1
102
RTVSPropertyOp18
 70
     1
102
RTVSPropertyOp19
 70
     1
102
RTVSPropertyOp20
 70
     1
102
RTVSPropertyOp21
 70
     1
102
RTVSPropertyOp22
 70
     1
102
RTVSPropertyOp23
 70
     1
102
RTVSPropertyOp24
 70
     1
102
RTVSPropertyOp25
 70
     1
102
RTVSPropertyOp26
 70
     1
102
RTVSPropertyOp27
 70
     1
102
RTVSPropertyOp28
 70
     1
102
RTVSPropertyOp29
 70
     1
102
RTVSPropertyOp30
 70
     1
102
RTVSPropertyOp31
 70
     1
102
RTVSPropertyOp32
 70
     1
102
RTVSPropertyOp33
 70
     1
102
RTVSPropertyOp34
 70
     1
102
RTVSPropertyOp35
 70
     1
102
RTVSPropertyOp36
 70
     1
102
RTVSPropertyOp37
 70
     1
102
RTVSPropertyOp38
 70
     1
102
RTVSPropertyOp39
 70
     1
102
RTVSPropertyOp40
 70
     1
102
RTVSPropertyOp41
 70
     1
102
RTVSPropertyOp42
 70
     1
102
RTVSPropertyOp43
 70
     1
102
RTVSPropertyOp44
 70
     1
102
RTVSPropertyOp45
 70
     1
102
RTVSPropertyOp46
 70
     1
102
RTVSPropertyOp47
 70
     1
102
RTVSPropertyOp48
 70
     1
102
RTVSPropertyOp49
 70
     1
102
RTVSPropertyOp50
 70
     1
102
RTVSPropertyOp51
 70
     0
102
RTVSPropertyOp52
 70
     0
102
RTVSPropertyOp53
 70
     1
102
RTVSPropertyOp54
 70
     1
102
RTVSPropertyOp55
 70
     1
102
RTVSPropertyOp56
 70
     1
102
RTVSPropertyOp57
 70
     1
102
RTVSPost2010Prop28
280
     0
102
RTVSPost2010PropOp28
 70
     1
102
RTVSPost2010Prop29
280
     1
102
RTVSPost2010PropOp29
 70
     1
102
RTVSPost2010Prop30
280
     1
102
RTVSPost2010PropOp30
 70
     1
102
RTVSPost2010Prop31
280
     0
102
RTVSPost2010PropOp31
 70
     1
102
RTVSPost2010Prop32
280
     0
102
RTVSPost2010PropOp32
 70
     1
102
RTVSPost2010Prop33
280
     0
102
RTVSPost2010PropOp33
 70
     1
102
RTVSPost2010Prop34
280
     0
102
RTVSPost2010PropOp34
 70
     1
102
RTVSPost2010Prop35
280
     0
102
RTVSPost2010PropOp35
 70
     1
102
RTVSPost2010Prop36
280
     0
102
RTVSPost2010PropOp36
 70
     1
102
RTVSPost2010Prop37
 90
       50
102
RTVSPost2010PropOp37
 70
     1
102
RTVSPost2010Prop38
140
0.0
102
RTVSPost2010PropOp38
 70
     1
102
RTVSPost2010Prop39
140
1.0
102
RTVSPost2010PropOp39
 70
     1
102
RTVSPost2010Prop40
 90
        0
102
RTVSPost2010PropOp40
 70
     1
102
RTVSPost2010Prop41ColorIndex
 90
       18
102
RTVSPost2010Prop41ColorRGB
 90
        0
102
RTVSPost2010PropOp41
 70
     1
102
RTVSPost2010Prop42
 90
       50
102
RTVSPost2010PropOp42
 70
     1
102
RTVSPost2010Prop43
 90
        3
102
RTVSPost2010PropOp43
 70
     1
102
RTVSPost2010Prop44ColorIndex
 90
        5
102
RTVSPost2010Prop44ColorRGB
 90
      255
102
RTVSPost2010PropOp44
 70
     1
102
RTVSPost2010Prop45
280
     0
102
RTVSPost2010PropOp45
 70
     1
102
RTVSPost2010Prop46
 90
       50
102
RTVSPost2010PropOp46
 70
     1
102
RTVSPost2010Prop47
 90
       50
102
RTVSPost2010PropOp47
 70
     1
102
RTVSPost2010Prop48
 90
       50
102
RTVSPost2010PropOp48
 70
     1
102
RTVSPost2010Prop49
280
     0
102
RTVSPost2010PropOp49
 70
     1
102
RTVSPost2010Prop50
 90
       50
102
RTVSPost2010PropOp50
 70
     1
102
RTVSPost2010Prop51ColorIndex
 90
      256
102
RTVSPost2010Prop51ColorRGB
 90
-16777216
102
RTVSPost2010PropOp51
 70
     0
102
RTVSPost2010Prop52
140
1.0
102
RTVSPost2010PropOp52
 70
     0
102
RTVSPost2010Prop53
 90
        2
102
RTVSPost2010PropOp53
 70
     1
102
RTVSPost2010Prop54
  1
strokes_ogs.tif
102
RTVSPost2010PropOp54
 70
     1
102
RTVSPost2010Prop55
280
     0
102
RTVSPost2010PropOp55
 70
     1
102
RTVSPost2010Prop56
140
1.0
102
RTVSPost2010PropOp56
 70
     1
102
RTVSPost2010Prop57
140
1.0
102
RTVSPost2010PropOp57
 70
     1
  0
XRECORD
  5
1B4
102
{ACAD_REACTORS
330
1B3
102
}
330
1B3
100
AcDbXrecord
280
     1
102
RTVSPropertyOp0
 70
     1
102
RTVSPropertyOp1
 70
     1
102
RTVSPropertyOp2
 70
     1
102
RTVSPropertyOp3
 70
     1
102
RTVSPropertyOp4
 70
     1
102
RTVSPropertyOp5
 70
     1
102
RTVSPropertyOp6
 70
     1
102
RTVSPropertyOp7
 70
     1
102
RTVSPropertyOp8
 70
     1
102
RTVSPropertyOp9
 70
     1
102
RTVSPropertyOp10
 70
     1
102
RTVSPropertyOp11
 70
     1
102
RTVSPropertyOp12
 70
     1
102
RTVSPropertyOp13
 70
     1
102
RTVSPropertyOp14
 70
     1
102
RTVSPropertyOp15
 70
     1
102
RTVSPropertyOp16
 70
     1
102
RTVSPropertyOp17
 70
     1
102
RTVSPropertyOp18
 70
     1
102
RTVSPropertyOp19
 70
     1
102
RTVSPropertyOp20
 70
     1
102
RTVSPropertyOp21
 70
     1
102
RTVSPropertyOp22
 70
     1
102
RTVSPropertyOp23
 70
     1
102
RTVSPropertyOp24
 70
     1
102
RTVSPropertyOp25
 70
     1
102
RTVSPropertyOp26
 70
     1
102
RTVSPropertyOp27
 70
     1
102
RTVSPropertyOp28
 70
     1
102
RTVSPropertyOp29
 70
     1
102
RTVSPropertyOp30
 70
     1
102
RTVSPropertyOp31
 70
     1
102
RTVSPropertyOp32
 70
     1
102
RTVSPropertyOp33
 70
     1
102
RTVSPropertyOp34
 70
     1
102
RTVSPropertyOp35
 70
     1
102
RTVSPropertyOp36
 70
     1
102
RTVSPropertyOp37
 70
     1
102
RTVSPropertyOp38
 70
     1
102
RTVSPropertyOp39
 70
     1
102
RTVSPropertyOp40
 70
     1
102
RTVSPropertyOp41
 70
     1
102
RTVSPropertyOp42
 70
     1
102
RTVSPropertyOp43
 70
     1
102
RTVSPropertyOp44
 70
     1
102
RTVSPropertyOp45
 70
     1
102
RTVSPropertyOp46
 70
     1
102
RTVSPropertyOp47
 70
     1
102
RTVSPropertyOp48
 70
     1
102
RTVSPropertyOp49
 70
     1
102
RTVSPropertyOp50
 70
     1
102
RTVSPropertyOp51
 70
     0
102
RTVSPropertyOp52
 70
     0
102
RTVSPropertyOp53
 70
     1
102
RTVSPropertyOp54
 70
     1
102
RTVSPropertyOp55
 70
     1
102
RTVSPropertyOp56
 70
     1
102
RTVSPropertyOp57
 70
     1
102
RTVSPost2010Prop28
280
     0
102
RTVSPost2010PropOp28
 70
     1
102
RTVSPost2010Prop29
280
     1
102
RTVSPost2010PropOp29
 70
     1
102
RTVSPost2010Prop30
280
     1
102
RTVSPost2010PropOp30
 70
     1
102
RTVSPost2010Prop31
280
     0
102
RTVSPost2010PropOp31
 70
     1
102
RTVSPost2010Prop32
280
     0
102
RTVSPost2010PropOp32
 70
     1
102
RTVSPost2010Prop33
280
     0
102
RTVSPost2010PropOp33
 70
     1
102
RTVSPost2010Prop34
280
     0
102
RTVSPost2010PropOp34
 70
     1
102
RTVSPost2010Prop35
280
     0
102
RTVSPost2010PropOp35
 70
     1
102
RTVSPost2010Prop36
280
     0
102
RTVSPost2010PropOp36
 70
     1
102
RTVSPost2010Prop37
 90
       50
102
RTVSPost2010PropOp37
 70
     1
102
RTVSPost2010Prop38
140
0.0
102
RTVSPost2010PropOp38
 70
     1
102
RTVSPost2010Prop39
140
1.0
102
RTVSPost2010PropOp39
 70
     1
102
RTVSPost2010Prop40
 90
        0
102
RTVSPost2010PropOp40
 70
     1
102
RTVSPost2010Prop41ColorIndex
 90
       18
102
RTVSPost2010Prop41ColorRGB
 90
        0
102
RTVSPost2010PropOp41
 70
     1
102
RTVSPost2010Prop42
 90
       50
102
RTVSPost2010PropOp42
 70
     1
102
RTVSPost2010Prop43
 90
        3
102
RTVSPost2010PropOp43
 70
     1
102
RTVSPost2010Prop44ColorIndex
 90
        5
102
RTVSPost2010Prop44ColorRGB
 90
      255
102
RTVSPost2010PropOp44
 70
     1
102
RTVSPost2010Prop45
280
     0
102
RTVSPost2010PropOp45
 70
     1
102
RTVSPost2010Prop46
 90
       50
102
RTVSPost2010PropOp46
 70
     1
102
RTVSPost2010Prop47
 90
       50
102
RTVSPost2010PropOp47
 70
     1
102
RTVSPost2010Prop48
 90
       50
102
RTVSPost2010PropOp48
 70
     1
102
RTVSPost2010Prop49
280
     0
102
RTVSPost2010PropOp49
 70
     1
102
RTVSPost2010Prop50
 90
       50
102
RTVSPost2010PropOp50
 70
     1
102
RTVSPost2010Prop51ColorIndex
 90
      256
102
RTVSPost2010Prop51ColorRGB
 90
-16777216
102
RTVSPost2010PropOp51
 70
     0
102
RTVSPost2010Prop52
140
1.0
102
RTVSPost2010PropOp52
 70
     0
102
RTVSPost2010Prop53
 90
        2
102
RTVSPost2010PropOp53
 70
     1
102
RTVSPost2010Prop54
  1
strokes_ogs.tif
102
RTVSPost2010PropOp54
 70
     1
102
RTVSPost2010Prop55
280
     0
102
RTVSPost2010PropOp55
 70
     1
102
RTVSPost2010Prop56
140
1.0
102
RTVSPost2010PropOp56
 70
     1
102
RTVSPost2010Prop57
140
1.0
102
RTVSPost2010PropOp57
 70
     1
  0
XRECORD
  5
1B2
102
{ACAD_REACTORS
330
1B1
102
}
330
1B1
100
AcDbXrecord
280
     1
102
RTVSPropertyOp0
 70
     1
102
RTVSPropertyOp1
 70
     1
102
RTVSPropertyOp2
 70
     1
102
RTVSPropertyOp3
 70
     1
102
RTVSPropertyOp4
 70
     1
102
RTVSPropertyOp5
 70
     1
102
RTVSPropertyOp6
 70
     1
102
RTVSPropertyOp7
 70
     1
102
RTVSPropertyOp8
 70
     1
102
RTVSPropertyOp9
 70
     1
102
RTVSPropertyOp10
 70
     1
102
RTVSPropertyOp11
 70
     1
102
RTVSPropertyOp12
 70
     1
102
RTVSPropertyOp13
 70
     1
102
RTVSPropertyOp14
 70
     1
102
RTVSPropertyOp15
 70
     1
102
RTVSPropertyOp16
 70
     1
102
RTVSPropertyOp17
 70
     1
102
RTVSPropertyOp18
 70
     1
102
RTVSPropertyOp19
 70
     1
102
RTVSPropertyOp20
 70
     1
102
RTVSPropertyOp21
 70
     1
102
RTVSPropertyOp22
 70
     1
102
RTVSPropertyOp23
 70
     1
102
RTVSPropertyOp24
 70
     1
102
RTVSPropertyOp25
 70
     1
102
RTVSPropertyOp26
 70
     1
102
RTVSPropertyOp27
 70
     1
102
RTVSPropertyOp28
 70
     1
102
RTVSPropertyOp29
 70
     1
102
RTVSPropertyOp30
 70
     1
102
RTVSPropertyOp31
 70
     1
102
RTVSPropertyOp32
 70
     1
102
RTVSPropertyOp33
 70
     1
102
RTVSPropertyOp34
 70
     1
102
RTVSPropertyOp35
 70
     1
102
RTVSPropertyOp36
 70
     1
102
RTVSPropertyOp37
 70
     1
102
RTVSPropertyOp38
 70
     1
102
RTVSPropertyOp39
 70
     1
102
RTVSPropertyOp40
 70
     1
102
RTVSPropertyOp41
 70
     1
102
RTVSPropertyOp42
 70
     1
102
RTVSPropertyOp43
 70
     1
102
RTVSPropertyOp44
 70
     1
102
RTVSPropertyOp45
 70
     1
102
RTVSPropertyOp46
 70
     1
102
RTVSPropertyOp47
 70
     1
102
RTVSPropertyOp48
 70
     1
102
RTVSPropertyOp49
 70
     1
102
RTVSPropertyOp50
 70
     1
102
RTVSPropertyOp51
 70
     0
102
RTVSPropertyOp52
 70
     0
102
RTVSPropertyOp53
 70
     1
102
RTVSPropertyOp54
 70
     1
102
RTVSPropertyOp55
 70
     1
102
RTVSPropertyOp56
 70
     1
102
RTVSPropertyOp57
 70
     1
102
RTVSPost2010Prop28
280
     0
102
RTVSPost2010PropOp28
 70
     1
102
RTVSPost2010Prop29
280
     1
102
RTVSPost2010PropOp29
 70
     1
102
RTVSPost2010Prop30
280
     1
102
RTVSPost2010PropOp30
 70
     1
102
RTVSPost2010Prop31
280
     0
102
RTVSPost2010PropOp31
 70
     1
102
RTVSPost2010Prop32
280
     0
102
RTVSPost2010PropOp32
 70
     1
102
RTVSPost2010Prop33
280
     0
102
RTVSPost2010PropOp33
 70
     1
102
RTVSPost2010Prop34
280
     0
102
RTVSPost2010PropOp34
 70
     1
102
RTVSPost2010Prop35
280
     0
102
RTVSPost2010PropOp35
 70
     1
102
RTVSPost2010Prop36
280
     0
102
RTVSPost2010PropOp36
 70
     1
102
RTVSPost2010Prop37
 90
       50
102
RTVSPost2010PropOp37
 70
     1
102
RTVSPost2010Prop38
140
0.0
102
RTVSPost2010PropOp38
 70
     1
102
RTVSPost2010Prop39
140
1.0
102
RTVSPost2010PropOp39
 70
     1
102
RTVSPost2010Prop40
 90
        0
102
RTVSPost2010PropOp40
 70
     1
102
RTVSPost2010Prop41ColorIndex
 90
       18
102
RTVSPost2010Prop41ColorRGB
 90
        0
102
RTVSPost2010PropOp41
 70
     1
102
RTVSPost2010Prop42
 90
       50
102
RTVSPost2010PropOp42
 70
     1
102
RTVSPost2010Prop43
 90
        3
102
RTVSPost2010PropOp43
 70
     1
102
RTVSPost2010Prop44ColorIndex
 90
        5
102
RTVSPost2010Prop44ColorRGB
 90
      255
102
RTVSPost2010PropOp44
 70
     1
102
RTVSPost2010Prop45
280
     0
102
RTVSPost2010PropOp45
 70
     1
102
RTVSPost2010Prop46
 90
       50
102
RTVSPost2010PropOp46
 70
     1
102
RTVSPost2010Prop47
 90
       50
102
RTVSPost2010PropOp47
 70
     1
102
RTVSPost2010Prop48
 90
       50
102
RTVSPost2010PropOp48
 70
     1
102
RTVSPost2010Prop49
280
     0
102
RTVSPost2010PropOp49
 70
     1
102
RTVSPost2010Prop50
 90
       50
102
RTVSPost2010PropOp50
 70
     1
102
RTVSPost2010Prop51ColorIndex
 90
      256
102
RTVSPost2010Prop51ColorRGB
 90
-16777216
102
RTVSPost2010PropOp51
 70
     0
102
RTVSPost2010Prop52
140
1.0
102
RTVSPost2010PropOp52
 70
     0
102
RTVSPost2010Prop53
 90
        2
102
RTVSPost2010PropOp53
 70
     1
102
RTVSPost2010Prop54
  1
strokes_ogs.tif
102
RTVSPost2010PropOp54
 70
     1
102
RTVSPost2010Prop55
280
     0
102
RTVSPost2010PropOp55
 70
     1
102
RTVSPost2010Prop56
140
1.0
102
RTVSPost2010PropOp56
 70
     1
102
RTVSPost2010Prop57
140
1.0
102
RTVSPost2010PropOp57
 70
     1
  0
XRECORD
  5
1AC
102
{ACAD_REACTORS
330
1AB
102
}
330
1AB
100
AcDbXrecord
280
     1
102
RTVSPropertyOp0
 70
     1
102
RTVSPropertyOp1
 70
     1
102
RTVSPropertyOp2
 70
     1
102
RTVSPropertyOp3
 70
     1
102
RTVSPropertyOp4
 70
     1
102
RTVSPropertyOp5
 70
     1
102
RTVSPropertyOp6
 70
     1
102
RTVSPropertyOp7
 70
     1
102
RTVSPropertyOp8
 70
     1
102
RTVSPropertyOp9
 70
     1
102
RTVSPropertyOp10
 70
     1
102
RTVSPropertyOp11
 70
     1
102
RTVSPropertyOp12
 70
     1
102
RTVSPropertyOp13
 70
     1
102
RTVSPropertyOp14
 70
     1
102
RTVSPropertyOp15
 70
     1
102
RTVSPropertyOp16
 70
     1
102
RTVSPropertyOp17
 70
     1
102
RTVSPropertyOp18
 70
     1
102
RTVSPropertyOp19
 70
     1
102
RTVSPropertyOp20
 70
     1
102
RTVSPropertyOp21
 70
     1
102
RTVSPropertyOp22
 70
     1
102
RTVSPropertyOp23
 70
     1
102
RTVSPropertyOp24
 70
     1
102
RTVSPropertyOp25
 70
     1
102
RTVSPropertyOp26
 70
     1
102
RTVSPropertyOp27
 70
     1
102
RTVSPropertyOp28
 70
     1
102
RTVSPropertyOp29
 70
     1
102
RTVSPropertyOp30
 70
     1
102
RTVSPropertyOp31
 70
     1
102
RTVSPropertyOp32
 70
     1
102
RTVSPropertyOp33
 70
     1
102
RTVSPropertyOp34
 70
     1
102
RTVSPropertyOp35
 70
     1
102
RTVSPropertyOp36
 70
     1
102
RTVSPropertyOp37
 70
     1
102
RTVSPropertyOp38
 70
     1
102
RTVSPropertyOp39
 70
     1
102
RTVSPropertyOp40
 70
     1
102
RTVSPropertyOp41
 70
     1
102
RTVSPropertyOp42
 70
     1
102
RTVSPropertyOp43
 70
     1
102
RTVSPropertyOp44
 70
     1
102
RTVSPropertyOp45
 70
     1
102
RTVSPropertyOp46
 70
     1
102
RTVSPropertyOp47
 70
     1
102
RTVSPropertyOp48
 70
     1
102
RTVSPropertyOp49
 70
     1
102
RTVSPropertyOp50
 70
     1
102
RTVSPropertyOp51
 70
     0
102
RTVSPropertyOp52
 70
     0
102
RTVSPropertyOp53
 70
     1
102
RTVSPropertyOp54
 70
     1
102
RTVSPropertyOp55
 70
     1
102
RTVSPropertyOp56
 70
     1
102
RTVSPropertyOp57
 70
     1
102
RTVSPost2010Prop28
280
     0
102
RTVSPost2010PropOp28
 70
     1
102
RTVSPost2010Prop29
280
     1
102
RTVSPost2010PropOp29
 70
     1
102
RTVSPost2010Prop30
280
     1
102
RTVSPost2010PropOp30
 70
     1
102
RTVSPost2010Prop31
280
     0
102
RTVSPost2010PropOp31
 70
     1
102
RTVSPost2010Prop32
280
     0
102
RTVSPost2010PropOp32
 70
     1
102
RTVSPost2010Prop33
280
     0
102
RTVSPost2010PropOp33
 70
     1
102
RTVSPost2010Prop34
280
     0
102
RTVSPost2010PropOp34
 70
     1
102
RTVSPost2010Prop35
280
     0
102
RTVSPost2010PropOp35
 70
     1
102
RTVSPost2010Prop36
280
     0
102
RTVSPost2010PropOp36
 70
     1
102
RTVSPost2010Prop37
 90
       50
102
RTVSPost2010PropOp37
 70
     1
102
RTVSPost2010Prop38
140
0.0
102
RTVSPost2010PropOp38
 70
     1
102
RTVSPost2010Prop39
140
1.0
102
RTVSPost2010PropOp39
 70
     1
102
RTVSPost2010Prop40
 90
        0
102
RTVSPost2010PropOp40
 70
     1
102
RTVSPost2010Prop41ColorIndex
 90
       18
102
RTVSPost2010Prop41ColorRGB
 90
        0
102
RTVSPost2010PropOp41
 70
     1
102
RTVSPost2010Prop42
 90
       50
102
RTVSPost2010PropOp42
 70
     1
102
RTVSPost2010Prop43
 90
        3
102
RTVSPost2010PropOp43
 70
     1
102
RTVSPost2010Prop44ColorIndex
 90
        5
102
RTVSPost2010Prop44ColorRGB
 90
      255
102
RTVSPost2010PropOp44
 70
     1
102
RTVSPost2010Prop45
280
     0
102
RTVSPost2010PropOp45
 70
     1
102
RTVSPost2010Prop46
 90
       50
102
RTVSPost2010PropOp46
 70
     1
102
RTVSPost2010Prop47
 90
       50
102
RTVSPost2010PropOp47
 70
     1
102
RTVSPost2010Prop48
 90
       50
102
RTVSPost2010PropOp48
 70
     1
102
RTVSPost2010Prop49
280
     0
102
RTVSPost2010PropOp49
 70
     1
102
RTVSPost2010Prop50
 90
       50
102
RTVSPost2010PropOp50
 70
     1
102
RTVSPost2010Prop51ColorIndex
 90
      256
102
RTVSPost2010Prop51ColorRGB
 90
-16777216
102
RTVSPost2010PropOp51
 70
     0
102
RTVSPost2010Prop52
140
1.0
102
RTVSPost2010PropOp52
 70
     0
102
RTVSPost2010Prop53
 90
        2
102
RTVSPost2010PropOp53
 70
     1
102
RTVSPost2010Prop54
  1
strokes_ogs.tif
102
RTVSPost2010PropOp54
 70
     1
102
RTVSPost2010Prop55
280
     0
102
RTVSPost2010PropOp55
 70
     1
102
RTVSPost2010Prop56
140
1.0
102
RTVSPost2010PropOp56
 70
     1
102
RTVSPost2010Prop57
140
1.0
102
RTVSPost2010PropOp57
 70
     1
  0
XRECORD
  5
1AE
102
{ACAD_REACTORS
330
1AD
102
}
330
1AD
100
AcDbXrecord
280
     1
102
RTVSPropertyOp0
 70
     1
102
RTVSPropertyOp1
 70
     1
102
RTVSPropertyOp2
 70
     1
102
RTVSPropertyOp3
 70
     1
102
RTVSPropertyOp4
 70
     1
102
RTVSPropertyOp5
 70
     1
102
RTVSPropertyOp6
 70
     1
102
RTVSPropertyOp7
 70
     1
102
RTVSPropertyOp8
 70
     1
102
RTVSPropertyOp9
 70
     1
102
RTVSPropertyOp10
 70
     1
102
RTVSPropertyOp11
 70
     1
102
RTVSPropertyOp12
 70
     1
102
RTVSPropertyOp13
 70
     1
102
RTVSPropertyOp14
 70
     1
102
RTVSPropertyOp15
 70
     1
102
RTVSPropertyOp16
 70
     1
102
RTVSPropertyOp17
 70
     1
102
RTVSPropertyOp18
 70
     1
102
RTVSPropertyOp19
 70
     1
102
RTVSPropertyOp20
 70
     1
102
RTVSPropertyOp21
 70
     1
102
RTVSPropertyOp22
 70
     1
102
RTVSPropertyOp23
 70
     1
102
RTVSPropertyOp24
 70
     1
102
RTVSPropertyOp25
 70
     1
102
RTVSPropertyOp26
 70
     1
102
RTVSPropertyOp27
 70
     1
102
RTVSPropertyOp28
 70
     1
102
RTVSPropertyOp29
 70
     1
102
RTVSPropertyOp30
 70
     1
102
RTVSPropertyOp31
 70
     1
102
RTVSPropertyOp32
 70
     1
102
RTVSPropertyOp33
 70
     1
102
RTVSPropertyOp34
 70
     1
102
RTVSPropertyOp35
 70
     1
102
RTVSPropertyOp36
 70
     1
102
RTVSPropertyOp37
 70
     1
102
RTVSPropertyOp38
 70
     1
102
RTVSPropertyOp39
 70
     1
102
RTVSPropertyOp40
 70
     1
102
RTVSPropertyOp41
 70
     1
102
RTVSPropertyOp42
 70
     1
102
RTVSPropertyOp43
 70
     1
102
RTVSPropertyOp44
 70
     1
102
RTVSPropertyOp45
 70
     1
102
RTVSPropertyOp46
 70
     1
102
RTVSPropertyOp47
 70
     1
102
RTVSPropertyOp48
 70
     1
102
RTVSPropertyOp49
 70
     1
102
RTVSPropertyOp50
 70
     1
102
RTVSPropertyOp51
 70
     0
102
RTVSPropertyOp52
 70
     0
102
RTVSPropertyOp53
 70
     1
102
RTVSPropertyOp54
 70
     1
102
RTVSPropertyOp55
 70
     1
102
RTVSPropertyOp56
 70
     1
102
RTVSPropertyOp57
 70
     1
102
RTVSPost2010Prop28
280
     0
102
RTVSPost2010PropOp28
 70
     1
102
RTVSPost2010Prop29
280
     1
102
RTVSPost2010PropOp29
 70
     1
102
RTVSPost2010Prop30
280
     1
102
RTVSPost2010PropOp30
 70
     1
102
RTVSPost2010Prop31
280
     0
102
RTVSPost2010PropOp31
 70
     1
102
RTVSPost2010Prop32
280
     0
102
RTVSPost2010PropOp32
 70
     1
102
RTVSPost2010Prop33
280
     0
102
RTVSPost2010PropOp33
 70
     1
102
RTVSPost2010Prop34
280
     0
102
RTVSPost2010PropOp34
 70
     1
102
RTVSPost2010Prop35
280
     0
102
RTVSPost2010PropOp35
 70
     1
102
RTVSPost2010Prop36
280
     0
102
RTVSPost2010PropOp36
 70
     1
102
RTVSPost2010Prop37
 90
       50
102
RTVSPost2010PropOp37
 70
     1
102
RTVSPost2010Prop38
140
0.0
102
RTVSPost2010PropOp38
 70
     1
102
RTVSPost2010Prop39
140
1.0
102
RTVSPost2010PropOp39
 70
     1
102
RTVSPost2010Prop40
 90
        0
102
RTVSPost2010PropOp40
 70
     1
102
RTVSPost2010Prop41ColorIndex
 90
       18
102
RTVSPost2010Prop41ColorRGB
 90
        0
102
RTVSPost2010PropOp41
 70
     1
102
RTVSPost2010Prop42
 90
       50
102
RTVSPost2010PropOp42
 70
     1
102
RTVSPost2010Prop43
 90
        3
102
RTVSPost2010PropOp43
 70
     1
102
RTVSPost2010Prop44ColorIndex
 90
        5
102
RTVSPost2010Prop44ColorRGB
 90
      255
102
RTVSPost2010PropOp44
 70
     1
102
RTVSPost2010Prop45
280
     0
102
RTVSPost2010PropOp45
 70
     1
102
RTVSPost2010Prop46
 90
       50
102
RTVSPost2010PropOp46
 70
     1
102
RTVSPost2010Prop47
 90
       50
102
RTVSPost2010PropOp47
 70
     1
102
RTVSPost2010Prop48
 90
       50
102
RTVSPost2010PropOp48
 70
     1
102
RTVSPost2010Prop49
280
     0
102
RTVSPost2010PropOp49
 70
     1
102
RTVSPost2010Prop50
 90
       50
102
RTVSPost2010PropOp50
 70
     1
102
RTVSPost2010Prop51ColorIndex
 90
      256
102
RTVSPost2010Prop51ColorRGB
 90
-16777216
102
RTVSPost2010PropOp51
 70
     0
102
RTVSPost2010Prop52
140
1.0
102
RTVSPost2010PropOp52
 70
     0
102
RTVSPost2010Prop53
 90
        2
102
RTVSPost2010PropOp53
 70
     1
102
RTVSPost2010Prop54
  1
strokes_ogs.tif
102
RTVSPost2010PropOp54
 70
     1
102
RTVSPost2010Prop55
280
     0
102
RTVSPost2010PropOp55
 70
     1
102
RTVSPost2010Prop56
140
1.0
102
RTVSPost2010PropOp56
 70
     1
102
RTVSPost2010Prop57
140
1.0
102
RTVSPost2010PropOp57
 70
     1
  0
XRECORD
  5
19E
102
{ACAD_REACTORS
330
19D
102
}
330
19D
100
AcDbXrecord
280
     1
102
RTVSPropertyOp0
 70
     1
102
RTVSPropertyOp1
 70
     1
102
RTVSPropertyOp2
 70
     1
102
RTVSPropertyOp3
 70
     1
102
RTVSPropertyOp4
 70
     1
102
RTVSPropertyOp5
 70
     1
102
RTVSPropertyOp6
 70
     1
102
RTVSPropertyOp7
 70
     1
102
RTVSPropertyOp8
 70
     1
102
RTVSPropertyOp9
 70
     1
102
RTVSPropertyOp10
 70
     1
102
RTVSPropertyOp11
 70
     1
102
RTVSPropertyOp12
 70
     1
102
RTVSPropertyOp13
 70
     1
102
RTVSPropertyOp14
 70
     1
102
RTVSPropertyOp15
 70
     1
102
RTVSPropertyOp16
 70
     1
102
RTVSPropertyOp17
 70
     1
102
RTVSPropertyOp18
 70
     1
102
RTVSPropertyOp19
 70
     1
102
RTVSPropertyOp20
 70
     1
102
RTVSPropertyOp21
 70
     1
102
RTVSPropertyOp22
 70
     1
102
RTVSPropertyOp23
 70
     1
102
RTVSPropertyOp24
 70
     1
102
RTVSPropertyOp25
 70
     1
102
RTVSPropertyOp26
 70
     1
102
RTVSPropertyOp27
 70
     1
102
RTVSPropertyOp28
 70
     1
102
RTVSPropertyOp29
 70
     1
102
RTVSPropertyOp30
 70
     1
102
RTVSPropertyOp31
 70
     1
102
RTVSPropertyOp32
 70
     1
102
RTVSPropertyOp33
 70
     1
102
RTVSPropertyOp34
 70
     1
102
RTVSPropertyOp35
 70
     1
102
RTVSPropertyOp36
 70
     1
102
RTVSPropertyOp37
 70
     1
102
RTVSPropertyOp38
 70
     1
102
RTVSPropertyOp39
 70
     1
102
RTVSPropertyOp40
 70
     1
102
RTVSPropertyOp41
 70
     1
102
RTVSPropertyOp42
 70
     1
102
RTVSPropertyOp43
 70
     1
102
RTVSPropertyOp44
 70
     1
102
RTVSPropertyOp45
 70
     1
102
RTVSPropertyOp46
 70
     1
102
RTVSPropertyOp47
 70
     1
102
RTVSPropertyOp48
 70
     1
102
RTVSPropertyOp49
 70
     1
102
RTVSPropertyOp50
 70
     1
102
RTVSPropertyOp51
 70
     0
102
RTVSPropertyOp52
 70
     0
102
RTVSPropertyOp53
 70
     1
102
RTVSPropertyOp54
 70
     1
102
RTVSPropertyOp55
 70
     1
102
RTVSPropertyOp56
 70
     1
102
RTVSPropertyOp57
 70
     1
102
RTVSPost2010Prop28
280
     0
102
RTVSPost2010PropOp28
 70
     1
102
RTVSPost2010Prop29
280
     1
102
RTVSPost2010PropOp29
 70
     1
102
RTVSPost2010Prop30
280
     1
102
RTVSPost2010PropOp30
 70
     1
102
RTVSPost2010Prop31
280
     0
102
RTVSPost2010PropOp31
 70
     1
102
RTVSPost2010Prop32
280
     0
102
RTVSPost2010PropOp32
 70
     1
102
RTVSPost2010Prop33
280
     0
102
RTVSPost2010PropOp33
 70
     1
102
RTVSPost2010Prop34
280
     0
102
RTVSPost2010PropOp34
 70
     1
102
RTVSPost2010Prop35
280
     0
102
RTVSPost2010PropOp35
 70
     1
102
RTVSPost2010Prop36
280
     0
102
RTVSPost2010PropOp36
 70
     1
102
RTVSPost2010Prop37
 90
       50
102
RTVSPost2010PropOp37
 70
     1
102
RTVSPost2010Prop38
140
0.0
102
RTVSPost2010PropOp38
 70
     1
102
RTVSPost2010Prop39
140
1.0
102
RTVSPost2010PropOp39
 70
     1
102
RTVSPost2010Prop40
 90
        0
102
RTVSPost2010PropOp40
 70
     1
102
RTVSPost2010Prop41ColorIndex
 90
       18
102
RTVSPost2010Prop41ColorRGB
 90
        0
102
RTVSPost2010PropOp41
 70
     1
102
RTVSPost2010Prop42
 90
       50
102
RTVSPost2010PropOp42
 70
     1
102
RTVSPost2010Prop43
 90
        3
102
RTVSPost2010PropOp43
 70
     1
102
RTVSPost2010Prop44ColorIndex
 90
        5
102
RTVSPost2010Prop44ColorRGB
 90
      255
102
RTVSPost2010PropOp44
 70
     1
102
RTVSPost2010Prop45
280
     0
102
RTVSPost2010PropOp45
 70
     1
102
RTVSPost2010Prop46
 90
       50
102
RTVSPost2010PropOp46
 70
     1
102
RTVSPost2010Prop47
 90
       50
102
RTVSPost2010PropOp47
 70
     1
102
RTVSPost2010Prop48
 90
       50
102
RTVSPost2010PropOp48
 70
     1
102
RTVSPost2010Prop49
280
     0
102
RTVSPost2010PropOp49
 70
     1
102
RTVSPost2010Prop50
 90
       50
102
RTVSPost2010PropOp50
 70
     1
102
RTVSPost2010Prop51ColorIndex
 90
      256
102
RTVSPost2010Prop51ColorRGB
 90
-16777216
102
RTVSPost2010PropOp51
 70
     0
102
RTVSPost2010Prop52
140
1.0
102
RTVSPost2010PropOp52
 70
     0
102
RTVSPost2010Prop53
 90
        2
102
RTVSPost2010PropOp53
 70
     1
102
RTVSPost2010Prop54
  1
strokes_ogs.tif
102
RTVSPost2010PropOp54
 70
     1
102
RTVSPost2010Prop55
280
     0
102
RTVSPost2010PropOp55
 70
     1
102
RTVSPost2010Prop56
140
1.0
102
RTVSPost2010PropOp56
 70
     1
102
RTVSPost2010Prop57
140
1.0
102
RTVSPost2010PropOp57
 70
     1
  0
XRECORD
  5
190
102
{ACAD_REACTORS
330
18F
102
}
330
18F
100
AcDbXrecord
280
     1
102
RTVSPropertyOp0
 70
     1
102
RTVSPropertyOp1
 70
     1
102
RTVSPropertyOp2
 70
     1
102
RTVSPropertyOp3
 70
     1
102
RTVSPropertyOp4
 70
     1
102
RTVSPropertyOp5
 70
     1
102
RTVSPropertyOp6
 70
     1
102
RTVSPropertyOp7
 70
     1
102
RTVSPropertyOp8
 70
     1
102
RTVSPropertyOp9
 70
     1
102
RTVSPropertyOp10
 70
     1
102
RTVSPropertyOp11
 70
     1
102
RTVSPropertyOp12
 70
     1
102
RTVSPropertyOp13
 70
     1
102
RTVSPropertyOp14
 70
     1
102
RTVSPropertyOp15
 70
     1
102
RTVSPropertyOp16
 70
     1
102
RTVSPropertyOp17
 70
     1
102
RTVSPropertyOp18
 70
     1
102
RTVSPropertyOp19
 70
     1
102
RTVSPropertyOp20
 70
     1
102
RTVSPropertyOp21
 70
     1
102
RTVSPropertyOp22
 70
     1
102
RTVSPropertyOp23
 70
     1
102
RTVSPropertyOp24
 70
     1
102
RTVSPropertyOp25
 70
     1
102
RTVSPropertyOp26
 70
     1
102
RTVSPropertyOp27
 70
     1
102
RTVSPropertyOp28
 70
     1
102
RTVSPropertyOp29
 70
     1
102
RTVSPropertyOp30
 70
     1
102
RTVSPropertyOp31
 70
     1
102
RTVSPropertyOp32
 70
     1
102
RTVSPropertyOp33
 70
     1
102
RTVSPropertyOp34
 70
     1
102
RTVSPropertyOp35
 70
     1
102
RTVSPropertyOp36
 70
     1
102
RTVSPropertyOp37
 70
     1
102
RTVSPropertyOp38
 70
     1
102
RTVSPropertyOp39
 70
     1
102
RTVSPropertyOp40
 70
     1
102
RTVSPropertyOp41
 70
     1
102
RTVSPropertyOp42
 70
     1
102
RTVSPropertyOp43
 70
     1
102
RTVSPropertyOp44
 70
     1
102
RTVSPropertyOp45
 70
     1
102
RTVSPropertyOp46
 70
     1
102
RTVSPropertyOp47
 70
     1
102
RTVSPropertyOp48
 70
     1
102
RTVSPropertyOp49
 70
     1
102
RTVSPropertyOp50
 70
     1
102
RTVSPropertyOp51
 70
     0
102
RTVSPropertyOp52
 70
     0
102
RTVSPropertyOp53
 70
     1
102
RTVSPropertyOp54
 70
     1
102
RTVSPropertyOp55
 70
     1
102
RTVSPropertyOp56
 70
     1
102
RTVSPropertyOp57
 70
     1
102
RTVSPost2010Prop28
280
     0
102
RTVSPost2010PropOp28
 70
     1
102
RTVSPost2010Prop29
280
     1
102
RTVSPost2010PropOp29
 70
     1
102
RTVSPost2010Prop30
280
     1
102
RTVSPost2010PropOp30
 70
     1
102
RTVSPost2010Prop31
280
     0
102
RTVSPost2010PropOp31
 70
     1
102
RTVSPost2010Prop32
280
     0
102
RTVSPost2010PropOp32
 70
     1
102
RTVSPost2010Prop33
280
     0
102
RTVSPost2010PropOp33
 70
     1
102
RTVSPost2010Prop34
280
     0
102
RTVSPost2010PropOp34
 70
     1
102
RTVSPost2010Prop35
280
     0
102
RTVSPost2010PropOp35
 70
     1
102
RTVSPost2010Prop36
280
     0
102
RTVSPost2010PropOp36
 70
     1
102
RTVSPost2010Prop37
 90
       50
102
RTVSPost2010PropOp37
 70
     1
102
RTVSPost2010Prop38
140
0.0
102
RTVSPost2010PropOp38
 70
     1
102
RTVSPost2010Prop39
140
1.0
102
RTVSPost2010PropOp39
 70
     1
102
RTVSPost2010Prop40
 90
        0
102
RTVSPost2010PropOp40
 70
     1
102
RTVSPost2010Prop41ColorIndex
 90
       18
102
RTVSPost2010Prop41ColorRGB
 90
        0
102
RTVSPost2010PropOp41
 70
     1
102
RTVSPost2010Prop42
 90
       50
102
RTVSPost2010PropOp42
 70
     1
102
RTVSPost2010Prop43
 90
        3
102
RTVSPost2010PropOp43
 70
     1
102
RTVSPost2010Prop44ColorIndex
 90
        5
102
RTVSPost2010Prop44ColorRGB
 90
      255
102
RTVSPost2010PropOp44
 70
     1
102
RTVSPost2010Prop45
280
     0
102
RTVSPost2010PropOp45
 70
     1
102
RTVSPost2010Prop46
 90
       50
102
RTVSPost2010PropOp46
 70
     1
102
RTVSPost2010Prop47
 90
       50
102
RTVSPost2010PropOp47
 70
     1
102
RTVSPost2010Prop48
 90
       50
102
RTVSPost2010PropOp48
 70
     1
102
RTVSPost2010Prop49
280
     0
102
RTVSPost2010PropOp49
 70
     1
102
RTVSPost2010Prop50
 90
       50
102
RTVSPost2010PropOp50
 70
     1
102
RTVSPost2010Prop51ColorIndex
 90
      256
102
RTVSPost2010Prop51ColorRGB
 90
-16777216
102
RTVSPost2010PropOp51
 70
     0
102
RTVSPost2010Prop52
140
1.0
102
RTVSPost2010PropOp52
 70
     0
102
RTVSPost2010Prop53
 90
        2
102
RTVSPost2010PropOp53
 70
     1
102
RTVSPost2010Prop54
  1
strokes_ogs.tif
102
RTVSPost2010PropOp54
 70
     1
102
RTVSPost2010Prop55
280
     0
102
RTVSPost2010PropOp55
 70
     1
102
RTVSPost2010Prop56
140
1.0
102
RTVSPost2010PropOp56
 70
     1
102
RTVSPost2010Prop57
140
1.0
102
RTVSPost2010PropOp57
 70
     1
  0
XRECORD
  5
1B0
102
{ACAD_REACTORS
330
1AF
102
}
330
1AF
100
AcDbXrecord
280
     1
102
RTVSPropertyOp0
 70
     1
102
RTVSPropertyOp1
 70
     1
102
RTVSPropertyOp2
 70
     1
102
RTVSPropertyOp3
 70
     1
102
RTVSPropertyOp4
 70
     1
102
RTVSPropertyOp5
 70
     1
102
RTVSPropertyOp6
 70
     1
102
RTVSPropertyOp7
 70
     1
102
RTVSPropertyOp8
 70
     1
102
RTVSPropertyOp9
 70
     1
102
RTVSPropertyOp10
 70
     1
102
RTVSPropertyOp11
 70
     1
102
RTVSPropertyOp12
 70
     1
102
RTVSPropertyOp13
 70
     1
102
RTVSPropertyOp14
 70
     1
102
RTVSPropertyOp15
 70
     1
102
RTVSPropertyOp16
 70
     1
102
RTVSPropertyOp17
 70
     1
102
RTVSPropertyOp18
 70
     1
102
RTVSPropertyOp19
 70
     1
102
RTVSPropertyOp20
 70
     1
102
RTVSPropertyOp21
 70
     1
102
RTVSPropertyOp22
 70
     1
102
RTVSPropertyOp23
 70
     1
102
RTVSPropertyOp24
 70
     1
102
RTVSPropertyOp25
 70
     1
102
RTVSPropertyOp26
 70
     1
102
RTVSPropertyOp27
 70
     1
102
RTVSPropertyOp28
 70
     1
102
RTVSPropertyOp29
 70
     1
102
RTVSPropertyOp30
 70
     1
102
RTVSPropertyOp31
 70
     1
102
RTVSPropertyOp32
 70
     1
102
RTVSPropertyOp33
 70
     1
102
RTVSPropertyOp34
 70
     1
102
RTVSPropertyOp35
 70
     1
102
RTVSPropertyOp36
 70
     1
102
RTVSPropertyOp37
 70
     1
102
RTVSPropertyOp38
 70
     1
102
RTVSPropertyOp39
 70
     1
102
RTVSPropertyOp40
 70
     1
102
RTVSPropertyOp41
 70
     1
102
RTVSPropertyOp42
 70
     1
102
RTVSPropertyOp43
 70
     1
102
RTVSPropertyOp44
 70
     1
102
RTVSPropertyOp45
 70
     1
102
RTVSPropertyOp46
 70
     1
102
RTVSPropertyOp47
 70
     1
102
RTVSPropertyOp48
 70
     1
102
RTVSPropertyOp49
 70
     1
102
RTVSPropertyOp50
 70
     1
102
RTVSPropertyOp51
 70
     0
102
RTVSPropertyOp52
 70
     0
102
RTVSPropertyOp53
 70
     1
102
RTVSPropertyOp54
 70
     1
102
RTVSPropertyOp55
 70
     1
102
RTVSPropertyOp56
 70
     1
102
RTVSPropertyOp57
 70
     1
102
RTVSPost2010Prop28
280
     0
102
RTVSPost2010PropOp28
 70
     1
102
RTVSPost2010Prop29
280
     1
102
RTVSPost2010PropOp29
 70
     1
102
RTVSPost2010Prop30
280
     1
102
RTVSPost2010PropOp30
 70
     1
102
RTVSPost2010Prop31
280
     0
102
RTVSPost2010PropOp31
 70
     1
102
RTVSPost2010Prop32
280
     0
102
RTVSPost2010PropOp32
 70
     1
102
RTVSPost2010Prop33
280
     0
102
RTVSPost2010PropOp33
 70
     1
102
RTVSPost2010Prop34
280
     0
102
RTVSPost2010PropOp34
 70
     1
102
RTVSPost2010Prop35
280
     0
102
RTVSPost2010PropOp35
 70
     1
102
RTVSPost2010Prop36
280
     0
102
RTVSPost2010PropOp36
 70
     1
102
RTVSPost2010Prop37
 90
       50
102
RTVSPost2010PropOp37
 70
     1
102
RTVSPost2010Prop38
140
0.0
102
RTVSPost2010PropOp38
 70
     1
102
RTVSPost2010Prop39
140
1.0
102
RTVSPost2010PropOp39
 70
     1
102
RTVSPost2010Prop40
 90
        0
102
RTVSPost2010PropOp40
 70
     1
102
RTVSPost2010Prop41ColorIndex
 90
       18
102
RTVSPost2010Prop41ColorRGB
 90
        0
102
RTVSPost2010PropOp41
 70
     1
102
RTVSPost2010Prop42
 90
       50
102
RTVSPost2010PropOp42
 70
     1
102
RTVSPost2010Prop43
 90
        3
102
RTVSPost2010PropOp43
 70
     1
102
RTVSPost2010Prop44ColorIndex
 90
        5
102
RTVSPost2010Prop44ColorRGB
 90
      255
102
RTVSPost2010PropOp44
 70
     1
102
RTVSPost2010Prop45
280
     0
102
RTVSPost2010PropOp45
 70
     1
102
RTVSPost2010Prop46
 90
       50
102
RTVSPost2010PropOp46
 70
     1
102
RTVSPost2010Prop47
 90
       50
102
RTVSPost2010PropOp47
 70
     1
102
RTVSPost2010Prop48
 90
       50
102
RTVSPost2010PropOp48
 70
     1
102
RTVSPost2010Prop49
280
     0
102
RTVSPost2010PropOp49
 70
     1
102
RTVSPost2010Prop50
 90
       50
102
RTVSPost2010PropOp50
 70
     1
102
RTVSPost2010Prop51ColorIndex
 90
      256
102
RTVSPost2010Prop51ColorRGB
 90
-16777216
102
RTVSPost2010PropOp51
 70
     0
102
RTVSPost2010Prop52
140
1.0
102
RTVSPost2010PropOp52
 70
     0
102
RTVSPost2010Prop53
 90
        2
102
RTVSPost2010PropOp53
 70
     1
102
RTVSPost2010Prop54
  1
strokes_ogs.tif
102
RTVSPost2010PropOp54
 70
     1
102
RTVSPost2010Prop55
280
     0
102
RTVSPost2010PropOp55
 70
     1
102
RTVSPost2010Prop56
140
1.0
102
RTVSPost2010PropOp56
 70
     1
102
RTVSPost2010Prop57
140
1.0
102
RTVSPost2010PropOp57
 70
     1
  0
ENDSEC
  0
EOF
