  0
SECTION
  2
HEADER
  9
$ACADVER
  1
AC1032
  9
$ACADMAINTVER
 90
       55
  9
$DWGCODEPAGE
  3
ANSI_1252
  9
$LASTSAVEDBY
  1
SYSTEM
  9
$REQUIREDVERSIONS
160
                 0
  9
$INSBASE
 10
0.0
 20
0.0
 30
0.0
  9
$EXTMIN
 10
-1127.48355208497
 20
1172.49999999993
 30
0.0
  9
$EXTMAX
 10
-954.27167945978
 20
1540.52195821948
 30
0.0
  9
$LIMMIN
 10
0.0
 20
0.0
  9
$LIMMAX
 10
12.0
 20
9.0
  9
$ORTHOMODE
 70
     0
  9
$REGENMODE
 70
     1
  9
$FILLMODE
 70
     1
  9
$QTEXTMODE
 70
     0
  9
$MIRRTEXT
 70
     1
  9
$LTSCALE
 40
1.0
  9
$ATTMODE
 70
     1
  9
$TEXTSIZE
 40
0.2
  9
$TRACEWID
 40
0.05
  9
$TEXTSTYLE
  7
Standard
  9
$CLAYER
  8
0
  9
$CELTYPE
  6
ByLayer
  9
$CECOLOR
 62
   256
  9
$CELTSCALE
 40
1.0
  9
$DISPSILH
 70
     0
  9
$DIMSCALE
 40
1.0
  9
$DIMASZ
 40
0.18
  9
$DIMEXO
 40
0.0625
  9
$DIMDLI
 40
0.38
  9
$DIMRND
 40
0.0
  9
$DIMDLE
 40
0.0
  9
$DIMEXE
 40
0.18
  9
$DIMTP
 40
0.0
  9
$DIMTM
 40
0.0
  9
$DIMTXT
 40
0.18
  9
$DIMCEN
 40
0.09
  9
$DIMTSZ
 40
0.0
  9
$DIMTOL
 70
     0
  9
$DIMLIM
 70
     0
  9
$DIMTIH
 70
     1
  9
$DIMTOH
 70
     1
  9
$DIMSE1
 70
     0
  9
$DIMSE2
 70
     0
  9
$DIMTAD
 70
     0
  9
$DIMZIN
 70
     0
  9
$DIMBLK
  1

  9
$DIMASO
 70
     1
  9
$DIMSHO
 70
     1
  9
$DIMPOST
  1

  9
$DIMAPOST
  1

  9
$DIMALT
 70
     0
  9
$DIMALTD
 70
     2
  9
$DIMALTF
 40
25.4
  9
$DIMLFAC
 40
1.0
  9
$DIMTOFL
 70
     0
  9
$DIMTVP
 40
0.0
  9
$DIMTIX
 70
     0
  9
$DIMSOXD
 70
     0
  9
$DIMSAH
 70
     0
  9
$DIMBLK1
  1

  9
$DIMBLK2
  1

  9
$DIMSTYLE
  2
Standard
  9
$DIMCLRD
 70
     0
  9
$DIMCLRE
 70
     0
  9
$DIMCLRT
 70
     0
  9
$DIMTFAC
 40
1.0
  9
$DIMGAP
 40
0.09
  9
$DIMJUST
 70
     0
  9
$DIMSD1
 70
     0
  9
$DIMSD2
 70
     0
  9
$DIMTOLJ
 70
     1
  9
$DIMTZIN
 70
     0
  9
$DIMALTZ
 70
     0
  9
$DIMALTTZ
 70
     0
  9
$DIMUPT
 70
     0
  9
$DIMDEC
 70
     4
  9
$DIMTDEC
 70
     4
  9
$DIMALTU
 70
     2
  9
$DIMALTTD
 70
     2
  9
$DIMTXSTY
  7
Standard
  9
$DIMAUNIT
 70
     0
  9
$DIMADEC
 70
     0
  9
$DIMALTRND
 40
0.0
  9
$DIMAZIN
 70
     0
  9
$DIMDSEP
 70
    46
  9
$DIMATFIT
 70
     3
  9
$DIMFRAC
 70
     0
  9
$DIMLDRBLK
  1

  9
$DIMLUNIT
 70
     2
  9
$DIMLWD
 70
    -2
  9
$DIMLWE
 70
    -2
  9
$DIMTMOVE
 70
     0
  9
$DIMFXL
 40
1.0
  9
$DIMFXLON
 70
     0
  9
$DIMJOGANG
 40
0.78539816339745
  9
$DIMTFILL
 70
     0
  9
$DIMTFILLCLR
 70
     0
  9
$DIMARCSYM
 70
     0
  9
$DIMLTYPE
  6

  9
$DIMLTEX1
  6

  9
$DIMLTEX2
  6

  9
$DIMTXTDIRECTION
 70
     0
  9
$LUNITS
 70
     2
  9
$LUPREC
 70
     4
  9
$SKETCHINC
 40
0.1
  9
$FILLETRAD
 40
0.0
  9
$AUNITS
 70
     0
  9
$AUPREC
 70
     0
  9
$MENU
  1
.
  9
$ELEVATION
 40
0.0
  9
$PELEVATION
 40
0.0
  9
$THICKNESS
 40
0.0
  9
$LIMCHECK
 70
     0
  9
$CHAMFERA
 40
0.0
  9
$CHAMFERB
 40
0.0
  9
$CHAMFERC
 40
0.0
  9
$CHAMFERD
 40
0.0
  9
$SKPOLY
 70
     0
  9
$TDCREATE
 40
2460480.33778412
  9
$TDUCREATE
 40
2460480.254450787
  9
$TDUPDATE
 40
2460480.337784225
  9
$TDUUPDATE
 40
2460480.254450891
  9
$TDINDWG
 40
0.0000000116
  9
$TDUSRTIMER
 40
0.0000000116
  9
$USRTIMER
 70
     1
  9
$ANGBASE
 50
0.0
  9
$ANGDIR
 70
     0
  9
$PDMODE
 70
     0
  9
$PDSIZE
 40
0.0
  9
$PLINEWID
 40
0.0
  9
$SPLFRAME
 70
     0
  9
$SPLINETYPE
 70
     6
  9
$SPLINESEGS
 70
     8
  9
$HANDSEED
  5
2E9
  9
$SURFTAB1
 70
     6
  9
$SURFTAB2
 70
     6
  9
$SURFTYPE
 70
     6
  9
$SURFU
 70
     6
  9
$SURFV
 70
     6
  9
$UCSBASE
  2

  9
$UCSNAME
  2

  9
$UCSORG
 10
0.0
 20
0.0
 30
0.0
  9
$UCSXDIR
 10
1.0
 20
0.0
 30
0.0
  9
$UCSYDIR
 10
0.0
 20
1.0
 30
0.0
  9
$UCSORTHOREF
  2

  9
$UCSORTHOVIEW
 70
     0
  9
$UCSORGTOP
 10
0.0
 20
0.0
 30
0.0
  9
$UCSORGBOTTOM
 10
0.0
 20
0.0
 30
0.0
  9
$UCSORGLEFT
 10
0.0
 20
0.0
 30
0.0
  9
$UCSORGRIGHT
 10
0.0
 20
0.0
 30
0.0
  9
$UCSORGFRONT
 10
0.0
 20
0.0
 30
0.0
  9
$UCSORGBACK
 10
0.0
 20
0.0
 30
0.0
  9
$PUCSBASE
  2

  9
$PUCSNAME
  2

  9
$PUCSORG
 10
0.0
 20
0.0
 30
0.0
  9
$PUCSXDIR
 10
1.0
 20
0.0
 30
0.0
  9
$PUCSYDIR
 10
0.0
 20
1.0
 30
0.0
  9
$PUCSORTHOREF
  2

  9
$PUCSORTHOVIEW
 70
     0
  9
$PUCSORGTOP
 10
0.0
 20
0.0
 30
0.0
  9
$PUCSORGBOTTOM
 10
0.0
 20
0.0
 30
0.0
  9
$PUCSORGLEFT
 10
0.0
 20
0.0
 30
0.0
  9
$PUCSORGRIGHT
 10
0.0
 20
0.0
 30
0.0
  9
$PUCSORGFRONT
 10
0.0
 20
0.0
 30
0.0
  9
$PUCSORGBACK
 10
0.0
 20
0.0
 30
0.0
  9
$USERI1
 70
     0
  9
$USERI2
 70
     0
  9
$USERI3
 70
     0
  9
$USERI4
 70
     0
  9
$USERI5
 70
     0
  9
$USERR1
 40
20.7
  9
$USERR2
 40
0.0
  9
$USERR3
 40
0.0
  9
$USERR4
 40
0.0
  9
$USERR5
 40
0.0
  9
$WORLDVIEW
 70
     1
  9
$SHADEDGE
 70
     3
  9
$SHADEDIF
 70
    70
  9
$TILEMODE
 70
     1
  9
$MAXACTVP
 70
    64
  9
$PINSBASE
 10
0.0
 20
0.0
 30
0.0
  9
$PLIMCHECK
 70
     0
  9
$PEXTMIN
 10
1.00000000000000E+20
 20
1.00000000000000E+20
 30
1.00000000000000E+20
  9
$PEXTMAX
 10
-1.00000000000000E+20
 20
-1.00000000000000E+20
 30
-1.00000000000000E+20
  9
$PLIMMIN
 10
0.0
 20
0.0
  9
$PLIMMAX
 10
12.0
 20
9.0
  9
$UNITMODE
 70
     0
  9
$VISRETAIN
 70
     1
  9
$PLINEGEN
 70
     0
  9
$PSLTSCALE
 70
     1
  9
$TREEDEPTH
 70
  3020
  9
$CMLSTYLE
  2
Standard
  9
$CMLJUST
 70
     0
  9
$CMLSCALE
 40
1.0
  9
$PROXYGRAPHICS
 70
     1
  9
$MEASUREMENT
 70
     1
  9
$CELWEIGHT
370
    -1
  9
$ENDCAPS
280
     0
  9
$JOINSTYLE
280
     0
  9
$LWDISPLAY
290
     0
  9
$INSUNITS
 70
     4
  9
$HYPERLINKBASE
  1

  9
$STYLESHEET
  1

  9
$XEDIT
290
     1
  9
$CEPSNTYPE
380
     0
  9
$PSTYLEMODE
290
     1
  9
$FINGERPRINTGUID
  2
{9a546151-13a1-4a6b-8278-b81aa20de678}
  9
$VERSIONGUID
  2
{FAEB1C32-E019-11D5-929B-00C0DF256EC4}
  9
$EXTNAMES
290
     1
  9
$PSVPSCALE
 40
0.0
  9
$OLESTARTUP
290
     0
  9
$SORTENTS
280
   127
  9
$INDEXCTL
280
     0
  9
$HIDETEXT
280
     1
  9
$XCLIPFRAME
280
     2
  9
$HALOGAP
280
     0
  9
$OBSCOLOR
 70
   257
  9
$OBSLTYPE
280
     0
  9
$INTERSECTIONDISPLAY
280
     0
  9
$INTERSECTIONCOLOR
 70
   257
  9
$DIMASSOC
280
     2
  9
$PROJECTNAME
  1

  9
$CAMERADISPLAY
290
     0
  9
$LENSLENGTH
 40
50.0
  9
$CAMERAHEIGHT
 40
0.0
  9
$STEPSPERSEC
 40
2.0
  9
$STEPSIZE
 40
6.0
  9
$3DDWFPREC
 40
2.0
  9
$PSOLWIDTH
 40
0.25
  9
$PSOLHEIGHT
 40
4.0
  9
$LOFTANG1
 40
1.5707963267949
  9
$LOFTANG2
 40
1.5707963267949
  9
$LOFTMAG1
 40
0.0
  9
$LOFTMAG2
 40
0.0
  9
$LOFTPARAM
 70
     7
  9
$LOFTNORMALS
280
     1
  9
$LATITUDE
 40
37.795
  9
$LONGITUDE
 40
-122.394
  9
$NORTHDIRECTION
 40
0.0
  9
$TIMEZONE
 70
 -8000
  9
$LIGHTGLYPHDISPLAY
280
     1
  9
$TILEMODELIGHTSYNCH
280
     1
  9
$CMATERIAL
347
44
  9
$SOLIDHIST
280
     0
  9
$SHOWHIST
280
     1
  9
$DWFFRAME
280
     2
  9
$DGNFRAME
280
     2
  9
$REALWORLDSCALE
290
     1
  9
$INTERFERECOLOR
 62
   256
  9
$CSHADOW
280
     0
  9
$SHADOWPLANELOCATION
 40
0.0
  0
ENDSEC
  0
SECTION
  2
CLASSES
  0
CLASS
  1
ACDBDICTIONARYWDFLT
  2
AcDbDictionaryWithDefault
  3
ObjectDBX Classes
 90
        0
 91
        3
280
     0
281
     0
  0
CLASS
  1
VISUALSTYLE
  2
AcDbVisualStyle
  3
ObjectDBX Classes
 90
     4095
 91
        3
280
     0
281
     0
  0
CLASS
  1
MATERIAL
  2
AcDbMaterial
  3
ObjectDBX Classes
 90
     1153
 91
        3
280
     0
281
     0
  0
CLASS
  1
SCALE
  2
AcDbScale
  3
ObjectDBX Classes
 90
     1153
 91
        3
280
     0
281
     0
  0
CLASS
  1
TABLESTYLE
  2
AcDbTableStyle
  3
ObjectDBX Classes
 90
     4095
 91
        3
280
     0
281
     0
  0
CLASS
  1
MLEADERSTYLE
  2
AcDbMLeaderStyle
  3
ACDB_MLEADERSTYLE_CLASS
 90
     4095
 91
        3
280
     0
281
     0
  0
CLASS
  1
SUN
  2
AcDbSun
  3
SCENEOE
 90
     1153
 91
        3
280
     0
281
     0
  0
CLASS
  1
DICTIONARYVAR
  2
AcDbDictionaryVar
  3
ObjectDBX Classes
 90
        0
 91
        3
280
     0
281
     0
  0
CLASS
  1
CELLSTYLEMAP
  2
AcDbCellStyleMap
  3
ObjectDBX Classes
 90
     1152
 91
        3
280
     0
281
     0
  0
ENDSEC
  0
SECTION
  2
TABLES
  0
TABLE
  2
VPORT
  5
8
330
0
100
AcDbSymbolTable
 70
     1
  0
VPORT
  5
29
330
8
100
AcDbSymbolTableRecord
100
AcDbViewportTableRecord
  2
*Active
 70
     0
 10
0.0
 20
0.0
 11
1.0
 21
1.0
 12
-1040.877615772375
 22
1356.510979109705
 13
0.0
 23
0.0
 14
0.5
 24
0.5
 15
0.5
 25
0.5
 16
0.0
 26
0.0
 36
1.0
 17
0.0
 27
0.0
 37
0.0
 40
404.824154041505
 41
1.60267857142857
 42
50.0
 43
0.0
 44
0.0
 50
0.0
 51
0.0
 71
     0
 72
   100
 73
     1
 74
     3
 75
     0
 76
     0
 77
     0
 78
     0
281
     0
 65
     1
110
0.0
120
0.0
130
0.0
111
1.0
121
0.0
131
0.0
112
0.0
122
1.0
132
0.0
 79
     0
146
0.0
348
2F
 60
     3
 61
     5
292
     1
282
     1
141
0.0
142
0.0
 63
   250
361
5D
  0
ENDTAB
  0
TABLE
  2
LTYPE
  5
5
330
0
100
AcDbSymbolTable
 70
     8
  0
LTYPE
  5
14
330
5
100
AcDbSymbolTableRecord
100
AcDbLinetypeTableRecord
  2
ByBlock
 70
     0
  3

 72
    65
 73
     0
 40
0.0
  0
LTYPE
  5
15
330
5
100
AcDbSymbolTableRecord
100
AcDbLinetypeTableRecord
  2
ByLayer
 70
     0
  3

 72
    65
 73
     0
 40
0.0
  0
LTYPE
  5
16
330
5
100
AcDbSymbolTableRecord
100
AcDbLinetypeTableRecord
  2
Continuous
 70
     0
  3
Solid line
 72
    65
 73
     0
 40
0.0
  0
LTYPE
  5
5E
330
5
100
AcDbSymbolTableRecord
100
AcDbLinetypeTableRecord
  2
DASHED
 70
     0
  3
Dashed
 72
    65
 73
     2
 40
15.0
 49
7.0
 74
     0
 49
-8.0
 74
     0
  0
LTYPE
  5
5F
330
5
100
AcDbSymbolTableRecord
100
AcDbLinetypeTableRecord
  2
DOTTED
 70
     0
  3
Dotted
 72
    65
 73
     2
 40
1.0
 49
0.0
 74
     0
 49
-1.0
 74
     0
  0
LTYPE
  5
60
330
5
100
AcDbSymbolTableRecord
100
AcDbLinetypeTableRecord
  2
DOT_CENTER
 70
     0
  3
Dot_Center
 72
    65
 73
     4
 40
14.0
 49
12.0
 74
     0
 49
-1.0
 74
     0
 49
0.0
 74
     0
 49
-1.0
 74
     0
  0
LTYPE
  5
61
330
5
100
AcDbSymbolTableRecord
100
AcDbLinetypeTableRecord
  2
LONG_DASHED
 70
     0
  3
Long_Dashed
 72
    65
 73
     2
 40
15.0
 49
10.0
 74
     0
 49
-5.0
 74
     0
  0
LTYPE
  5
62
330
5
100
AcDbSymbolTableRecord
100
AcDbLinetypeTableRecord
  2
DASH_CENTER
 70
     0
  3
Dash_Center
 72
    65
 73
     4
 40
14.0
 49
11.0
 74
     0
 49
-1.0
 74
     0
 49
1.0
 74
     0
 49
-1.0
 74
     0
  0
LTYPE
  5
63
330
5
100
AcDbSymbolTableRecord
100
AcDbLinetypeTableRecord
  2
PHANTOM
 70
     0
  3
Phantom
 72
    65
 73
     6
 40
13.0
 49
10.0
 74
     0
 49
-1.0
 74
     0
 49
0.0
 74
     0
 49
-1.0
 74
     0
 49
0.0
 74
     0
 49
-1.0
 74
     0
  0
LTYPE
  5
64
330
5
100
AcDbSymbolTableRecord
100
AcDbLinetypeTableRecord
  2
CENTER_DASH_DASH
 70
     0
  3
Center_Dash_Dash
 72
    65
 73
     6
 40
14.0
 49
9.0
 74
     0
 49
-1.0
 74
     0
 49
1.0
 74
     0
 49
-1.0
 74
     0
 49
1.0
 74
     0
 49
-1.0
 74
     0
  0
ENDTAB
  0
TABLE
  2
LAYER
  5
2
330
0
100
AcDbSymbolTable
 70
     2
  0
LAYER
  5
10
330
2
100
AcDbSymbolTableRecord
100
AcDbLayerTableRecord
  2
0
 70
     0
 62
     7
  6
Continuous
370
    -3
390
F
347
46
348
0
  0
LAYER
  5
65
330
2
100
AcDbSymbolTableRecord
100
AcDbLayerTableRecord
  2
1
 70
     0
 62
     7
  6
Continuous
370
    -3
390
F
347
46
348
0
  0
ENDTAB
  0
TABLE
  2
STYLE
  5
3
330
0
100
AcDbSymbolTable
 70
     2
  0
STYLE
  5
11
330
3
100
AcDbSymbolTableRecord
100
AcDbTextStyleTableRecord
  2
Standard
 70
     0
 40
0.0
 41
1.0
 50
0.0
 71
     0
 42
0.2
  3
txt
  4

  0
STYLE
  5
23B
330
3
100
AcDbSymbolTableRecord
100
AcDbTextStyleTableRecord
  2
CONVERTER_11
 70
     0
 40
0.0
 41
0.9
 50
0.0
 71
     0
 42
0.2
  3
txt.shx
  4

  0
ENDTAB
  0
TABLE
  2
VIEW
  5
6
330
0
100
AcDbSymbolTable
 70
     0
  0
ENDTAB
  0
TABLE
  2
UCS
  5
7
330
0
100
AcDbSymbolTable
 70
     0
  0
ENDTAB
  0
TABLE
  2
APPID
  5
9
330
0
100
AcDbSymbolTable
 70
     1
  0
APPID
  5
12
330
9
100
AcDbSymbolTableRecord
100
AcDbRegAppTableRecord
  2
ACAD
 70
     0
  0
ENDTAB
  0
TABLE
  2
DIMSTYLE
  5
A
330
0
100
AcDbSymbolTable
 70
     4
100
AcDbDimStyleTable
  0
DIMSTYLE
105
27
330
A
100
AcDbSymbolTableRecord
100
AcDbDimStyleTableRecord
  2
Standard
 70
     0
178
     0
340
11
  0
DIMSTYLE
105
2C8
102
{ACAD_REACTORS
330
2C9
102
}
330
A
100
AcDbSymbolTableRecord
100
AcDbDimStyleTableRecord
  2
ME10_DIM_10
 70
     0
  3
 {\Fgdt;n}<>
 41
5.0
 42
0.0
 44
2.0
 73
     0
 74
     0
 77
     1
 78
     8
140
5.0
147
2.0
172
     1
173
     1
174
     1
175
     1
176
     4
177
     4
271
     2
178
     1
271
     2
340
23B
  0
DIMSTYLE
105
2D3
102
{ACAD_REACTORS
330
2D4
102
}
330
A
100
AcDbSymbolTableRecord
100
AcDbDimStyleTableRecord
  2
ME10_DIM_11
 70
     0
 41
5.0
 42
0.0
 44
2.0
 73
     0
 74
     0
 77
     1
 78
     8
140
5.0
147
2.0
172
     1
173
     1
174
     1
175
     1
176
     4
177
     4
271
     0
178
     1
271
     0
340
23B
  0
DIMSTYLE
105
2DE
102
{ACAD_REACTORS
330
2DF
102
}
330
A
100
AcDbSymbolTableRecord
100
AcDbDimStyleTableRecord
  2
ME10_DIM_12
 70
     0
  3
x150
 41
5.0
 42
0.0
 44
2.0
 73
     0
 74
     0
 77
     1
 78
     8
140
5.0
147
2.0
172
     1
173
     1
174
     1
175
     1
176
     4
177
     4
271
     0
178
     1
271
     0
340
23B
  0
ENDTAB
  0
TABLE
  2
BLOCK_RECORD
  5
1
330
0
100
AcDbSymbolTable
 70
    15
  0
BLOCK_RECORD
  5
1F
330
1
100
AcDbSymbolTableRecord
100
AcDbBlockTableRecord
  2
*Model_Space
340
22
 70
     0
280
     1
281
     0
  0
BLOCK_RECORD
  5
1B
330
1
100
AcDbSymbolTableRecord
100
AcDbBlockTableRecord
  2
*Paper_Space
340
1E
 70
     0
280
     1
281
     0
  0
BLOCK_RECORD
  5
23
330
1
100
AcDbSymbolTableRecord
100
AcDbBlockTableRecord
  2
*Paper_Space0
340
26
 70
     0
280
     1
281
     0
  0
BLOCK_RECORD
  5
66
330
1
100
AcDbSymbolTableRecord
100
AcDbBlockTableRecord
  2
300020689__1
340
0
102
{BLKREFS
331
6D
102
}
 70
     0
280
     1
281
     0
  0
BLOCK_RECORD
  5
69
330
1
100
AcDbSymbolTableRecord
100
AcDbBlockTableRecord
  2
395550659__2
340
0
102
{BLKREFS
331
6E
102
}
 70
     0
280
     1
281
     0
  0
BLOCK_RECORD
  5
6C
330
1
100
AcDbSymbolTableRecord
100
AcDbBlockTableRecord
  2
HL066Q_3E__3
340
0
102
{BLKREFS
331
75
102
}
 70
     0
280
     1
281
     0
  0
BLOCK_RECORD
  5
71
330
1
100
AcDbSymbolTableRecord
100
AcDbBlockTableRecord
  2
066Q-1E
340
0
102
{BLKREFS
331
76
102
}
 70
     0
280
     1
281
     0
  0
BLOCK_RECORD
  5
74
330
1
100
AcDbSymbolTableRecord
100
AcDbBlockTableRecord
  2
HL66Q-WEB-Zeichnung__4
340
0
102
{BLKREFS
331
7A
102
}
 70
     0
280
     1
281
     0
  0
BLOCK_RECORD
  5
79
330
1
100
AcDbSymbolTableRecord
100
AcDbBlockTableRecord
  2
Vordans2
340
0
102
{BLKREFS
331
90
102
}
 70
     0
280
     1
281
     0
  0
BLOCK_RECORD
  5
7D
330
1
100
AcDbSymbolTableRecord
100
AcDbBlockTableRecord
  2
300020689__5
340
0
102
{BLKREFS
331
84
102
}
 70
     0
280
     1
281
     0
  0
BLOCK_RECORD
  5
80
330
1
100
AcDbSymbolTableRecord
100
AcDbBlockTableRecord
  2
395550659__6
340
0
102
{BLKREFS
331
85
102
}
 70
     0
280
     1
281
     0
  0
BLOCK_RECORD
  5
83
330
1
100
AcDbSymbolTableRecord
100
AcDbBlockTableRecord
  2
HL066Q_3E__7
340
0
102
{BLKREFS
331
89
102
}
 70
     0
280
     1
281
     0
  0
BLOCK_RECORD
  5
88
330
1
100
AcDbSymbolTableRecord
100
AcDbBlockTableRecord
  2
HL66Q-WEB-Zeichnung__8
340
0
102
{BLKREFS
331
8D
102
}
 70
     0
280
     1
281
     0
  0
BLOCK_RECORD
  5
8C
330
1
100
AcDbSymbolTableRecord
100
AcDbBlockTableRecord
  2
Untsicht1
340
0
102
{BLKREFS
331
91
102
}
 70
     0
280
     1
281
     0
  0
BLOCK_RECORD
  5
2BF
330
1
100
AcDbSymbolTableRecord
100
AcDbBlockTableRecord
  2
*D12
340
0
 70
     0
280
     1
281
     0
  0
BLOCK_RECORD
  5
2CA
330
1
100
AcDbSymbolTableRecord
100
AcDbBlockTableRecord
  2
*D13
340
0
 70
     0
280
     1
281
     0
  0
BLOCK_RECORD
  5
2D5
330
1
100
AcDbSymbolTableRecord
100
AcDbBlockTableRecord
  2
*D14
340
0
 70
     0
280
     1
281
     0
  0
ENDTAB
  0
ENDSEC
  0
SECTION
  2
BLOCKS
  0
BLOCK
  5
20
330
1F
100
AcDbEntity
  8
0
100
AcDbBlockBegin
  2
*Model_Space
 70
     0
 10
0.0
 20
0.0
 30
0.0
  3
*Model_Space
  1

  0
ENDBLK
  5
21
330
1F
100
AcDbEntity
  8
0
100
AcDbBlockEnd
  0
BLOCK
  5
1C
330
1B
100
AcDbEntity
 67
     1
  8
0
100
AcDbBlockBegin
  2
*Paper_Space
 70
     0
 10
0.0
 20
0.0
 30
0.0
  3
*Paper_Space
  1

  0
ENDBLK
  5
1D
330
1B
100
AcDbEntity
 67
     1
  8
0
100
AcDbBlockEnd
  0
BLOCK
  5
24
330
23
100
AcDbEntity
  8
0
100
AcDbBlockBegin
  2
*Paper_Space0
 70
     0
 10
0.0
 20
0.0
 30
0.0
  3
*Paper_Space0
  1

  0
ENDBLK
  5
25
330
23
100
AcDbEntity
  8
0
100
AcDbBlockEnd
  0
BLOCK
  5
67
330
66
100
AcDbEntity
  8
0
100
AcDbBlockBegin
  2
300020689__1
 70
     0
 10
-1099.99999999958
 20
1204.99999999986
 30
0.0
  3
300020689__1
  1

  0
ARC
  5
92
330
66
100
AcDbEntity
  8
0
  6
Continuous
 62
     3
100
AcDbCircle
 10
-1056.99999999958
 20
1255.99999999986
 30
0.0
 40
63.50000000000026
100
AcDbArc
 50
324.1960629537455
 51
331.8071394382678
  0
ARC
  5
93
330
66
100
AcDbEntity
  8
0
  6
Continuous
 62
     3
100
AcDbCircle
 10
-1056.99999999958
 20
1255.99999999986
 30
0.0
 40
63.49999999999997
100
AcDbArc
 50
44.23082480243717
 51
53.24280625890018
  0
ARC
  5
94
330
66
100
AcDbEntity
  8
0
  6
Continuous
 62
     3
100
AcDbCircle
 10
-1056.99999999958
 20
1255.99999999986
 30
0.0
 40
63.49999999999997
100
AcDbArc
 50
28.1928605617322
 51
35.8039370462547
  0
ARC
  5
95
330
66
100
AcDbEntity
  8
0
  6
Continuous
 62
     3
100
AcDbCircle
 10
-1056.99999999958
 20
1255.99999999986
 30
0.0
 40
63.50000000000018
100
AcDbArc
 50
306.7571937411
 51
315.769175197563
  0
ARC
  5
96
330
66
100
AcDbEntity
  8
0
  6
Continuous
 62
     3
100
AcDbCircle
 10
-1056.999999999579
 20
1255.999999999862
 30
0.0
 40
63.49999999999999
100
AcDbArc
 50
337.7930708302434
 51
338.3001993924983
  0
ARC
  5
97
330
66
100
AcDbEntity
  8
0
  6
Continuous
 62
     3
100
AcDbCircle
 10
-1056.99999999958
 20
1255.99999999986
 30
0.0
 40
63.49999999999999
100
AcDbArc
 50
227.3774710187537
 51
233.4319289831106
  0
ARC
  5
98
330
66
100
AcDbEntity
  8
0
  6
Continuous
 62
     3
100
AcDbCircle
 10
-1056.99999999958
 20
1255.99999999986
 30
0.0
 40
63.50000000000003
100
AcDbArc
 50
126.5680710168894
 51
132.6225289812462
  0
ARC
  5
99
330
66
100
AcDbEntity
  8
0
  6
Continuous
 62
     3
100
AcDbCircle
 10
-1056.999999999579
 20
1255.999999999858
 30
0.0
 40
63.50000000000004
100
AcDbArc
 50
21.69980060750188
 51
22.20692916975663
  0
ENDBLK
  5
68
330
66
100
AcDbEntity
  8
0
100
AcDbBlockEnd
  0
BLOCK
  5
6A
330
69
100
AcDbEntity
  8
0
100
AcDbBlockBegin
  2
395550659__2
 70
     0
 10
-1123.99999999958
 20
1180.99999999986
 30
0.0
  3
395550659__2
  1

  0
LINE
  5
9A
330
69
100
AcDbEntity
  8
0
  6
Continuous
 62
     7
100
AcDbLine
 10
-973.9999999995798
 20
1302.49999999986
 30
0.0
 11
-973.9999999995798
 21
1289.49999999986
 31
0.0
  0
LINE
  5
9B
330
69
100
AcDbEntity
  8
0
  6
Continuous
 62
     3
100
AcDbLine
 10
-974.4999999995798
 20
1303.366025403644
 30
0.0
 11
-974.4999999995798
 21
1288.633974596075
 31
0.0
  0
LINE
  5
9C
330
69
100
AcDbEntity
  8
0
  6
Continuous
 62
     7
100
AcDbLine
 10
-974.9999999995798
 20
1288.49999999986
 30
0.0
 11
-974.9999999995798
 21
1303.49999999986
 31
0.0
  0
LINE
  5
9D
330
69
100
AcDbEntity
  8
0
  6
Continuous
 62
     7
100
AcDbLine
 10
-974.9999999995798
 20
1208.49999999986
 30
0.0
 11
-974.9999999995798
 21
1223.49999999986
 31
0.0
  0
LINE
  5
9E
330
69
100
AcDbEntity
  8
0
  6
Continuous
 62
     7
100
AcDbLine
 10
-974.9999999995798
 20
1189.49999999986
 30
0.0
 11
-974.9999999995798
 21
1208.49999999986
 31
0.0
  0
LINE
  5
9F
330
69
100
AcDbEntity
  8
0
  6
Continuous
 62
     7
100
AcDbLine
 10
-974.9999999995798
 20
1303.49999999986
 30
0.0
 11
-974.9999999995798
 21
1322.49999999986
 31
0.0
  0
LINE
  5
A0
330
69
100
AcDbEntity
  8
0
  6
Continuous
 62
     7
100
AcDbLine
 10
-979.4999999995798
 20
1189.49999999986
 30
0.0
 11
-979.4999999995798
 21
1322.49999999986
 31
0.0
  0
LINE
  5
A1
330
69
100
AcDbEntity
  8
0
  6
Continuous
 62
     3
100
AcDbLine
 10
-979.9999999995798
 20
1322.49999999986
 30
0.0
 11
-979.4999999995798
 21
1322.49999999986
 31
0.0
  0
LINE
  5
A2
330
69
100
AcDbEntity
  8
0
  6
Continuous
 62
     3
100
AcDbLine
 10
-979.4999999995798
 20
1322.49999999986
 30
0.0
 11
-974.9999999995798
 21
1322.49999999986
 31
0.0
  0
LINE
  5
A3
330
69
100
AcDbEntity
  8
0
  6
Continuous
 62
     3
100
AcDbLine
 10
-982.4999999995798
 20
1324.99999999986
 30
0.0
 11
-982.4999999995798
 21
1325.49999999986
 31
0.0
  0
LINE
  5
A4
330
69
100
AcDbEntity
  8
0
  6
Continuous
 62
     3
100
AcDbLine
 10
-979.9999999995798
 20
1321.99999999986
 30
0.0
 11
-979.9999999995798
 21
1322.49999999986
 31
0.0
  0
LINE
  5
A5
330
69
100
AcDbEntity
  8
0
  6
Continuous
 62
     3
100
AcDbLine
 10
-982.4999999995798
 20
1325.49999999986
 30
0.0
 11
-982.4999999995799
 21
1329.99999999986
 31
0.0
  0
LINE
  5
A6
330
69
100
AcDbEntity
  8
0
  6
Continuous
 62
     7
100
AcDbLine
 10
-974.9999999995798
 20
1223.49999999986
 30
0.0
 11
-974.9999999995798
 21
1288.49999999986
 31
0.0
  0
LINE
  5
A7
330
69
100
AcDbEntity
  8
0
  6
Continuous
 62
     7
100
AcDbLine
 10
-979.9999999995798
 20
1189.99999999986
 30
0.0
 11
-979.9999999995798
 21
1321.99999999986
 31
0.0
  0
LINE
  5
A8
330
69
100
AcDbEntity
  8
0
  6
Continuous
 62
     7
100
AcDbLine
 10
-1122.99999999958
 20
1303.49999999986
 30
0.0
 11
-1122.99999999958
 21
1322.49999999986
 31
0.0
  0
LINE
  5
A9
330
69
100
AcDbEntity
  8
0
  6
Continuous
 62
     7
100
AcDbLine
 10
-1122.99999999958
 20
1223.49999999986
 30
0.0
 11
-1122.99999999958
 21
1288.49999999986
 31
0.0
  0
LINE
  5
AA
330
69
100
AcDbEntity
  8
0
  6
Continuous
 62
     3
100
AcDbLine
 10
-1123.49999999958
 20
1208.633974596075
 30
0.0
 11
-1123.49999999958
 21
1223.366025403644
 31
0.0
  0
LINE
  5
AB
330
69
100
AcDbEntity
  8
0
  6
Continuous
 62
     7
100
AcDbLine
 10
-1123.99999999958
 20
1302.49999999986
 30
0.0
 11
-1123.99999999958
 21
1289.49999999986
 31
0.0
  0
LINE
  5
AC
330
69
100
AcDbEntity
  8
0
  6
Continuous
 62
     7
100
AcDbLine
 10
-1123.99999999958
 20
1209.49999999986
 30
0.0
 11
-1123.99999999958
 21
1222.49999999986
 31
0.0
  0
LINE
  5
AD
330
69
100
AcDbEntity
  8
0
  6
Continuous
 62
     3
100
AcDbLine
 10
-1118.49999999958
 20
1322.49999999986
 30
0.0
 11
-1122.99999999958
 21
1322.49999999986
 31
0.0
  0
LINE
  5
AE
330
69
100
AcDbEntity
  8
0
  6
Continuous
 62
     7
100
AcDbLine
 10
-1122.99999999958
 20
1288.49999999986
 30
0.0
 11
-1122.99999999958
 21
1303.49999999986
 31
0.0
  0
LINE
  5
AF
330
69
100
AcDbEntity
  8
0
  6
Continuous
 62
     3
100
AcDbLine
 10
-1118.49999999958
 20
1322.49999999986
 30
0.0
 11
-1117.99999999958
 21
1322.49999999986
 31
0.0
  0
LINE
  5
B0
330
69
100
AcDbEntity
  8
0
  6
Continuous
 62
     3
100
AcDbLine
 10
-1115.49999999958
 20
1324.99999999986
 30
0.0
 11
-1115.49999999958
 21
1325.49999999986
 31
0.0
  0
LINE
  5
B1
330
69
100
AcDbEntity
  8
0
  6
Continuous
 62
     3
100
AcDbLine
 10
-1115.49999999958
 20
1325.49999999986
 30
0.0
 11
-1115.49999999958
 21
1329.99999999986
 31
0.0
  0
LINE
  5
B2
330
69
100
AcDbEntity
  8
0
  6
Continuous
 62
     3
100
AcDbLine
 10
-982.4999999995798
 20
1324.99999999986
 30
0.0
 11
-982.9999999995798
 21
1324.99999999986
 31
0.0
  0
LINE
  5
B3
330
69
100
AcDbEntity
  8
0
  6
Continuous
 62
     7
100
AcDbLine
 10
-982.9999999995798
 20
1324.99999999986
 30
0.0
 11
-1114.99999999958
 21
1324.99999999986
 31
0.0
  0
LINE
  5
B4
330
69
100
AcDbEntity
  8
0
  6
Continuous
 62
     7
100
AcDbLine
 10
-982.4999999995798
 20
1325.49999999986
 30
0.0
 11
-1115.49999999958
 21
1325.49999999986
 31
0.0
  0
LINE
  5
B5
330
69
100
AcDbEntity
  8
0
  6
Continuous
 62
     7
100
AcDbLine
 10
-1001.49999999958
 20
1329.99999999986
 30
0.0
 11
-1016.49999999958
 21
1329.99999999986
 31
0.0
  0
LINE
  5
B6
330
69
100
AcDbEntity
  8
0
  6
Continuous
 62
     7
100
AcDbLine
 10
-982.4999999995799
 20
1329.99999999986
 30
0.0
 11
-1001.49999999958
 21
1329.99999999986
 31
0.0
  0
LINE
  5
B7
330
69
100
AcDbEntity
  8
0
  6
Continuous
 62
     7
100
AcDbLine
 10
-1096.49999999958
 20
1329.99999999986
 30
0.0
 11
-1115.49999999958
 21
1329.99999999986
 31
0.0
  0
LINE
  5
B8
330
69
100
AcDbEntity
  8
0
  6
Continuous
 62
     3
100
AcDbLine
 10
-1114.99999999958
 20
1324.99999999986
 30
0.0
 11
-1115.49999999958
 21
1324.99999999986
 31
0.0
  0
LINE
  5
B9
330
69
100
AcDbEntity
  8
0
  6
Continuous
 62
     3
100
AcDbLine
 10
-1001.633974595795
 20
1330.49999999986
 30
0.0
 11
-1016.366025403364
 21
1330.49999999986
 31
0.0
  0
LINE
  5
BA
330
69
100
AcDbEntity
  8
0
  6
Continuous
 62
     3
100
AcDbLine
 10
-1117.99999999958
 20
1322.49999999986
 30
0.0
 11
-1117.99999999958
 21
1321.99999999986
 31
0.0
  0
LINE
  5
BB
330
69
100
AcDbEntity
  8
0
  6
Continuous
 62
     7
100
AcDbLine
 10
-1095.49999999958
 20
1330.99999999986
 30
0.0
 11
-1082.49999999958
 21
1330.99999999986
 31
0.0
  0
LINE
  5
BC
330
69
100
AcDbEntity
  8
0
  6
Continuous
 62
     7
100
AcDbLine
 10
-1081.49999999958
 20
1329.99999999986
 30
0.0
 11
-1096.49999999958
 21
1329.99999999986
 31
0.0
  0
LINE
  5
BD
330
69
100
AcDbEntity
  8
0
  6
Continuous
 62
     7
100
AcDbLine
 10
-1016.49999999958
 20
1329.99999999986
 30
0.0
 11
-1081.49999999958
 21
1329.99999999986
 31
0.0
  0
LINE
  5
BE
330
69
100
AcDbEntity
  8
0
  6
Continuous
 62
     3
100
AcDbLine
 10
-1096.366025403364
 20
1330.49999999986
 30
0.0
 11
-1081.633974595795
 21
1330.49999999986
 31
0.0
  0
LINE
  5
BF
330
69
100
AcDbEntity
  8
0
  6
Continuous
 62
     7
100
AcDbLine
 10
-1002.49999999958
 20
1330.99999999986
 30
0.0
 11
-1015.49999999958
 21
1330.99999999986
 31
0.0
  0
LINE
  5
C0
330
69
100
AcDbEntity
  8
0
  6
Continuous
 62
     3
100
AcDbLine
 10
-1123.49999999958
 20
1303.366025403644
 30
0.0
 11
-1123.49999999958
 21
1288.633974596075
 31
0.0
  0
LINE
  5
C1
330
69
100
AcDbEntity
  8
0
  6
Continuous
 62
     7
100
AcDbLine
 10
-1095.49999999958
 20
1180.99999999986
 30
0.0
 11
-1082.49999999958
 21
1180.99999999986
 31
0.0
  0
LINE
  5
C2
330
69
100
AcDbEntity
  8
0
  6
Continuous
 62
     7
100
AcDbLine
 10
-1002.49999999958
 20
1180.99999999986
 30
0.0
 11
-1015.49999999958
 21
1180.99999999986
 31
0.0
  0
LINE
  5
C3
330
69
100
AcDbEntity
  8
0
  6
Continuous
 62
     3
100
AcDbLine
 10
-1001.633974595795
 20
1181.49999999986
 30
0.0
 11
-1016.366025403364
 21
1181.49999999986
 31
0.0
  0
LINE
  5
C4
330
69
100
AcDbEntity
  8
0
  6
Continuous
 62
     3
100
AcDbLine
 10
-1096.366025403364
 20
1181.49999999986
 30
0.0
 11
-1081.633974595795
 21
1181.49999999986
 31
0.0
  0
LINE
  5
C5
330
69
100
AcDbEntity
  8
0
  6
Continuous
 62
     3
100
AcDbLine
 10
-982.4999999995798
 20
1186.49999999986
 30
0.0
 11
-982.4999999995798
 21
1186.99999999986
 31
0.0
  0
LINE
  5
C6
330
69
100
AcDbEntity
  8
0
  6
Continuous
 62
     7
100
AcDbLine
 10
-1001.49999999958
 20
1181.99999999986
 30
0.0
 11
-982.4999999995797
 21
1181.99999999986
 31
0.0
  0
LINE
  5
C7
330
69
100
AcDbEntity
  8
0
  6
Continuous
 62
     7
100
AcDbLine
 10
-1081.49999999958
 20
1181.99999999986
 30
0.0
 11
-1016.49999999958
 21
1181.99999999986
 31
0.0
  0
LINE
  5
C8
330
69
100
AcDbEntity
  8
0
  6
Continuous
 62
     7
100
AcDbLine
 10
-1115.49999999958
 20
1186.49999999986
 30
0.0
 11
-982.4999999995798
 21
1186.49999999986
 31
0.0
  0
LINE
  5
C9
330
69
100
AcDbEntity
  8
0
  6
Continuous
 62
     3
100
AcDbLine
 10
-982.9999999995798
 20
1186.99999999986
 30
0.0
 11
-982.4999999995798
 21
1186.99999999986
 31
0.0
  0
LINE
  5
CA
330
69
100
AcDbEntity
  8
0
  6
Continuous
 62
     7
100
AcDbLine
 10
-1114.99999999958
 20
1186.99999999986
 30
0.0
 11
-982.9999999995798
 21
1186.99999999986
 31
0.0
  0
LINE
  5
CB
330
69
100
AcDbEntity
  8
0
  6
Continuous
 62
     7
100
AcDbLine
 10
-1117.99999999958
 20
1321.99999999986
 30
0.0
 11
-1117.99999999958
 21
1273.642278764237
 31
0.0
  0
LINE
  5
CC
330
69
100
AcDbEntity
  8
0
  6
Continuous
 62
     3
100
AcDbLine
 10
-1117.99999999958
 20
1189.99999999986
 30
0.0
 11
-1117.99999999958
 21
1189.49999999986
 31
0.0
  0
LINE
  5
CD
330
69
100
AcDbEntity
  8
0
  6
Continuous
 62
     7
100
AcDbLine
 10
-1117.99999999958
 20
1238.357721235483
 30
0.0
 11
-1117.99999999958
 21
1189.99999999986
 31
0.0
  0
LINE
  5
CE
330
69
100
AcDbEntity
  8
0
  6
Continuous
 62
     7
100
AcDbLine
 10
-1118.49999999958
 20
1189.49999999986
 30
0.0
 11
-1118.49999999958
 21
1322.49999999986
 31
0.0
  0
LINE
  5
CF
330
69
100
AcDbEntity
  8
0
  6
Continuous
 62
     7
100
AcDbLine
 10
-973.9999999995798
 20
1209.49999999986
 30
0.0
 11
-973.9999999995798
 21
1222.49999999986
 31
0.0
  0
LINE
  5
D0
330
69
100
AcDbEntity
  8
0
  6
Continuous
 62
     3
100
AcDbLine
 10
-974.4999999995798
 20
1208.633974596075
 30
0.0
 11
-974.4999999995798
 21
1223.366025403644
 31
0.0
  0
LINE
  5
D1
330
69
100
AcDbEntity
  8
0
  6
Continuous
 62
     7
100
AcDbLine
 10
-1016.49999999958
 20
1181.99999999986
 30
0.0
 11
-1001.49999999958
 21
1181.99999999986
 31
0.0
  0
LINE
  5
D2
330
69
100
AcDbEntity
  8
0
  6
Continuous
 62
     3
100
AcDbLine
 10
-979.9999999995798
 20
1189.49999999986
 30
0.0
 11
-979.9999999995798
 21
1189.99999999986
 31
0.0
  0
LINE
  5
D3
330
69
100
AcDbEntity
  8
0
  6
Continuous
 62
     3
100
AcDbLine
 10
-979.9999999995798
 20
1189.49999999986
 30
0.0
 11
-979.4999999995798
 21
1189.49999999986
 31
0.0
  0
LINE
  5
D4
330
69
100
AcDbEntity
  8
0
  6
Continuous
 62
     3
100
AcDbLine
 10
-982.4999999995798
 20
1186.49999999986
 30
0.0
 11
-982.4999999995797
 21
1181.99999999986
 31
0.0
  0
LINE
  5
D5
330
69
100
AcDbEntity
  8
0
  6
Continuous
 62
     3
100
AcDbLine
 10
-979.4999999995798
 20
1189.49999999986
 30
0.0
 11
-974.9999999995798
 21
1189.49999999986
 31
0.0
  0
LINE
  5
D6
330
69
100
AcDbEntity
  8
0
  6
Continuous
 62
     3
100
AcDbLine
 10
-1115.49999999958
 20
1186.99999999986
 30
0.0
 11
-1114.99999999958
 21
1186.99999999986
 31
0.0
  0
LINE
  5
D7
330
69
100
AcDbEntity
  8
0
  6
Continuous
 62
     7
100
AcDbLine
 10
-1096.49999999958
 20
1181.99999999986
 30
0.0
 11
-1081.49999999958
 21
1181.99999999986
 31
0.0
  0
LINE
  5
D8
330
69
100
AcDbEntity
  8
0
  6
Continuous
 62
     7
100
AcDbLine
 10
-1115.49999999958
 20
1181.99999999986
 30
0.0
 11
-1096.49999999958
 21
1181.99999999986
 31
0.0
  0
LINE
  5
D9
330
69
100
AcDbEntity
  8
0
  6
Continuous
 62
     7
100
AcDbLine
 10
-1122.99999999958
 20
1208.49999999986
 30
0.0
 11
-1122.99999999958
 21
1223.49999999986
 31
0.0
  0
LINE
  5
DA
330
69
100
AcDbEntity
  8
0
  6
Continuous
 62
     7
100
AcDbLine
 10
-1122.99999999958
 20
1189.49999999986
 30
0.0
 11
-1122.99999999958
 21
1208.49999999986
 31
0.0
  0
LINE
  5
DB
330
69
100
AcDbEntity
  8
0
  6
Continuous
 62
     3
100
AcDbLine
 10
-1118.49999999958
 20
1189.49999999986
 30
0.0
 11
-1117.99999999958
 21
1189.49999999986
 31
0.0
  0
LINE
  5
DC
330
69
100
AcDbEntity
  8
0
  6
Continuous
 62
     3
100
AcDbLine
 10
-1118.49999999958
 20
1189.49999999986
 30
0.0
 11
-1122.99999999958
 21
1189.49999999986
 31
0.0
  0
LINE
  5
DD
330
69
100
AcDbEntity
  8
0
  6
Continuous
 62
     3
100
AcDbLine
 10
-1115.49999999958
 20
1186.49999999986
 30
0.0
 11
-1115.49999999958
 21
1186.99999999986
 31
0.0
  0
LINE
  5
DE
330
69
100
AcDbEntity
  8
0
  6
Continuous
 62
     3
100
AcDbLine
 10
-1115.49999999958
 20
1186.49999999986
 30
0.0
 11
-1115.49999999958
 21
1181.99999999986
 31
0.0
  0
LINE
  5
DF
330
69
100
AcDbEntity
  8
1
  6
DOT_CENTER
 62
     2
100
AcDbLine
 10
-969.77718883895
 20
1255.99999999986
 30
0.0
 11
-1127.48355208497
 21
1255.99999999986
 31
0.0
  0
LINE
  5
E0
330
69
100
AcDbEntity
  8
1
  6
DOT_CENTER
 62
     2
100
AcDbLine
 10
-1048.99999999958
 20
1177.52037398758
 30
0.0
 11
-1048.99999999958
 21
1334.26657672677
 31
0.0
  0
ARC
  5
E1
330
69
100
AcDbEntity
  8
0
  6
Continuous
 62
     7
100
AcDbCircle
 10
-974.9999999995798
 20
1302.49999999986
 30
0.0
 40
1.0
100
AcDbArc
 50
0.0
 51
59.9999999999897
  0
ARC
  5
E2
330
69
100
AcDbEntity
  8
0
  6
Continuous
 62
     7
100
AcDbCircle
 10
-974.9999999995798
 20
1302.49999999986
 30
0.0
 40
0.9999999999996882
100
AcDbArc
 50
59.9999999999897
 51
90.0
  0
ARC
  5
E3
330
69
100
AcDbEntity
  8
0
  6
Continuous
 62
     7
100
AcDbCircle
 10
-974.9999999995798
 20
1289.49999999986
 30
0.0
 40
1.0
100
AcDbArc
 50
270.0
 51
299.9999999999842
  0
ARC
  5
E4
330
69
100
AcDbEntity
  8
0
  6
Continuous
 62
     7
100
AcDbCircle
 10
-1002.49999999958
 20
1329.99999999986
 30
0.0
 40
1.0
100
AcDbArc
 50
0.0
 51
29.99999999998426
  0
ARC
  5
E5
330
69
100
AcDbEntity
  8
0
  6
Continuous
 62
     7
100
AcDbCircle
 10
-982.4999999995798
 20
1322.49999999986
 30
0.0
 40
3.0
100
AcDbArc
 50
0.0
 51
90.0
  0
ARC
  5
E6
330
69
100
AcDbEntity
  8
0
  6
Continuous
 62
     3
100
AcDbCircle
 10
-982.4999999995798
 20
1189.49999999986
 30
0.0
 40
2.5
100
AcDbArc
 50
270.0
 51
0.0
  0
ARC
  5
E7
330
69
100
AcDbEntity
  8
0
  6
Continuous
 62
     7
100
AcDbCircle
 10
-982.4999999995798
 20
1322.49999999986
 30
0.0
 40
7.5
100
AcDbArc
 50
0.0
 51
90.00000000000088
  0
ARC
  5
E8
330
69
100
AcDbEntity
  8
0
  6
Continuous
 62
     7
100
AcDbCircle
 10
-974.9999999995798
 20
1289.49999999986
 30
0.0
 40
1.000000000000476
100
AcDbArc
 50
299.9999999999842
 51
0.0
  0
ARC
  5
E9
330
69
100
AcDbEntity
  8
0
  6
Continuous
 62
     7
100
AcDbCircle
 10
-1122.99999999958
 20
1222.49999999986
 30
0.0
 40
1.0
100
AcDbArc
 50
90.0
 51
120.0000000000103
  0
ARC
  5
EA
330
69
100
AcDbEntity
  8
0
  6
Continuous
 62
     7
100
AcDbCircle
 10
-1122.99999999958
 20
1209.49999999986
 30
0.0
 40
1.000000000000476
100
AcDbArc
 50
240.0000000000157
 51
270.0
  0
ARC
  5
EB
330
69
100
AcDbEntity
  8
0
  6
Continuous
 62
     7
100
AcDbCircle
 10
-1122.99999999958
 20
1209.49999999986
 30
0.0
 40
1.0
100
AcDbArc
 50
180.0
 51
240.0000000000157
  0
ARC
  5
EC
330
69
100
AcDbEntity
  8
0
  6
Continuous
 62
     7
100
AcDbCircle
 10
-1122.99999999958
 20
1289.49999999986
 30
0.0
 40
1.000000000000476
100
AcDbArc
 50
240.0000000000157
 51
270.0
  0
ARC
  5
ED
330
69
100
AcDbEntity
  8
0
  6
Continuous
 62
     7
100
AcDbCircle
 10
-1122.99999999958
 20
1289.49999999986
 30
0.0
 40
1.0
100
AcDbArc
 50
180.0
 51
240.0000000000157
  0
ARC
  5
EE
330
69
100
AcDbEntity
  8
0
  6
Continuous
 62
     7
100
AcDbCircle
 10
-1122.99999999958
 20
1222.49999999986
 30
0.0
 40
0.9999999999996882
100
AcDbArc
 50
120.0000000000103
 51
180.0
  0
ARC
  5
EF
330
69
100
AcDbEntity
  8
0
  6
Continuous
 62
     3
100
AcDbCircle
 10
-1115.49999999958
 20
1322.49999999986
 30
0.0
 40
2.5
100
AcDbArc
 50
90.0
 51
180.0
  0
ARC
  5
F0
330
69
100
AcDbEntity
  8
0
  6
Continuous
 62
     7
100
AcDbCircle
 10
-1115.49999999958
 20
1322.49999999986
 30
0.0
 40
7.5
100
AcDbArc
 50
90.0
 51
180.0
  0
ARC
  5
F1
330
69
100
AcDbEntity
  8
0
  6
Continuous
 62
     7
100
AcDbCircle
 10
-1115.49999999958
 20
1322.49999999986
 30
0.0
 40
3.0
100
AcDbArc
 50
90.0
 51
180.0
  0
ARC
  5
F2
330
69
100
AcDbEntity
  8
0
  6
Continuous
 62
     3
100
AcDbCircle
 10
-982.4999999995798
 20
1322.49999999986
 30
0.0
 40
2.5
100
AcDbArc
 50
0.0
 51
90.0
  0
ARC
  5
F3
330
69
100
AcDbEntity
  8
0
  6
Continuous
 62
     7
100
AcDbCircle
 10
-1002.49999999958
 20
1329.99999999986
 30
0.0
 40
1.000000000000476
100
AcDbArc
 50
29.99999999998426
 51
90.0
  0
ARC
  5
F4
330
69
100
AcDbEntity
  8
0
  6
Continuous
 62
     7
100
AcDbCircle
 10
-1095.49999999958
 20
1329.99999999986
 30
0.0
 40
0.9999999999994913
100
AcDbArc
 50
149.9999999999832
 51
180.0
  0
ARC
  5
F5
330
69
100
AcDbEntity
  8
0
  6
Continuous
 62
     7
100
AcDbCircle
 10
-1095.49999999958
 20
1329.99999999986
 30
0.0
 40
1.0
100
AcDbArc
 50
90.0
 51
149.9999999999832
  0
ARC
  5
F6
330
69
100
AcDbEntity
  8
0
  6
Continuous
 62
     7
100
AcDbCircle
 10
-1082.49999999958
 20
1329.99999999986
 30
0.0
 40
1.0
100
AcDbArc
 50
0.0
 51
29.99999999998426
  0
ARC
  5
F7
330
69
100
AcDbEntity
  8
0
  6
Continuous
 62
     7
100
AcDbCircle
 10
-1015.49999999958
 20
1329.99999999986
 30
0.0
 40
0.9999999999995898
100
AcDbArc
 50
149.9999999999864
 51
180.0
  0
ARC
  5
F8
330
69
100
AcDbEntity
  8
0
  6
Continuous
 62
     7
100
AcDbCircle
 10
-1015.49999999958
 20
1329.99999999986
 30
0.0
 40
1.0
100
AcDbArc
 50
90.0
 51
149.9999999999864
  0
ARC
  5
F9
330
69
100
AcDbEntity
  8
0
  6
Continuous
 62
     7
100
AcDbCircle
 10
-1082.49999999958
 20
1329.99999999986
 30
0.0
 40
1.000000000000476
100
AcDbArc
 50
29.99999999998426
 51
90.0
  0
ARC
  5
FA
330
69
100
AcDbEntity
  8
0
  6
Continuous
 62
     7
100
AcDbCircle
 10
-1122.99999999958
 20
1302.49999999986
 30
0.0
 40
1.0
100
AcDbArc
 50
90.0
 51
120.0000000000103
  0
ARC
  5
FB
330
69
100
AcDbEntity
  8
0
  6
Continuous
 62
     7
100
AcDbCircle
 10
-1122.99999999958
 20
1302.49999999986
 30
0.0
 40
0.9999999999996882
100
AcDbArc
 50
120.0000000000103
 51
180.0
  0
ARC
  5
FC
330
69
100
AcDbEntity
  8
0
  6
Continuous
 62
     7
100
AcDbCircle
 10
-1002.49999999958
 20
1181.99999999986
 30
0.0
 40
1.000000000000476
100
AcDbArc
 50
330.0000000000158
 51
0.0
  0
ARC
  5
FD
330
69
100
AcDbEntity
  8
0
  6
Continuous
 62
     7
100
AcDbCircle
 10
-1002.49999999958
 20
1181.99999999986
 30
0.0
 40
1.0
100
AcDbArc
 50
270.0
 51
330.0000000000158
  0
ARC
  5
FE
330
69
100
AcDbEntity
  8
0
  6
Continuous
 62
     7
100
AcDbCircle
 10
-1015.49999999958
 20
1181.99999999986
 30
0.0
 40
1.0
100
AcDbArc
 50
180.0
 51
210.0000000000136
  0
ARC
  5
FF
330
69
100
AcDbEntity
  8
0
  6
Continuous
 62
     7
100
AcDbCircle
 10
-1095.49999999958
 20
1181.99999999986
 30
0.0
 40
1.0
100
AcDbArc
 50
180.0
 51
210.0000000000168
  0
ARC
  5
100
330
69
100
AcDbEntity
  8
0
  6
Continuous
 62
     7
100
AcDbCircle
 10
-1082.49999999958
 20
1181.99999999986
 30
0.0
 40
1.000000000000476
100
AcDbArc
 50
330.0000000000158
 51
0.0
  0
ARC
  5
101
330
69
100
AcDbEntity
  8
0
  6
Continuous
 62
     7
100
AcDbCircle
 10
-1095.49999999958
 20
1181.99999999986
 30
0.0
 40
0.9999999999994913
100
AcDbArc
 50
210.0000000000168
 51
270.0
  0
ARC
  5
102
330
69
100
AcDbEntity
  8
0
  6
Continuous
 62
     7
100
AcDbCircle
 10
-1015.49999999958
 20
1181.99999999986
 30
0.0
 40
0.9999999999995898
100
AcDbArc
 50
210.0000000000136
 51
270.0
  0
ARC
  5
103
330
69
100
AcDbEntity
  8
0
  6
Continuous
 62
     7
100
AcDbCircle
 10
-1082.49999999958
 20
1181.99999999986
 30
0.0
 40
1.0
100
AcDbArc
 50
270.0
 51
330.0000000000158
  0
ARC
  5
104
330
69
100
AcDbEntity
  8
0
  6
Continuous
 62
     7
100
AcDbCircle
 10
-974.9999999995798
 20
1209.49999999986
 30
0.0
 40
1.000000000000476
100
AcDbArc
 50
299.9999999999842
 51
0.0
  0
ARC
  5
105
330
69
100
AcDbEntity
  8
0
  6
Continuous
 62
     7
100
AcDbCircle
 10
-974.9999999995798
 20
1222.49999999986
 30
0.0
 40
1.0
100
AcDbArc
 50
0.0
 51
59.9999999999897
  0
ARC
  5
106
330
69
100
AcDbEntity
  8
0
  6
Continuous
 62
     7
100
AcDbCircle
 10
-974.9999999995798
 20
1222.49999999986
 30
0.0
 40
0.9999999999996882
100
AcDbArc
 50
59.9999999999897
 51
90.0
  0
ARC
  5
107
330
69
100
AcDbEntity
  8
0
  6
Continuous
 62
     7
100
AcDbCircle
 10
-974.9999999995798
 20
1209.49999999986
 30
0.0
 40
1.0
100
AcDbArc
 50
270.0
 51
299.9999999999842
  0
ARC
  5
108
330
69
100
AcDbEntity
  8
0
  6
Continuous
 62
     7
100
AcDbCircle
 10
-982.4999999995798
 20
1189.49999999986
 30
0.0
 40
3.0
100
AcDbArc
 50
270.0
 51
0.0
  0
ARC
  5
109
330
69
100
AcDbEntity
  8
0
  6
Continuous
 62
     7
100
AcDbCircle
 10
-982.4999999995798
 20
1189.49999999986
 30
0.0
 40
7.5
100
AcDbArc
 50
270.0000000000009
 51
0.0
  0
ARC
  5
10A
330
69
100
AcDbEntity
  8
0
  6
Continuous
 62
     7
100
AcDbCircle
 10
-1115.49999999958
 20
1189.49999999986
 30
0.0
 40
3.0
100
AcDbArc
 50
180.0
 51
270.0
  0
ARC
  5
10B
330
69
100
AcDbEntity
  8
0
  6
Continuous
 62
     3
100
AcDbCircle
 10
-1115.49999999958
 20
1189.49999999986
 30
0.0
 40
2.5
100
AcDbArc
 50
180.0
 51
270.0
  0
ARC
  5
10C
330
69
100
AcDbEntity
  8
0
  6
Continuous
 62
     7
100
AcDbCircle
 10
-1115.49999999958
 20
1189.49999999986
 30
0.0
 40
7.5
100
AcDbArc
 50
180.0
 51
270.0
  0
ARC
  5
10D
330
69
100
AcDbEntity
  8
0
  6
Continuous
 62
     3
100
AcDbCircle
 10
-1056.99999999958
 20
1255.99999999986
 30
0.0
 40
63.50000000000026
100
AcDbArc
 50
324.1960629537455
 51
331.8071394382678
  0
ARC
  5
10E
330
69
100
AcDbEntity
  8
0
  6
Continuous
 62
     3
100
AcDbCircle
 10
-1056.99999999958
 20
1255.99999999986
 30
0.0
 40
63.49999999999997
100
AcDbArc
 50
44.23082480243717
 51
53.24280625890018
  0
ARC
  5
10F
330
69
100
AcDbEntity
  8
0
  6
Continuous
 62
     3
100
AcDbCircle
 10
-1056.99999999958
 20
1255.99999999986
 30
0.0
 40
63.49999999999997
100
AcDbArc
 50
28.1928605617322
 51
35.8039370462547
  0
ARC
  5
110
330
69
100
AcDbEntity
  8
0
  6
Continuous
 62
     7
100
AcDbCircle
 10
-1056.99999999958
 20
1255.99999999986
 30
0.0
 40
60.49999999999994
100
AcDbArc
 50
328.3467597362554
 51
330.2730117288768
  0
ARC
  5
111
330
69
100
AcDbEntity
  8
0
  6
Continuous
 62
     7
100
AcDbCircle
 10
-1056.99999999958
 20
1255.99999999986
 30
0.0
 40
60.50000000000017
100
AcDbArc
 50
308.9100218258213
 51
314.027338496542
  0
ARC
  5
112
330
69
100
AcDbEntity
  8
0
  6
Continuous
 62
     3
100
AcDbCircle
 10
-1056.99999999958
 20
1255.99999999986
 30
0.0
 40
63.50000000000018
100
AcDbArc
 50
306.7571937411
 51
315.769175197563
  0
ARC
  5
113
330
69
100
AcDbEntity
  8
0
  6
Continuous
 62
     3
100
AcDbCircle
 10
-1056.999999999579
 20
1255.999999999862
 30
0.0
 40
63.49999999999999
100
AcDbArc
 50
337.7930708302434
 51
338.3001993924983
  0
ARC
  5
114
330
69
100
AcDbEntity
  8
0
  6
Continuous
 62
     7
100
AcDbCircle
 10
-1056.99999999958
 20
1255.99999999986
 30
0.0
 40
60.50000000000004
100
AcDbArc
 50
336.6283201271072
 51
344.1733798681277
  0
ARC
  5
115
330
69
100
AcDbEntity
  8
0
  6
Continuous
 62
     3
100
AcDbCircle
 10
-1056.99999999958
 20
1255.99999999986
 30
0.0
 40
63.49999999999999
100
AcDbArc
 50
227.3774710187537
 51
233.4319289831106
  0
ARC
  5
116
330
69
100
AcDbEntity
  8
0
  6
Continuous
 62
     7
100
AcDbCircle
 10
-1056.99999999958
 20
1255.99999999986
 30
0.0
 40
60.49999999999971
100
AcDbArc
 50
225.9726615034587
 51
234.0713835788247
  0
ARC
  5
117
330
69
100
AcDbEntity
  8
0
  6
Continuous
 62
     3
100
AcDbCircle
 10
-1056.99999999958
 20
1255.99999999986
 30
0.0
 40
63.50000000000003
100
AcDbArc
 50
126.5680710168894
 51
132.6225289812462
  0
ARC
  5
118
330
69
100
AcDbEntity
  8
0
  6
Continuous
 62
     7
100
AcDbCircle
 10
-1056.99999999958
 20
1255.99999999986
 30
0.0
 40
60.50000000000041
100
AcDbArc
 50
125.9286164211752
 51
134.0273384965413
  0
ARC
  5
119
330
69
100
AcDbEntity
  8
0
  6
Continuous
 62
     7
100
AcDbCircle
 10
-1056.99999999958
 20
1255.99999999986
 30
0.0
 40
60.50000000000028
100
AcDbArc
 50
29.72698827112311
 51
31.65324026374461
  0
ARC
  5
11A
330
69
100
AcDbEntity
  8
0
  6
Continuous
 62
     3
100
AcDbCircle
 10
-1056.999999999579
 20
1255.999999999858
 30
0.0
 40
63.50000000000004
100
AcDbArc
 50
21.69980060750188
 51
22.20692916975663
  0
ARC
  5
11B
330
69
100
AcDbEntity
  8
0
  6
Continuous
 62
     7
100
AcDbCircle
 10
-1056.99999999958
 20
1255.99999999986
 30
0.0
 40
60.5000000000005
100
AcDbArc
 50
45.97266150345794
 51
51.0899781741788
  0
ARC
  5
11C
330
69
100
AcDbEntity
  8
0
  6
Continuous
 62
     7
100
AcDbCircle
 10
-1056.99999999958
 20
1255.99999999986
 30
0.0
 40
60.50000000000021
100
AcDbArc
 50
15.82662013187229
 51
23.37167987289282
  0
SPLINE
  5
11D
330
69
100
AcDbEntity
  8
0
  6
Continuous
 62
     3
100
AcDbSpline
210
0.0
220
0.0
230
1.0
 70
  1064
 71
     3
 72
    11
 73
     7
 74
     5
 42
0.0000000001
 43
0.0000000001
 44
0.00000001
 40
0.0
 40
0.0
 40
0.0
 40
0.0
 40
8.737100856603172
 40
17.64666846563735
 40
26.55639274448193
 40
35.29364775215106
 40
35.29364775215106
 40
35.29364775215106
 40
35.29364775215106
 10
-1117.99999999958
 20
1238.357721235483
 30
0.0
 10
-1118.101927238764
 20
1241.268422558619
 30
0.0
 10
-1118.307793703529
 20
1247.147281243982
 30
0.0
 10
-1118.382057444886
 20
1255.999896794168
 30
0.0
 10
-1118.307798163309
 20
1264.852563810397
 30
0.0
 10
-1118.101928717664
 20
1270.731526072448
 30
0.0
 10
-1117.99999999958
 20
1273.642278764237
 30
0.0
 11
-1117.99999999958
 21
1238.357721235483
 31
0.0
 11
-1118.267413237302
 21
1247.090728823958
 31
0.0
 11
-1118.357142856695
 21
1255.999844581381
 31
0.0
 11
-1118.267416357375
 21
1264.909117047984
 31
0.0
 11
-1117.99999999958
 21
1273.642278764237
 31
0.0
  0
ENDBLK
  5
6B
330
69
100
AcDbEntity
  8
0
100
AcDbBlockEnd
  0
BLOCK
  5
6F
330
6C
100
AcDbEntity
  8
0
100
AcDbBlockBegin
  2
HL066Q_3E__3
 70
     0
 10
-1123.99999999958
 20
1180.99999999986
 30
0.0
  3
HL066Q_3E__3
  1

  0
INSERT
  5
6D
330
6C
100
AcDbEntity
  8
0
100
AcDbBlockReference
  2
300020689__1
 10
-1099.99999999958
 20
1204.99999999986
 30
0.0
  0
INSERT
  5
6E
330
6C
100
AcDbEntity
  8
0
100
AcDbBlockReference
  2
395550659__2
 10
-1123.99999999958
 20
1180.99999999986
 30
0.0
  0
ENDBLK
  5
70
330
6C
100
AcDbEntity
  8
0
100
AcDbBlockEnd
  0
BLOCK
  5
72
330
71
100
AcDbEntity
  8
0
100
AcDbBlockBegin
  2
066Q-1E
 70
     0
 10
-1117.99999999958
 20
1186.99999999986
 30
0.0
  3
066Q-1E
  1

  0
LINE
  5
11E
330
71
100
AcDbEntity
  8
0
  6
Continuous
 62
     7
100
AcDbLine
 10
-979.9999999995798
 20
1189.99999999986
 30
0.0
 11
-979.9999999995798
 21
1321.99999999986
 31
0.0
  0
LINE
  5
11F
330
71
100
AcDbEntity
  8
0
  6
Continuous
 62
     7
100
AcDbLine
 10
-982.9999999995798
 20
1324.99999999986
 30
0.0
 11
-1114.99999999958
 21
1324.99999999986
 31
0.0
  0
LINE
  5
120
330
71
100
AcDbEntity
  8
0
  6
Continuous
 62
     7
100
AcDbLine
 10
-1114.99999999958
 20
1186.99999999986
 30
0.0
 11
-982.9999999995798
 21
1186.99999999986
 31
0.0
  0
LINE
  5
121
330
71
100
AcDbEntity
  8
0
  6
Continuous
 62
     7
100
AcDbLine
 10
-1117.99999999958
 20
1321.99999999986
 30
0.0
 11
-1117.99999999958
 21
1273.642278764237
 31
0.0
  0
LINE
  5
122
330
71
100
AcDbEntity
  8
0
  6
Continuous
 62
     7
100
AcDbLine
 10
-1117.99999999958
 20
1238.357721235483
 30
0.0
 11
-1117.99999999958
 21
1189.99999999986
 31
0.0
  0
LINE
  5
123
330
71
100
AcDbEntity
  8
0
  6
Continuous
 62
     7
100
AcDbLine
 10
-992.1736489595797
 20
1193.475692557751
 30
0.0
 11
-994.8403956795798
 21
1193.475692557751
 31
0.0
  0
LINE
  5
124
330
71
100
AcDbEntity
  8
0
  6
Continuous
 62
     7
100
AcDbLine
 10
-993.8288004795797
 20
1194.487287757751
 30
0.0
 11
-992.1736489595797
 21
1194.487287757751
 31
0.0
  0
LINE
  5
125
330
71
100
AcDbEntity
  8
0
  6
Continuous
 62
     7
100
AcDbLine
 10
-993.8288004795797
 20
1198.131909837751
 30
0.0
 11
-993.8288004795797
 21
1194.487287757751
 31
0.0
  0
LINE
  5
126
330
71
100
AcDbEntity
  8
0
  6
Continuous
 62
     7
100
AcDbLine
 10
-994.8403956795798
 20
1193.475692557751
 30
0.0
 11
-994.8403956795797
 21
1198.131909837751
 31
0.0
  0
LINE
  5
127
330
71
100
AcDbEntity
  8
0
  6
Continuous
 62
     7
100
AcDbLine
 10
-998.1955197595797
 20
1195.364003597751
 30
0.0
 11
-998.1955197595798
 21
1193.607692557751
 31
0.0
  0
LINE
  5
128
330
71
100
AcDbEntity
  8
0
  6
Continuous
 62
     7
100
AcDbLine
 10
-996.6275471995797
 20
1193.607692557751
 30
0.0
 11
-996.6275471995797
 21
1195.364003597751
 31
0.0
  0
LINE
  5
129
330
71
100
AcDbEntity
  8
0
  6
Continuous
 62
     7
100
AcDbLine
 10
-999.2071149595798
 20
1193.607692557751
 30
0.0
 11
-999.2071149595797
 21
1198.131909837751
 31
0.0
  0
LINE
  5
12A
330
71
100
AcDbEntity
  8
0
  6
Continuous
 62
     7
100
AcDbLine
 10
-995.6159519995797
 20
1198.131909837751
 30
0.0
 11
-995.6159519995797
 21
1193.607692557751
 31
0.0
  0
LINE
  5
12B
330
71
100
AcDbEntity
  8
0
  6
Continuous
 62
     7
100
AcDbLine
 10
-996.6275471995797
 20
1195.364003597751
 30
0.0
 11
-998.1955197595797
 21
1195.364003597751
 31
0.0
  0
LINE
  5
12C
330
71
100
AcDbEntity
  8
0
  6
Continuous
 62
     7
100
AcDbLine
 10
-1117.99999999958
 20
1273.642278764237
 30
0.0
 11
-1117.99999999958
 21
1238.357721235483
 31
0.0
  0
LINE
  5
12D
330
71
100
AcDbEntity
  8
0
  6
Continuous
 62
     7
100
AcDbLine
 10
-997.9999999995798
 20
1204.99999999986
 30
0.0
 11
-997.9999999995798
 21
1212.49999999986
 31
0.0
  0
LINE
  5
12E
330
71
100
AcDbEntity
  8
0
  6
Continuous
 62
     7
100
AcDbLine
 10
-997.9999999995798
 20
1212.49999999986
 30
0.0
 11
-1005.49999999958
 21
1212.49999999986
 31
0.0
  0
LINE
  5
12F
330
71
100
AcDbEntity
  8
0
  6
Continuous
 62
     7
100
AcDbLine
 10
-1005.49999999958
 20
1204.99999999986
 30
0.0
 11
-997.9999999995798
 21
1204.99999999986
 31
0.0
  0
LINE
  5
130
330
71
100
AcDbEntity
  8
0
  6
Continuous
 62
     7
100
AcDbLine
 10
-1005.49999999958
 20
1239.49999999986
 30
0.0
 11
-1005.49999999958
 21
1231.99999999986
 31
0.0
  0
LINE
  5
131
330
71
100
AcDbEntity
  8
0
  6
Continuous
 62
     7
100
AcDbLine
 10
-1011.49999999958
 20
1239.49999999986
 30
0.0
 11
-1018.99999999958
 21
1239.49999999986
 31
0.0
  0
LINE
  5
132
330
71
100
AcDbEntity
  8
0
  6
Continuous
 62
     7
100
AcDbLine
 10
-1018.99999999958
 20
1239.49999999986
 30
0.0
 11
-1018.99999999958
 21
1231.99999999986
 31
0.0
  0
LINE
  5
133
330
71
100
AcDbEntity
  8
0
  6
Continuous
 62
     7
100
AcDbLine
 10
-1011.49999999958
 20
1231.99999999986
 30
0.0
 11
-1011.49999999958
 21
1239.49999999986
 31
0.0
  0
LINE
  5
134
330
71
100
AcDbEntity
  8
0
  6
Continuous
 62
     7
100
AcDbLine
 10
-1045.99999999958
 20
1239.49999999986
 30
0.0
 11
-1045.99999999958
 21
1231.99999999986
 31
0.0
  0
LINE
  5
135
330
71
100
AcDbEntity
  8
0
  6
Continuous
 62
     7
100
AcDbLine
 10
-1032.49999999958
 20
1239.49999999986
 30
0.0
 11
-1032.49999999958
 21
1231.99999999986
 31
0.0
  0
LINE
  5
136
330
71
100
AcDbEntity
  8
0
  6
Continuous
 62
     7
100
AcDbLine
 10
-1045.99999999958
 20
1204.99999999986
 30
0.0
 11
-1038.49999999958
 21
1204.99999999986
 31
0.0
  0
LINE
  5
137
330
71
100
AcDbEntity
  8
0
  6
Continuous
 62
     7
100
AcDbLine
 10
-1051.99999999958
 20
1212.49999999986
 30
0.0
 11
-1059.49999999958
 21
1212.49999999986
 31
0.0
  0
LINE
  5
138
330
71
100
AcDbEntity
  8
0
  6
Continuous
 62
     7
100
AcDbLine
 10
-1038.49999999958
 20
1212.49999999986
 30
0.0
 11
-1045.99999999958
 21
1212.49999999986
 31
0.0
  0
LINE
  5
139
330
71
100
AcDbEntity
  8
0
  6
Continuous
 62
     7
100
AcDbLine
 10
-1038.49999999958
 20
1239.49999999986
 30
0.0
 11
-1045.99999999958
 21
1239.49999999986
 31
0.0
  0
LINE
  5
13A
330
71
100
AcDbEntity
  8
0
  6
Continuous
 62
     7
100
AcDbLine
 10
-1051.99999999958
 20
1239.49999999986
 30
0.0
 11
-1059.49999999958
 21
1239.49999999986
 31
0.0
  0
LINE
  5
13B
330
71
100
AcDbEntity
  8
0
  6
Continuous
 62
     7
100
AcDbLine
 10
-1059.49999999958
 20
1212.49999999986
 30
0.0
 11
-1059.49999999958
 21
1204.99999999986
 31
0.0
  0
LINE
  5
13C
330
71
100
AcDbEntity
  8
0
  6
Continuous
 62
     7
100
AcDbLine
 10
-1059.49999999958
 20
1204.99999999986
 30
0.0
 11
-1051.99999999958
 21
1204.99999999986
 31
0.0
  0
LINE
  5
13D
330
71
100
AcDbEntity
  8
0
  6
Continuous
 62
     7
100
AcDbLine
 10
-1051.99999999958
 20
1204.99999999986
 30
0.0
 11
-1051.99999999958
 21
1212.49999999986
 31
0.0
  0
LINE
  5
13E
330
71
100
AcDbEntity
  8
0
  6
Continuous
 62
     7
100
AcDbLine
 10
-1045.99999999958
 20
1212.49999999986
 30
0.0
 11
-1045.99999999958
 21
1204.99999999986
 31
0.0
  0
LINE
  5
13F
330
71
100
AcDbEntity
  8
0
  6
Continuous
 62
     7
100
AcDbLine
 10
-1051.99999999958
 20
1231.99999999986
 30
0.0
 11
-1051.99999999958
 21
1239.49999999986
 31
0.0
  0
LINE
  5
140
330
71
100
AcDbEntity
  8
0
  6
Continuous
 62
     7
100
AcDbLine
 10
-1005.49999999958
 20
1225.99999999986
 30
0.0
 11
-1005.49999999958
 21
1218.49999999986
 31
0.0
  0
LINE
  5
141
330
71
100
AcDbEntity
  8
0
  6
Continuous
 62
     7
100
AcDbLine
 10
-1005.49999999958
 20
1212.49999999986
 30
0.0
 11
-1005.49999999958
 21
1204.99999999986
 31
0.0
  0
LINE
  5
142
330
71
100
AcDbEntity
  8
0
  6
Continuous
 62
     7
100
AcDbLine
 10
-1032.49999999958
 20
1212.49999999986
 30
0.0
 11
-1032.49999999958
 21
1204.99999999986
 31
0.0
  0
LINE
  5
143
330
71
100
AcDbEntity
  8
0
  6
Continuous
 62
     7
100
AcDbLine
 10
-1024.99999999958
 20
1204.99999999986
 30
0.0
 11
-1024.99999999958
 21
1212.49999999986
 31
0.0
  0
LINE
  5
144
330
71
100
AcDbEntity
  8
0
  6
Continuous
 62
     7
100
AcDbLine
 10
-1011.49999999958
 20
1212.49999999986
 30
0.0
 11
-1018.99999999958
 21
1212.49999999986
 31
0.0
  0
LINE
  5
145
330
71
100
AcDbEntity
  8
0
  6
Continuous
 62
     7
100
AcDbLine
 10
-1018.99999999958
 20
1204.99999999986
 30
0.0
 11
-1011.49999999958
 21
1204.99999999986
 31
0.0
  0
LINE
  5
146
330
71
100
AcDbEntity
  8
0
  6
Continuous
 62
     7
100
AcDbLine
 10
-1011.49999999958
 20
1204.99999999986
 30
0.0
 11
-1011.49999999958
 21
1212.49999999986
 31
0.0
  0
LINE
  5
147
330
71
100
AcDbEntity
  8
0
  6
Continuous
 62
     7
100
AcDbLine
 10
-1018.99999999958
 20
1212.49999999986
 30
0.0
 11
-1018.99999999958
 21
1204.99999999986
 31
0.0
  0
LINE
  5
148
330
71
100
AcDbEntity
  8
0
  6
Continuous
 62
     7
100
AcDbLine
 10
-1032.49999999958
 20
1204.99999999986
 30
0.0
 11
-1024.99999999958
 21
1204.99999999986
 31
0.0
  0
LINE
  5
149
330
71
100
AcDbEntity
  8
0
  6
Continuous
 62
     7
100
AcDbLine
 10
-1024.99999999958
 20
1212.49999999986
 30
0.0
 11
-1032.49999999958
 21
1212.49999999986
 31
0.0
  0
LINE
  5
14A
330
71
100
AcDbEntity
  8
0
  6
Continuous
 62
     7
100
AcDbLine
 10
-998.1955197595797
 20
1198.131909837751
 30
0.0
 11
-998.1955197595797
 21
1196.375598797751
 31
0.0
  0
LINE
  5
14B
330
71
100
AcDbEntity
  8
0
  6
Continuous
 62
     7
100
AcDbLine
 10
-998.1955197595797
 20
1196.375598797751
 30
0.0
 11
-996.6275471995797
 21
1196.375598797751
 31
0.0
  0
LINE
  5
14C
330
71
100
AcDbEntity
  8
0
  6
Continuous
 62
     7
100
AcDbLine
 10
-996.6275471995797
 20
1196.375598797751
 30
0.0
 11
-996.6275471995797
 21
1198.131909837751
 31
0.0
  0
LINE
  5
14D
330
71
100
AcDbEntity
  8
0
  6
Continuous
 62
     7
100
AcDbLine
 10
-997.9999999995798
 20
1239.49999999986
 30
0.0
 11
-1005.49999999958
 21
1239.49999999986
 31
0.0
  0
LINE
  5
14E
330
71
100
AcDbEntity
  8
0
  6
Continuous
 62
     7
100
AcDbLine
 10
-997.9999999995798
 20
1231.99999999986
 30
0.0
 11
-997.9999999995798
 21
1239.49999999986
 31
0.0
  0
LINE
  5
14F
330
71
100
AcDbEntity
  8
0
  6
Continuous
 62
     7
100
AcDbLine
 10
-1005.49999999958
 20
1231.99999999986
 30
0.0
 11
-997.9999999995798
 21
1231.99999999986
 31
0.0
  0
LINE
  5
150
330
71
100
AcDbEntity
  8
0
  6
Continuous
 62
     7
100
AcDbLine
 10
-997.9999999995798
 20
1225.99999999986
 30
0.0
 11
-1005.49999999958
 21
1225.99999999986
 31
0.0
  0
LINE
  5
151
330
71
100
AcDbEntity
  8
0
  6
Continuous
 62
     7
100
AcDbLine
 10
-997.9999999995798
 20
1218.49999999986
 30
0.0
 11
-997.9999999995798
 21
1225.99999999986
 31
0.0
  0
LINE
  5
152
330
71
100
AcDbEntity
  8
0
  6
Continuous
 62
     7
100
AcDbLine
 10
-1005.49999999958
 20
1218.49999999986
 30
0.0
 11
-997.9999999995798
 21
1218.49999999986
 31
0.0
  0
LINE
  5
153
330
71
100
AcDbEntity
  8
0
  6
Continuous
 62
     7
100
AcDbLine
 10
-1045.99999999958
 20
1218.49999999986
 30
0.0
 11
-1038.49999999958
 21
1218.49999999986
 31
0.0
  0
LINE
  5
154
330
71
100
AcDbEntity
  8
0
  6
Continuous
 62
     7
100
AcDbLine
 10
-1038.49999999958
 20
1218.49999999986
 30
0.0
 11
-1038.49999999958
 21
1225.99999999986
 31
0.0
  0
LINE
  5
155
330
71
100
AcDbEntity
  8
0
  6
Continuous
 62
     7
100
AcDbLine
 10
-1045.99999999958
 20
1225.99999999986
 30
0.0
 11
-1045.99999999958
 21
1218.49999999986
 31
0.0
  0
LINE
  5
156
330
71
100
AcDbEntity
  8
0
  6
Continuous
 62
     7
100
AcDbLine
 10
-1011.49999999958
 20
1218.49999999986
 30
0.0
 11
-1011.49999999958
 21
1225.99999999986
 31
0.0
  0
LINE
  5
157
330
71
100
AcDbEntity
  8
0
  6
Continuous
 62
     7
100
AcDbLine
 10
-1051.99999999958
 20
1225.99999999986
 30
0.0
 11
-1059.49999999958
 21
1225.99999999986
 31
0.0
  0
LINE
  5
158
330
71
100
AcDbEntity
  8
0
  6
Continuous
 62
     7
100
AcDbLine
 10
-1038.49999999958
 20
1225.99999999986
 30
0.0
 11
-1045.99999999958
 21
1225.99999999986
 31
0.0
  0
LINE
  5
159
330
71
100
AcDbEntity
  8
0
  6
Continuous
 62
     7
100
AcDbLine
 10
-1065.49999999958
 20
1225.99999999986
 30
0.0
 11
-1072.99999999958
 21
1225.99999999986
 31
0.0
  0
LINE
  5
15A
330
71
100
AcDbEntity
  8
0
  6
Continuous
 62
     7
100
AcDbLine
 10
-1011.49999999958
 20
1225.99999999986
 30
0.0
 11
-1018.99999999958
 21
1225.99999999986
 31
0.0
  0
LINE
  5
15B
330
71
100
AcDbEntity
  8
0
  6
Continuous
 62
     7
100
AcDbLine
 10
-1059.49999999958
 20
1225.99999999986
 30
0.0
 11
-1059.49999999958
 21
1218.49999999986
 31
0.0
  0
LINE
  5
15C
330
71
100
AcDbEntity
  8
0
  6
Continuous
 62
     7
100
AcDbLine
 10
-1059.49999999958
 20
1218.49999999986
 30
0.0
 11
-1051.99999999958
 21
1218.49999999986
 31
0.0
  0
LINE
  5
15D
330
71
100
AcDbEntity
  8
0
  6
Continuous
 62
     7
100
AcDbLine
 10
-1018.99999999958
 20
1218.49999999986
 30
0.0
 11
-1011.49999999958
 21
1218.49999999986
 31
0.0
  0
LINE
  5
15E
330
71
100
AcDbEntity
  8
0
  6
Continuous
 62
     7
100
AcDbLine
 10
-1051.99999999958
 20
1218.49999999986
 30
0.0
 11
-1051.99999999958
 21
1225.99999999986
 31
0.0
  0
LINE
  5
15F
330
71
100
AcDbEntity
  8
0
  6
Continuous
 62
     7
100
AcDbLine
 10
-1065.49999999958
 20
1218.49999999986
 30
0.0
 11
-1065.49999999958
 21
1225.99999999986
 31
0.0
  0
LINE
  5
160
330
71
100
AcDbEntity
  8
0
  6
Continuous
 62
     7
100
AcDbLine
 10
-1072.99999999958
 20
1225.99999999986
 30
0.0
 11
-1072.99999999958
 21
1218.49999999986
 31
0.0
  0
LINE
  5
161
330
71
100
AcDbEntity
  8
0
  6
Continuous
 62
     7
100
AcDbLine
 10
-1072.99999999958
 20
1218.49999999986
 30
0.0
 11
-1065.49999999958
 21
1218.49999999986
 31
0.0
  0
LINE
  5
162
330
71
100
AcDbEntity
  8
0
  6
Continuous
 62
     7
100
AcDbLine
 10
-1018.99999999958
 20
1231.99999999986
 30
0.0
 11
-1011.49999999958
 21
1231.99999999986
 31
0.0
  0
LINE
  5
163
330
71
100
AcDbEntity
  8
0
  6
Continuous
 62
     7
100
AcDbLine
 10
-1045.99999999958
 20
1231.99999999986
 30
0.0
 11
-1038.49999999958
 21
1231.99999999986
 31
0.0
  0
LINE
  5
164
330
71
100
AcDbEntity
  8
0
  6
Continuous
 62
     7
100
AcDbLine
 10
-1086.49999999958
 20
1231.99999999986
 30
0.0
 11
-1078.99999999958
 21
1231.99999999986
 31
0.0
  0
LINE
  5
165
330
71
100
AcDbEntity
  8
0
  6
Continuous
 62
     7
100
AcDbLine
 10
-1059.49999999958
 20
1231.99999999986
 30
0.0
 11
-1051.99999999958
 21
1231.99999999986
 31
0.0
  0
LINE
  5
166
330
71
100
AcDbEntity
  8
0
  6
Continuous
 62
     7
100
AcDbLine
 10
-1072.99999999958
 20
1231.99999999986
 30
0.0
 11
-1065.49999999958
 21
1231.99999999986
 31
0.0
  0
LINE
  5
167
330
71
100
AcDbEntity
  8
0
  6
Continuous
 62
     7
100
AcDbLine
 10
-1032.49999999958
 20
1231.99999999986
 30
0.0
 11
-1024.99999999958
 21
1231.99999999986
 31
0.0
  0
LINE
  5
168
330
71
100
AcDbEntity
  8
0
  6
Continuous
 62
     7
100
AcDbLine
 10
-1018.99999999958
 20
1225.99999999986
 30
0.0
 11
-1018.99999999958
 21
1218.49999999986
 31
0.0
  0
LINE
  5
169
330
71
100
AcDbEntity
  8
0
  6
Continuous
 62
     7
100
AcDbLine
 10
-1024.99999999958
 20
1231.99999999986
 30
0.0
 11
-1024.99999999958
 21
1239.49999999986
 31
0.0
  0
LINE
  5
16A
330
71
100
AcDbEntity
  8
0
  6
Continuous
 62
     7
100
AcDbLine
 10
-1032.49999999958
 20
1218.49999999986
 30
0.0
 11
-1024.99999999958
 21
1218.49999999986
 31
0.0
  0
LINE
  5
16B
330
71
100
AcDbEntity
  8
0
  6
Continuous
 62
     7
100
AcDbLine
 10
-1024.99999999958
 20
1218.49999999986
 30
0.0
 11
-1024.99999999958
 21
1225.99999999986
 31
0.0
  0
LINE
  5
16C
330
71
100
AcDbEntity
  8
0
  6
Continuous
 62
     7
100
AcDbLine
 10
-1032.49999999958
 20
1225.99999999986
 30
0.0
 11
-1032.49999999958
 21
1218.49999999986
 31
0.0
  0
LINE
  5
16D
330
71
100
AcDbEntity
  8
0
  6
Continuous
 62
     7
100
AcDbLine
 10
-1038.49999999958
 20
1204.99999999986
 30
0.0
 11
-1038.49999999958
 21
1212.49999999986
 31
0.0
  0
LINE
  5
16E
330
71
100
AcDbEntity
  8
0
  6
Continuous
 62
     7
100
AcDbLine
 10
-1038.49999999958
 20
1272.49999999986
 30
0.0
 11
-1038.49999999958
 21
1279.99999999986
 31
0.0
  0
LINE
  5
16F
330
71
100
AcDbEntity
  8
0
  6
Continuous
 62
     7
100
AcDbLine
 10
-1038.49999999958
 20
1258.99999999986
 30
0.0
 11
-1038.49999999958
 21
1266.49999999986
 31
0.0
  0
LINE
  5
170
330
71
100
AcDbEntity
  8
0
  6
Continuous
 62
     7
100
AcDbLine
 10
-1038.49999999958
 20
1245.49999999986
 30
0.0
 11
-1038.49999999958
 21
1252.99999999986
 31
0.0
  0
LINE
  5
171
330
71
100
AcDbEntity
  8
0
  6
Continuous
 62
     7
100
AcDbLine
 10
-1038.49999999958
 20
1299.49999999986
 30
0.0
 11
-1038.49999999958
 21
1306.99999999986
 31
0.0
  0
LINE
  5
172
330
71
100
AcDbEntity
  8
0
  6
Continuous
 62
     7
100
AcDbLine
 10
-1038.49999999958
 20
1231.99999999986
 30
0.0
 11
-1038.49999999958
 21
1239.49999999986
 31
0.0
  0
LINE
  5
173
330
71
100
AcDbEntity
  8
0
  6
Continuous
 62
     7
100
AcDbLine
 10
-1024.99999999958
 20
1239.49999999986
 30
0.0
 11
-1032.49999999958
 21
1239.49999999986
 31
0.0
  0
LINE
  5
174
330
71
100
AcDbEntity
  8
0
  6
Continuous
 62
     7
100
AcDbLine
 10
-1024.99999999958
 20
1225.99999999986
 30
0.0
 11
-1032.49999999958
 21
1225.99999999986
 31
0.0
  0
LINE
  5
175
330
71
100
AcDbEntity
  8
0
  6
Continuous
 62
     7
100
AcDbLine
 10
-1092.49999999958
 20
1212.49999999986
 30
0.0
 11
-1099.99999999958
 21
1212.49999999986
 31
0.0
  0
LINE
  5
176
330
71
100
AcDbEntity
  8
0
  6
Continuous
 62
     7
100
AcDbLine
 10
-1092.49999999958
 20
1204.99999999986
 30
0.0
 11
-1092.49999999958
 21
1212.49999999986
 31
0.0
  0
LINE
  5
177
330
71
100
AcDbEntity
  8
0
  6
Continuous
 62
     7
100
AcDbLine
 10
-1099.99999999958
 20
1212.49999999986
 30
0.0
 11
-1099.99999999958
 21
1204.99999999986
 31
0.0
  0
LINE
  5
178
330
71
100
AcDbEntity
  8
0
  6
Continuous
 62
     7
100
AcDbLine
 10
-1099.99999999958
 20
1204.99999999986
 30
0.0
 11
-1092.49999999958
 21
1204.99999999986
 31
0.0
  0
LINE
  5
179
330
71
100
AcDbEntity
  8
0
  6
Continuous
 62
     7
100
AcDbLine
 10
-1099.99999999958
 20
1245.49999999986
 30
0.0
 11
-1092.49999999958
 21
1245.49999999986
 31
0.0
  0
LINE
  5
17A
330
71
100
AcDbEntity
  8
0
  6
Continuous
 62
     7
100
AcDbLine
 10
-1092.49999999958
 20
1239.49999999986
 30
0.0
 11
-1099.99999999958
 21
1239.49999999986
 31
0.0
  0
LINE
  5
17B
330
71
100
AcDbEntity
  8
0
  6
Continuous
 62
     7
100
AcDbLine
 10
-1099.99999999958
 20
1252.99999999986
 30
0.0
 11
-1099.99999999958
 21
1245.49999999986
 31
0.0
  0
LINE
  5
17C
330
71
100
AcDbEntity
  8
0
  6
Continuous
 62
     7
100
AcDbLine
 10
-1099.99999999958
 20
1239.49999999986
 30
0.0
 11
-1099.99999999958
 21
1231.99999999986
 31
0.0
  0
LINE
  5
17D
330
71
100
AcDbEntity
  8
0
  6
Continuous
 62
     7
100
AcDbLine
 10
-1092.49999999958
 20
1266.49999999986
 30
0.0
 11
-1099.99999999958
 21
1266.49999999986
 31
0.0
  0
LINE
  5
17E
330
71
100
AcDbEntity
  8
0
  6
Continuous
 62
     7
100
AcDbLine
 10
-1099.99999999958
 20
1272.49999999986
 30
0.0
 11
-1092.49999999958
 21
1272.49999999986
 31
0.0
  0
LINE
  5
17F
330
71
100
AcDbEntity
  8
0
  6
Continuous
 62
     7
100
AcDbLine
 10
-1092.49999999958
 20
1272.49999999986
 30
0.0
 11
-1092.49999999958
 21
1279.99999999986
 31
0.0
  0
LINE
  5
180
330
71
100
AcDbEntity
  8
0
  6
Continuous
 62
     7
100
AcDbLine
 10
-1099.99999999958
 20
1279.99999999986
 30
0.0
 11
-1099.99999999958
 21
1272.49999999986
 31
0.0
  0
LINE
  5
181
330
71
100
AcDbEntity
  8
0
  6
Continuous
 62
     7
100
AcDbLine
 10
-1099.99999999958
 20
1258.99999999986
 30
0.0
 11
-1092.49999999958
 21
1258.99999999986
 31
0.0
  0
LINE
  5
182
330
71
100
AcDbEntity
  8
0
  6
Continuous
 62
     7
100
AcDbLine
 10
-1092.49999999958
 20
1252.99999999986
 30
0.0
 11
-1099.99999999958
 21
1252.99999999986
 31
0.0
  0
LINE
  5
183
330
71
100
AcDbEntity
  8
0
  6
Continuous
 62
     7
100
AcDbLine
 10
-1099.99999999958
 20
1266.49999999986
 30
0.0
 11
-1099.99999999958
 21
1258.99999999986
 31
0.0
  0
LINE
  5
184
330
71
100
AcDbEntity
  8
0
  6
Continuous
 62
     7
100
AcDbLine
 10
-1092.49999999958
 20
1245.49999999986
 30
0.0
 11
-1092.49999999958
 21
1252.99999999986
 31
0.0
  0
LINE
  5
185
330
71
100
AcDbEntity
  8
0
  6
Continuous
 62
     7
100
AcDbLine
 10
-1092.49999999958
 20
1231.99999999986
 30
0.0
 11
-1092.49999999958
 21
1239.49999999986
 31
0.0
  0
LINE
  5
186
330
71
100
AcDbEntity
  8
0
  6
Continuous
 62
     7
100
AcDbLine
 10
-1092.49999999958
 20
1258.99999999986
 30
0.0
 11
-1092.49999999958
 21
1266.49999999986
 31
0.0
  0
LINE
  5
187
330
71
100
AcDbEntity
  8
0
  6
Continuous
 62
     7
100
AcDbLine
 10
-1086.49999999958
 20
1279.99999999986
 30
0.0
 11
-1086.49999999958
 21
1272.49999999986
 31
0.0
  0
LINE
  5
188
330
71
100
AcDbEntity
  8
0
  6
Continuous
 62
     7
100
AcDbLine
 10
-1078.99999999958
 20
1245.49999999986
 30
0.0
 11
-1078.99999999958
 21
1252.99999999986
 31
0.0
  0
LINE
  5
189
330
71
100
AcDbEntity
  8
0
  6
Continuous
 62
     7
100
AcDbLine
 10
-1086.49999999958
 20
1252.99999999986
 30
0.0
 11
-1086.49999999958
 21
1245.49999999986
 31
0.0
  0
LINE
  5
18A
330
71
100
AcDbEntity
  8
0
  6
Continuous
 62
     7
100
AcDbLine
 10
-1086.49999999958
 20
1245.49999999986
 30
0.0
 11
-1078.99999999958
 21
1245.49999999986
 31
0.0
  0
LINE
  5
18B
330
71
100
AcDbEntity
  8
0
  6
Continuous
 62
     7
100
AcDbLine
 10
-1078.99999999958
 20
1252.99999999986
 30
0.0
 11
-1086.49999999958
 21
1252.99999999986
 31
0.0
  0
LINE
  5
18C
330
71
100
AcDbEntity
  8
0
  6
Continuous
 62
     7
100
AcDbLine
 10
-1078.99999999958
 20
1258.99999999986
 30
0.0
 11
-1078.99999999958
 21
1266.49999999986
 31
0.0
  0
LINE
  5
18D
330
71
100
AcDbEntity
  8
0
  6
Continuous
 62
     7
100
AcDbLine
 10
-1078.99999999958
 20
1266.49999999986
 30
0.0
 11
-1086.49999999958
 21
1266.49999999986
 31
0.0
  0
LINE
  5
18E
330
71
100
AcDbEntity
  8
0
  6
Continuous
 62
     7
100
AcDbLine
 10
-1086.49999999958
 20
1266.49999999986
 30
0.0
 11
-1086.49999999958
 21
1258.99999999986
 31
0.0
  0
LINE
  5
18F
330
71
100
AcDbEntity
  8
0
  6
Continuous
 62
     7
100
AcDbLine
 10
-1086.49999999958
 20
1258.99999999986
 30
0.0
 11
-1078.99999999958
 21
1258.99999999986
 31
0.0
  0
LINE
  5
190
330
71
100
AcDbEntity
  8
0
  6
Continuous
 62
     7
100
AcDbLine
 10
-1078.99999999958
 20
1204.99999999986
 30
0.0
 11
-1078.99999999958
 21
1212.49999999986
 31
0.0
  0
LINE
  5
191
330
71
100
AcDbEntity
  8
0
  6
Continuous
 62
     7
100
AcDbLine
 10
-1078.99999999958
 20
1212.49999999986
 30
0.0
 11
-1086.49999999958
 21
1212.49999999986
 31
0.0
  0
LINE
  5
192
330
71
100
AcDbEntity
  8
0
  6
Continuous
 62
     7
100
AcDbLine
 10
-1078.99999999958
 20
1225.99999999986
 30
0.0
 11
-1086.49999999958
 21
1225.99999999986
 31
0.0
  0
LINE
  5
193
330
71
100
AcDbEntity
  8
0
  6
Continuous
 62
     7
100
AcDbLine
 10
-1078.99999999958
 20
1218.49999999986
 30
0.0
 11
-1078.99999999958
 21
1225.99999999986
 31
0.0
  0
LINE
  5
194
330
71
100
AcDbEntity
  8
0
  6
Continuous
 62
     7
100
AcDbLine
 10
-1086.49999999958
 20
1212.49999999986
 30
0.0
 11
-1086.49999999958
 21
1204.99999999986
 31
0.0
  0
LINE
  5
195
330
71
100
AcDbEntity
  8
0
  6
Continuous
 62
     7
100
AcDbLine
 10
-1086.49999999958
 20
1225.99999999986
 30
0.0
 11
-1086.49999999958
 21
1218.49999999986
 31
0.0
  0
LINE
  5
196
330
71
100
AcDbEntity
  8
0
  6
Continuous
 62
     7
100
AcDbLine
 10
-1086.49999999958
 20
1239.49999999986
 30
0.0
 11
-1086.49999999958
 21
1231.99999999986
 31
0.0
  0
LINE
  5
197
330
71
100
AcDbEntity
  8
0
  6
Continuous
 62
     7
100
AcDbLine
 10
-1078.99999999958
 20
1239.49999999986
 30
0.0
 11
-1086.49999999958
 21
1239.49999999986
 31
0.0
  0
LINE
  5
198
330
71
100
AcDbEntity
  8
0
  6
Continuous
 62
     7
100
AcDbLine
 10
-1078.99999999958
 20
1231.99999999986
 30
0.0
 11
-1078.99999999958
 21
1239.49999999986
 31
0.0
  0
LINE
  5
199
330
71
100
AcDbEntity
  8
0
  6
Continuous
 62
     7
100
AcDbLine
 10
-1086.49999999958
 20
1272.49999999986
 30
0.0
 11
-1078.99999999958
 21
1272.49999999986
 31
0.0
  0
LINE
  5
19A
330
71
100
AcDbEntity
  8
0
  6
Continuous
 62
     7
100
AcDbLine
 10
-1078.99999999958
 20
1272.49999999986
 30
0.0
 11
-1078.99999999958
 21
1279.99999999986
 31
0.0
  0
LINE
  5
19B
330
71
100
AcDbEntity
  8
0
  6
Continuous
 62
     7
100
AcDbLine
 10
-1072.99999999958
 20
1252.99999999986
 30
0.0
 11
-1072.99999999958
 21
1245.49999999986
 31
0.0
  0
LINE
  5
19C
330
71
100
AcDbEntity
  8
0
  6
Continuous
 62
     7
100
AcDbLine
 10
-1059.49999999958
 20
1245.49999999986
 30
0.0
 11
-1051.99999999958
 21
1245.49999999986
 31
0.0
  0
LINE
  5
19D
330
71
100
AcDbEntity
  8
0
  6
Continuous
 62
     7
100
AcDbLine
 10
-1038.49999999958
 20
1252.99999999986
 30
0.0
 11
-1045.99999999958
 21
1252.99999999986
 31
0.0
  0
LINE
  5
19E
330
71
100
AcDbEntity
  8
0
  6
Continuous
 62
     7
100
AcDbLine
 10
-1051.99999999958
 20
1252.99999999986
 30
0.0
 11
-1059.49999999958
 21
1252.99999999986
 31
0.0
  0
LINE
  5
19F
330
71
100
AcDbEntity
  8
0
  6
Continuous
 62
     7
100
AcDbLine
 10
-1038.49999999958
 20
1266.49999999986
 30
0.0
 11
-1045.99999999958
 21
1266.49999999986
 31
0.0
  0
LINE
  5
1A0
330
71
100
AcDbEntity
  8
0
  6
Continuous
 62
     7
100
AcDbLine
 10
-1045.99999999958
 20
1245.49999999986
 30
0.0
 11
-1038.49999999958
 21
1245.49999999986
 31
0.0
  0
LINE
  5
1A1
330
71
100
AcDbEntity
  8
0
  6
Continuous
 62
     7
100
AcDbLine
 10
-1051.99999999958
 20
1245.49999999986
 30
0.0
 11
-1051.99999999958
 21
1252.99999999986
 31
0.0
  0
LINE
  5
1A2
330
71
100
AcDbEntity
  8
0
  6
Continuous
 62
     7
100
AcDbLine
 10
-1051.99999999958
 20
1258.99999999986
 30
0.0
 11
-1051.99999999958
 21
1266.49999999986
 31
0.0
  0
LINE
  5
1A3
330
71
100
AcDbEntity
  8
0
  6
Continuous
 62
     7
100
AcDbLine
 10
-1045.99999999958
 20
1252.99999999986
 30
0.0
 11
-1045.99999999958
 21
1245.49999999986
 31
0.0
  0
LINE
  5
1A4
330
71
100
AcDbEntity
  8
0
  6
Continuous
 62
     7
100
AcDbLine
 10
-1059.49999999958
 20
1258.99999999986
 30
0.0
 11
-1051.99999999958
 21
1258.99999999986
 31
0.0
  0
LINE
  5
1A5
330
71
100
AcDbEntity
  8
0
  6
Continuous
 62
     7
100
AcDbLine
 10
-1051.99999999958
 20
1266.49999999986
 30
0.0
 11
-1059.49999999958
 21
1266.49999999986
 31
0.0
  0
LINE
  5
1A6
330
71
100
AcDbEntity
  8
0
  6
Continuous
 62
     7
100
AcDbLine
 10
-1045.99999999958
 20
1258.99999999986
 30
0.0
 11
-1038.49999999958
 21
1258.99999999986
 31
0.0
  0
LINE
  5
1A7
330
71
100
AcDbEntity
  8
0
  6
Continuous
 62
     7
100
AcDbLine
 10
-1059.49999999958
 20
1252.99999999986
 30
0.0
 11
-1059.49999999958
 21
1245.49999999986
 31
0.0
  0
LINE
  5
1A8
330
71
100
AcDbEntity
  8
0
  6
Continuous
 62
     7
100
AcDbLine
 10
-1024.99999999958
 20
1245.49999999986
 30
0.0
 11
-1024.99999999958
 21
1252.99999999986
 31
0.0
  0
LINE
  5
1A9
330
71
100
AcDbEntity
  8
0
  6
Continuous
 62
     7
100
AcDbLine
 10
-1032.49999999958
 20
1252.99999999986
 30
0.0
 11
-1032.49999999958
 21
1245.49999999986
 31
0.0
  0
LINE
  5
1AA
330
71
100
AcDbEntity
  8
0
  6
Continuous
 62
     7
100
AcDbLine
 10
-1032.49999999958
 20
1245.49999999986
 30
0.0
 11
-1024.99999999958
 21
1245.49999999986
 31
0.0
  0
LINE
  5
1AB
330
71
100
AcDbEntity
  8
0
  6
Continuous
 62
     7
100
AcDbLine
 10
-1024.99999999958
 20
1252.99999999986
 30
0.0
 11
-1032.49999999958
 21
1252.99999999986
 31
0.0
  0
LINE
  5
1AC
330
71
100
AcDbEntity
  8
0
  6
Continuous
 62
     7
100
AcDbLine
 10
-1032.49999999958
 20
1258.99999999986
 30
0.0
 11
-1024.99999999958
 21
1258.99999999986
 31
0.0
  0
LINE
  5
1AD
330
71
100
AcDbEntity
  8
0
  6
Continuous
 62
     7
100
AcDbLine
 10
-1024.99999999958
 20
1266.49999999986
 30
0.0
 11
-1032.49999999958
 21
1266.49999999986
 31
0.0
  0
LINE
  5
1AE
330
71
100
AcDbEntity
  8
0
  6
Continuous
 62
     7
100
AcDbLine
 10
-1024.99999999958
 20
1306.99999999986
 30
0.0
 11
-1032.49999999958
 21
1306.99999999986
 31
0.0
  0
LINE
  5
1AF
330
71
100
AcDbEntity
  8
0
  6
Continuous
 62
     7
100
AcDbLine
 10
-1032.49999999958
 20
1285.99999999986
 30
0.0
 11
-1024.99999999958
 21
1285.99999999986
 31
0.0
  0
LINE
  5
1B0
330
71
100
AcDbEntity
  8
0
  6
Continuous
 62
     7
100
AcDbLine
 10
-1024.99999999958
 20
1285.99999999986
 30
0.0
 11
-1024.99999999958
 21
1293.49999999986
 31
0.0
  0
LINE
  5
1B1
330
71
100
AcDbEntity
  8
0
  6
Continuous
 62
     7
100
AcDbLine
 10
-1024.99999999958
 20
1293.49999999986
 30
0.0
 11
-1032.49999999958
 21
1293.49999999986
 31
0.0
  0
LINE
  5
1B2
330
71
100
AcDbEntity
  8
0
  6
Continuous
 62
     7
100
AcDbLine
 10
-1024.99999999958
 20
1299.49999999986
 30
0.0
 11
-1024.99999999958
 21
1306.99999999986
 31
0.0
  0
LINE
  5
1B3
330
71
100
AcDbEntity
  8
0
  6
Continuous
 62
     7
100
AcDbLine
 10
-1032.49999999958
 20
1279.99999999986
 30
0.0
 11
-1032.49999999958
 21
1272.49999999986
 31
0.0
  0
LINE
  5
1B4
330
71
100
AcDbEntity
  8
0
  6
Continuous
 62
     7
100
AcDbLine
 10
-1032.49999999958
 20
1266.49999999986
 30
0.0
 11
-1032.49999999958
 21
1258.99999999986
 31
0.0
  0
LINE
  5
1B5
330
71
100
AcDbEntity
  8
0
  6
Continuous
 62
     7
100
AcDbLine
 10
-1032.49999999958
 20
1293.49999999986
 30
0.0
 11
-1032.49999999958
 21
1285.99999999986
 31
0.0
  0
LINE
  5
1B6
330
71
100
AcDbEntity
  8
0
  6
Continuous
 62
     7
100
AcDbLine
 10
-1032.49999999958
 20
1306.99999999986
 30
0.0
 11
-1032.49999999958
 21
1299.49999999986
 31
0.0
  0
LINE
  5
1B7
330
71
100
AcDbEntity
  8
0
  6
Continuous
 62
     7
100
AcDbLine
 10
-1024.99999999958
 20
1272.49999999986
 30
0.0
 11
-1024.99999999958
 21
1279.99999999986
 31
0.0
  0
LINE
  5
1B8
330
71
100
AcDbEntity
  8
0
  6
Continuous
 62
     7
100
AcDbLine
 10
-1024.99999999958
 20
1258.99999999986
 30
0.0
 11
-1024.99999999958
 21
1266.49999999986
 31
0.0
  0
LINE
  5
1B9
330
71
100
AcDbEntity
  8
0
  6
Continuous
 62
     7
100
AcDbLine
 10
-1032.49999999958
 20
1272.49999999986
 30
0.0
 11
-1024.99999999958
 21
1272.49999999986
 31
0.0
  0
LINE
  5
1BA
330
71
100
AcDbEntity
  8
0
  6
Continuous
 62
     7
100
AcDbLine
 10
-1024.99999999958
 20
1279.99999999986
 30
0.0
 11
-1032.49999999958
 21
1279.99999999986
 31
0.0
  0
LINE
  5
1BB
330
71
100
AcDbEntity
  8
0
  6
Continuous
 62
     7
100
AcDbLine
 10
-1045.99999999958
 20
1272.49999999986
 30
0.0
 11
-1038.49999999958
 21
1272.49999999986
 31
0.0
  0
LINE
  5
1BC
330
71
100
AcDbEntity
  8
0
  6
Continuous
 62
     7
100
AcDbLine
 10
-1038.49999999958
 20
1279.99999999986
 30
0.0
 11
-1045.99999999958
 21
1279.99999999986
 31
0.0
  0
LINE
  5
1BD
330
71
100
AcDbEntity
  8
0
  6
Continuous
 62
     7
100
AcDbLine
 10
-1065.49999999958
 20
1245.49999999986
 30
0.0
 11
-1065.49999999958
 21
1252.99999999986
 31
0.0
  0
LINE
  5
1BE
330
71
100
AcDbEntity
  8
0
  6
Continuous
 62
     7
100
AcDbLine
 10
-1078.99999999958
 20
1306.99999999986
 30
0.0
 11
-1086.49999999958
 21
1306.99999999986
 31
0.0
  0
LINE
  5
1BF
330
71
100
AcDbEntity
  8
0
  6
Continuous
 62
     7
100
AcDbLine
 10
-1086.49999999958
 20
1306.99999999986
 30
0.0
 11
-1086.49999999958
 21
1299.49999999986
 31
0.0
  0
LINE
  5
1C0
330
71
100
AcDbEntity
  8
0
  6
Continuous
 62
     7
100
AcDbLine
 10
-1086.49999999958
 20
1299.49999999986
 30
0.0
 11
-1078.99999999958
 21
1299.49999999986
 31
0.0
  0
LINE
  5
1C1
330
71
100
AcDbEntity
  8
0
  6
Continuous
 62
     7
100
AcDbLine
 10
-1092.49999999958
 20
1299.49999999986
 30
0.0
 11
-1092.49999999958
 21
1306.99999999986
 31
0.0
  0
LINE
  5
1C2
330
71
100
AcDbEntity
  8
0
  6
Continuous
 62
     7
100
AcDbLine
 10
-1099.99999999958
 20
1306.99999999986
 30
0.0
 11
-1099.99999999958
 21
1299.49999999986
 31
0.0
  0
LINE
  5
1C3
330
71
100
AcDbEntity
  8
0
  6
Continuous
 62
     7
100
AcDbLine
 10
-1099.99999999958
 20
1299.49999999986
 30
0.0
 11
-1092.49999999958
 21
1299.49999999986
 31
0.0
  0
LINE
  5
1C4
330
71
100
AcDbEntity
  8
0
  6
Continuous
 62
     7
100
AcDbLine
 10
-1092.49999999958
 20
1306.99999999986
 30
0.0
 11
-1099.99999999958
 21
1306.99999999986
 31
0.0
  0
LINE
  5
1C5
330
71
100
AcDbEntity
  8
0
  6
Continuous
 62
     7
100
AcDbLine
 10
-1078.99999999958
 20
1293.49999999986
 30
0.0
 11
-1086.49999999958
 21
1293.49999999986
 31
0.0
  0
LINE
  5
1C6
330
71
100
AcDbEntity
  8
0
  6
Continuous
 62
     7
100
AcDbLine
 10
-1092.49999999958
 20
1285.99999999986
 30
0.0
 11
-1092.49999999958
 21
1293.49999999986
 31
0.0
  0
LINE
  5
1C7
330
71
100
AcDbEntity
  8
0
  6
Continuous
 62
     7
100
AcDbLine
 10
-1086.49999999958
 20
1293.49999999986
 30
0.0
 11
-1086.49999999958
 21
1285.99999999986
 31
0.0
  0
LINE
  5
1C8
330
71
100
AcDbEntity
  8
0
  6
Continuous
 62
     7
100
AcDbLine
 10
-1099.99999999958
 20
1293.49999999986
 30
0.0
 11
-1099.99999999958
 21
1285.99999999986
 31
0.0
  0
LINE
  5
1C9
330
71
100
AcDbEntity
  8
0
  6
Continuous
 62
     7
100
AcDbLine
 10
-1092.49999999958
 20
1293.49999999986
 30
0.0
 11
-1099.99999999958
 21
1293.49999999986
 31
0.0
  0
LINE
  5
1CA
330
71
100
AcDbEntity
  8
0
  6
Continuous
 62
     7
100
AcDbLine
 10
-1086.49999999958
 20
1285.99999999986
 30
0.0
 11
-1078.99999999958
 21
1285.99999999986
 31
0.0
  0
LINE
  5
1CB
330
71
100
AcDbEntity
  8
0
  6
Continuous
 62
     7
100
AcDbLine
 10
-1092.49999999958
 20
1279.99999999986
 30
0.0
 11
-1099.99999999958
 21
1279.99999999986
 31
0.0
  0
LINE
  5
1CC
330
71
100
AcDbEntity
  8
0
  6
Continuous
 62
     7
100
AcDbLine
 10
-1099.99999999958
 20
1285.99999999986
 30
0.0
 11
-1092.49999999958
 21
1285.99999999986
 31
0.0
  0
LINE
  5
1CD
330
71
100
AcDbEntity
  8
0
  6
Continuous
 62
     7
100
AcDbLine
 10
-1078.99999999958
 20
1279.99999999986
 30
0.0
 11
-1086.49999999958
 21
1279.99999999986
 31
0.0
  0
LINE
  5
1CE
330
71
100
AcDbEntity
  8
0
  6
Continuous
 62
     7
100
AcDbLine
 10
-1072.99999999958
 20
1285.99999999986
 30
0.0
 11
-1065.49999999958
 21
1285.99999999986
 31
0.0
  0
LINE
  5
1CF
330
71
100
AcDbEntity
  8
0
  6
Continuous
 62
     7
100
AcDbLine
 10
-1065.49999999958
 20
1279.99999999986
 30
0.0
 11
-1072.99999999958
 21
1279.99999999986
 31
0.0
  0
LINE
  5
1D0
330
71
100
AcDbEntity
  8
0
  6
Continuous
 62
     7
100
AcDbLine
 10
-1078.99999999958
 20
1285.99999999986
 30
0.0
 11
-1078.99999999958
 21
1293.49999999986
 31
0.0
  0
LINE
  5
1D1
330
71
100
AcDbEntity
  8
0
  6
Continuous
 62
     7
100
AcDbLine
 10
-1051.99999999958
 20
1279.99999999986
 30
0.0
 11
-1059.49999999958
 21
1279.99999999986
 31
0.0
  0
LINE
  5
1D2
330
71
100
AcDbEntity
  8
0
  6
Continuous
 62
     7
100
AcDbLine
 10
-1018.99999999958
 20
1272.49999999986
 30
0.0
 11
-1011.49999999958
 21
1272.49999999986
 31
0.0
  0
LINE
  5
1D3
330
71
100
AcDbEntity
  8
0
  6
Continuous
 62
     7
100
AcDbLine
 10
-1072.99999999958
 20
1272.49999999986
 30
0.0
 11
-1065.49999999958
 21
1272.49999999986
 31
0.0
  0
LINE
  5
1D4
330
71
100
AcDbEntity
  8
0
  6
Continuous
 62
     7
100
AcDbLine
 10
-1072.99999999958
 20
1279.99999999986
 30
0.0
 11
-1072.99999999958
 21
1272.49999999986
 31
0.0
  0
LINE
  5
1D5
330
71
100
AcDbEntity
  8
0
  6
Continuous
 62
     7
100
AcDbLine
 10
-1011.49999999958
 20
1272.49999999986
 30
0.0
 11
-1011.49999999958
 21
1279.99999999986
 31
0.0
  0
LINE
  5
1D6
330
71
100
AcDbEntity
  8
0
  6
Continuous
 62
     7
100
AcDbLine
 10
-1005.49999999958
 20
1279.99999999986
 30
0.0
 11
-1005.49999999958
 21
1272.49999999986
 31
0.0
  0
LINE
  5
1D7
330
71
100
AcDbEntity
  8
0
  6
Continuous
 62
     7
100
AcDbLine
 10
-1059.49999999958
 20
1279.99999999986
 30
0.0
 11
-1059.49999999958
 21
1272.49999999986
 31
0.0
  0
LINE
  5
1D8
330
71
100
AcDbEntity
  8
0
  6
Continuous
 62
     7
100
AcDbLine
 10
-1059.49999999958
 20
1272.49999999986
 30
0.0
 11
-1051.99999999958
 21
1272.49999999986
 31
0.0
  0
LINE
  5
1D9
330
71
100
AcDbEntity
  8
0
  6
Continuous
 62
     7
100
AcDbLine
 10
-1051.99999999958
 20
1272.49999999986
 30
0.0
 11
-1051.99999999958
 21
1279.99999999986
 31
0.0
  0
LINE
  5
1DA
330
71
100
AcDbEntity
  8
0
  6
Continuous
 62
     7
100
AcDbLine
 10
-1018.99999999958
 20
1279.99999999986
 30
0.0
 11
-1018.99999999958
 21
1272.49999999986
 31
0.0
  0
LINE
  5
1DB
330
71
100
AcDbEntity
  8
0
  6
Continuous
 62
     7
100
AcDbLine
 10
-1065.49999999958
 20
1272.49999999986
 30
0.0
 11
-1065.49999999958
 21
1279.99999999986
 31
0.0
  0
LINE
  5
1DC
330
71
100
AcDbEntity
  8
0
  6
Continuous
 62
     7
100
AcDbLine
 10
-1045.99999999958
 20
1285.99999999986
 30
0.0
 11
-1038.49999999958
 21
1285.99999999986
 31
0.0
  0
LINE
  5
1DD
330
71
100
AcDbEntity
  8
0
  6
Continuous
 62
     7
100
AcDbLine
 10
-1051.99999999958
 20
1285.99999999986
 30
0.0
 11
-1051.99999999958
 21
1293.49999999986
 31
0.0
  0
LINE
  5
1DE
330
71
100
AcDbEntity
  8
0
  6
Continuous
 62
     7
100
AcDbLine
 10
-1038.49999999958
 20
1285.99999999986
 30
0.0
 11
-1038.49999999958
 21
1293.49999999986
 31
0.0
  0
LINE
  5
1DF
330
71
100
AcDbEntity
  8
0
  6
Continuous
 62
     7
100
AcDbLine
 10
-1038.49999999958
 20
1293.49999999986
 30
0.0
 11
-1045.99999999958
 21
1293.49999999986
 31
0.0
  0
LINE
  5
1E0
330
71
100
AcDbEntity
  8
0
  6
Continuous
 62
     7
100
AcDbLine
 10
-1045.99999999958
 20
1293.49999999986
 30
0.0
 11
-1045.99999999958
 21
1285.99999999986
 31
0.0
  0
LINE
  5
1E1
330
71
100
AcDbEntity
  8
0
  6
Continuous
 62
     7
100
AcDbLine
 10
-1072.99999999958
 20
1245.49999999986
 30
0.0
 11
-1065.49999999958
 21
1245.49999999986
 31
0.0
  0
LINE
  5
1E2
330
71
100
AcDbEntity
  8
0
  6
Continuous
 62
     7
100
AcDbLine
 10
-1072.99999999958
 20
1204.99999999986
 30
0.0
 11
-1065.49999999958
 21
1204.99999999986
 31
0.0
  0
LINE
  5
1E3
330
71
100
AcDbEntity
  8
0
  6
Continuous
 62
     7
100
AcDbLine
 10
-1065.49999999958
 20
1204.99999999986
 30
0.0
 11
-1065.49999999958
 21
1212.49999999986
 31
0.0
  0
LINE
  5
1E4
330
71
100
AcDbEntity
  8
0
  6
Continuous
 62
     7
100
AcDbLine
 10
-1065.49999999958
 20
1212.49999999986
 30
0.0
 11
-1072.99999999958
 21
1212.49999999986
 31
0.0
  0
LINE
  5
1E5
330
71
100
AcDbEntity
  8
0
  6
Continuous
 62
     7
100
AcDbLine
 10
-1072.99999999958
 20
1239.49999999986
 30
0.0
 11
-1072.99999999958
 21
1231.99999999986
 31
0.0
  0
LINE
  5
1E6
330
71
100
AcDbEntity
  8
0
  6
Continuous
 62
     7
100
AcDbLine
 10
-1065.49999999958
 20
1231.99999999986
 30
0.0
 11
-1065.49999999958
 21
1239.49999999986
 31
0.0
  0
LINE
  5
1E7
330
71
100
AcDbEntity
  8
0
  6
Continuous
 62
     7
100
AcDbLine
 10
-1059.49999999958
 20
1239.49999999986
 30
0.0
 11
-1059.49999999958
 21
1231.99999999986
 31
0.0
  0
LINE
  5
1E8
330
71
100
AcDbEntity
  8
0
  6
Continuous
 62
     7
100
AcDbLine
 10
-1086.49999999958
 20
1218.49999999986
 30
0.0
 11
-1078.99999999958
 21
1218.49999999986
 31
0.0
  0
LINE
  5
1E9
330
71
100
AcDbEntity
  8
0
  6
Continuous
 62
     7
100
AcDbLine
 10
-1086.49999999958
 20
1204.99999999986
 30
0.0
 11
-1078.99999999958
 21
1204.99999999986
 31
0.0
  0
LINE
  5
1EA
330
71
100
AcDbEntity
  8
0
  6
Continuous
 62
     7
100
AcDbLine
 10
-1092.49999999958
 20
1225.99999999986
 30
0.0
 11
-1099.99999999958
 21
1225.99999999986
 31
0.0
  0
LINE
  5
1EB
330
71
100
AcDbEntity
  8
0
  6
Continuous
 62
     7
100
AcDbLine
 10
-1099.99999999958
 20
1225.99999999986
 30
0.0
 11
-1099.99999999958
 21
1218.49999999986
 31
0.0
  0
LINE
  5
1EC
330
71
100
AcDbEntity
  8
0
  6
Continuous
 62
     7
100
AcDbLine
 10
-1099.99999999958
 20
1218.49999999986
 30
0.0
 11
-1092.49999999958
 21
1218.49999999986
 31
0.0
  0
LINE
  5
1ED
330
71
100
AcDbEntity
  8
0
  6
Continuous
 62
     7
100
AcDbLine
 10
-1092.49999999958
 20
1218.49999999986
 30
0.0
 11
-1092.49999999958
 21
1225.99999999986
 31
0.0
  0
LINE
  5
1EE
330
71
100
AcDbEntity
  8
0
  6
Continuous
 62
     7
100
AcDbLine
 10
-1099.99999999958
 20
1231.99999999986
 30
0.0
 11
-1092.49999999958
 21
1231.99999999986
 31
0.0
  0
LINE
  5
1EF
330
71
100
AcDbEntity
  8
0
  6
Continuous
 62
     7
100
AcDbLine
 10
-1065.49999999958
 20
1239.49999999986
 30
0.0
 11
-1072.99999999958
 21
1239.49999999986
 31
0.0
  0
LINE
  5
1F0
330
71
100
AcDbEntity
  8
0
  6
Continuous
 62
     7
100
AcDbLine
 10
-1072.99999999958
 20
1212.49999999986
 30
0.0
 11
-1072.99999999958
 21
1204.99999999986
 31
0.0
  0
LINE
  5
1F1
330
71
100
AcDbEntity
  8
0
  6
Continuous
 62
     7
100
AcDbLine
 10
-1045.99999999958
 20
1279.99999999986
 30
0.0
 11
-1045.99999999958
 21
1272.49999999986
 31
0.0
  0
LINE
  5
1F2
330
71
100
AcDbEntity
  8
0
  6
Continuous
 62
     7
100
AcDbLine
 10
-1045.99999999958
 20
1266.49999999986
 30
0.0
 11
-1045.99999999958
 21
1258.99999999986
 31
0.0
  0
LINE
  5
1F3
330
71
100
AcDbEntity
  8
0
  6
Continuous
 62
     7
100
AcDbLine
 10
-1065.49999999958
 20
1258.99999999986
 30
0.0
 11
-1065.49999999958
 21
1266.49999999986
 31
0.0
  0
LINE
  5
1F4
330
71
100
AcDbEntity
  8
0
  6
Continuous
 62
     7
100
AcDbLine
 10
-1065.49999999958
 20
1266.49999999986
 30
0.0
 11
-1072.99999999958
 21
1266.49999999986
 31
0.0
  0
LINE
  5
1F5
330
71
100
AcDbEntity
  8
0
  6
Continuous
 62
     7
100
AcDbLine
 10
-1059.49999999958
 20
1266.49999999986
 30
0.0
 11
-1059.49999999958
 21
1258.99999999986
 31
0.0
  0
LINE
  5
1F6
330
71
100
AcDbEntity
  8
0
  6
Continuous
 62
     7
100
AcDbLine
 10
-1038.49999999958
 20
1306.99999999986
 30
0.0
 11
-1045.99999999958
 21
1306.99999999986
 31
0.0
  0
LINE
  5
1F7
330
71
100
AcDbEntity
  8
0
  6
Continuous
 62
     7
100
AcDbLine
 10
-1051.99999999958
 20
1299.49999999986
 30
0.0
 11
-1051.99999999958
 21
1306.99999999986
 31
0.0
  0
LINE
  5
1F8
330
71
100
AcDbEntity
  8
0
  6
Continuous
 62
     7
100
AcDbLine
 10
-1059.49999999958
 20
1299.49999999986
 30
0.0
 11
-1051.99999999958
 21
1299.49999999986
 31
0.0
  0
LINE
  5
1F9
330
71
100
AcDbEntity
  8
0
  6
Continuous
 62
     7
100
AcDbLine
 10
-1051.99999999958
 20
1306.99999999986
 30
0.0
 11
-1059.49999999958
 21
1306.99999999986
 31
0.0
  0
LINE
  5
1FA
330
71
100
AcDbEntity
  8
0
  6
Continuous
 62
     7
100
AcDbLine
 10
-1051.99999999958
 20
1293.49999999986
 30
0.0
 11
-1059.49999999958
 21
1293.49999999986
 31
0.0
  0
LINE
  5
1FB
330
71
100
AcDbEntity
  8
0
  6
Continuous
 62
     7
100
AcDbLine
 10
-1059.49999999958
 20
1306.99999999986
 30
0.0
 11
-1059.49999999958
 21
1299.49999999986
 31
0.0
  0
LINE
  5
1FC
330
71
100
AcDbEntity
  8
0
  6
Continuous
 62
     7
100
AcDbLine
 10
-1059.49999999958
 20
1293.49999999986
 30
0.0
 11
-1059.49999999958
 21
1285.99999999986
 31
0.0
  0
LINE
  5
1FD
330
71
100
AcDbEntity
  8
0
  6
Continuous
 62
     7
100
AcDbLine
 10
-1065.49999999958
 20
1299.49999999986
 30
0.0
 11
-1065.49999999958
 21
1306.99999999986
 31
0.0
  0
LINE
  5
1FE
330
71
100
AcDbEntity
  8
0
  6
Continuous
 62
     7
100
AcDbLine
 10
-1065.49999999958
 20
1306.99999999986
 30
0.0
 11
-1072.99999999958
 21
1306.99999999986
 31
0.0
  0
LINE
  5
1FF
330
71
100
AcDbEntity
  8
0
  6
Continuous
 62
     7
100
AcDbLine
 10
-1072.99999999958
 20
1299.49999999986
 30
0.0
 11
-1065.49999999958
 21
1299.49999999986
 31
0.0
  0
LINE
  5
200
330
71
100
AcDbEntity
  8
0
  6
Continuous
 62
     7
100
AcDbLine
 10
-1065.49999999958
 20
1293.49999999986
 30
0.0
 11
-1072.99999999958
 21
1293.49999999986
 31
0.0
  0
LINE
  5
201
330
71
100
AcDbEntity
  8
0
  6
Continuous
 62
     7
100
AcDbLine
 10
-1072.99999999958
 20
1293.49999999986
 30
0.0
 11
-1072.99999999958
 21
1285.99999999986
 31
0.0
  0
LINE
  5
202
330
71
100
AcDbEntity
  8
0
  6
Continuous
 62
     7
100
AcDbLine
 10
-1065.49999999958
 20
1285.99999999986
 30
0.0
 11
-1065.49999999958
 21
1293.49999999986
 31
0.0
  0
LINE
  5
203
330
71
100
AcDbEntity
  8
0
  6
Continuous
 62
     7
100
AcDbLine
 10
-1072.99999999958
 20
1306.99999999986
 30
0.0
 11
-1072.99999999958
 21
1299.49999999986
 31
0.0
  0
LINE
  5
204
330
71
100
AcDbEntity
  8
0
  6
Continuous
 62
     7
100
AcDbLine
 10
-1059.49999999958
 20
1285.99999999986
 30
0.0
 11
-1051.99999999958
 21
1285.99999999986
 31
0.0
  0
LINE
  5
205
330
71
100
AcDbEntity
  8
0
  6
Continuous
 62
     7
100
AcDbLine
 10
-1045.99999999958
 20
1306.99999999986
 30
0.0
 11
-1045.99999999958
 21
1299.49999999986
 31
0.0
  0
LINE
  5
206
330
71
100
AcDbEntity
  8
0
  6
Continuous
 62
     7
100
AcDbLine
 10
-1078.99999999958
 20
1299.49999999986
 30
0.0
 11
-1078.99999999958
 21
1306.99999999986
 31
0.0
  0
LINE
  5
207
330
71
100
AcDbEntity
  8
0
  6
Continuous
 62
     7
100
AcDbLine
 10
-1072.99999999958
 20
1266.49999999986
 30
0.0
 11
-1072.99999999958
 21
1258.99999999986
 31
0.0
  0
LINE
  5
208
330
71
100
AcDbEntity
  8
0
  6
Continuous
 62
     7
100
AcDbLine
 10
-1072.99999999958
 20
1258.99999999986
 30
0.0
 11
-1065.49999999958
 21
1258.99999999986
 31
0.0
  0
LINE
  5
209
330
71
100
AcDbEntity
  8
0
  6
Continuous
 62
     7
100
AcDbLine
 10
-1065.49999999958
 20
1252.99999999986
 30
0.0
 11
-1072.99999999958
 21
1252.99999999986
 31
0.0
  0
LINE
  5
20A
330
71
100
AcDbEntity
  8
0
  6
Continuous
 62
     7
100
AcDbLine
 10
-1011.49999999958
 20
1252.99999999986
 30
0.0
 11
-1018.99999999958
 21
1252.99999999986
 31
0.0
  0
LINE
  5
20B
330
71
100
AcDbEntity
  8
0
  6
Continuous
 62
     7
100
AcDbLine
 10
-997.9999999995798
 20
1252.99999999986
 30
0.0
 11
-1005.49999999958
 21
1252.99999999986
 31
0.0
  0
LINE
  5
20C
330
71
100
AcDbEntity
  8
0
  6
Continuous
 62
     7
100
AcDbLine
 10
-1018.99999999958
 20
1245.49999999986
 30
0.0
 11
-1011.49999999958
 21
1245.49999999986
 31
0.0
  0
LINE
  5
20D
330
71
100
AcDbEntity
  8
0
  6
Continuous
 62
     7
100
AcDbLine
 10
-1011.49999999958
 20
1245.49999999986
 30
0.0
 11
-1011.49999999958
 21
1252.99999999986
 31
0.0
  0
LINE
  5
20E
330
71
100
AcDbEntity
  8
0
  6
Continuous
 62
     7
100
AcDbLine
 10
-1005.49999999958
 20
1245.49999999986
 30
0.0
 11
-997.9999999995798
 21
1245.49999999986
 31
0.0
  0
LINE
  5
20F
330
71
100
AcDbEntity
  8
0
  6
Continuous
 62
     7
100
AcDbLine
 10
-997.9999999995798
 20
1245.49999999986
 30
0.0
 11
-997.9999999995798
 21
1252.99999999986
 31
0.0
  0
LINE
  5
210
330
71
100
AcDbEntity
  8
0
  6
Continuous
 62
     7
100
AcDbLine
 10
-1005.49999999958
 20
1252.99999999986
 30
0.0
 11
-1005.49999999958
 21
1245.49999999986
 31
0.0
  0
LINE
  5
211
330
71
100
AcDbEntity
  8
0
  6
Continuous
 62
     7
100
AcDbLine
 10
-1018.99999999958
 20
1258.99999999986
 30
0.0
 11
-1011.49999999958
 21
1258.99999999986
 31
0.0
  0
LINE
  5
212
330
71
100
AcDbEntity
  8
0
  6
Continuous
 62
     7
100
AcDbLine
 10
-997.9999999995798
 20
1266.49999999986
 30
0.0
 11
-1005.49999999958
 21
1266.49999999986
 31
0.0
  0
LINE
  5
213
330
71
100
AcDbEntity
  8
0
  6
Continuous
 62
     7
100
AcDbLine
 10
-1005.49999999958
 20
1266.49999999986
 30
0.0
 11
-1005.49999999958
 21
1258.99999999986
 31
0.0
  0
LINE
  5
214
330
71
100
AcDbEntity
  8
0
  6
Continuous
 62
     7
100
AcDbLine
 10
-1005.49999999958
 20
1258.99999999986
 30
0.0
 11
-997.9999999995798
 21
1258.99999999986
 31
0.0
  0
LINE
  5
215
330
71
100
AcDbEntity
  8
0
  6
Continuous
 62
     7
100
AcDbLine
 10
-997.9999999995798
 20
1258.99999999986
 30
0.0
 11
-997.9999999995798
 21
1266.49999999986
 31
0.0
  0
LINE
  5
216
330
71
100
AcDbEntity
  8
0
  6
Continuous
 62
     7
100
AcDbLine
 10
-1005.49999999958
 20
1272.49999999986
 30
0.0
 11
-997.9999999995798
 21
1272.49999999986
 31
0.0
  0
LINE
  5
217
330
71
100
AcDbEntity
  8
0
  6
Continuous
 62
     7
100
AcDbLine
 10
-997.9999999995798
 20
1272.49999999986
 30
0.0
 11
-997.9999999995798
 21
1279.99999999986
 31
0.0
  0
LINE
  5
218
330
71
100
AcDbEntity
  8
0
  6
Continuous
 62
     7
100
AcDbLine
 10
-1018.99999999958
 20
1266.49999999986
 30
0.0
 11
-1018.99999999958
 21
1258.99999999986
 31
0.0
  0
LINE
  5
219
330
71
100
AcDbEntity
  8
0
  6
Continuous
 62
     7
100
AcDbLine
 10
-1011.49999999958
 20
1266.49999999986
 30
0.0
 11
-1018.99999999958
 21
1266.49999999986
 31
0.0
  0
LINE
  5
21A
330
71
100
AcDbEntity
  8
0
  6
Continuous
 62
     7
100
AcDbLine
 10
-1011.49999999958
 20
1258.99999999986
 30
0.0
 11
-1011.49999999958
 21
1266.49999999986
 31
0.0
  0
LINE
  5
21B
330
71
100
AcDbEntity
  8
0
  6
Continuous
 62
     7
100
AcDbLine
 10
-997.9999999995798
 20
1279.99999999986
 30
0.0
 11
-1005.49999999958
 21
1279.99999999986
 31
0.0
  0
LINE
  5
21C
330
71
100
AcDbEntity
  8
0
  6
Continuous
 62
     7
100
AcDbLine
 10
-1005.49999999958
 20
1285.99999999986
 30
0.0
 11
-997.9999999995798
 21
1285.99999999986
 31
0.0
  0
LINE
  5
21D
330
71
100
AcDbEntity
  8
0
  6
Continuous
 62
     7
100
AcDbLine
 10
-997.9999999995798
 20
1285.99999999986
 30
0.0
 11
-997.9999999995799
 21
1293.49999999986
 31
0.0
  0
LINE
  5
21E
330
71
100
AcDbEntity
  8
0
  6
Continuous
 62
     7
100
AcDbLine
 10
-1018.99999999958
 20
1306.99999999986
 30
0.0
 11
-1018.99999999958
 21
1299.49999999986
 31
0.0
  0
LINE
  5
21F
330
71
100
AcDbEntity
  8
0
  6
Continuous
 62
     7
100
AcDbLine
 10
-1011.49999999958
 20
1306.99999999986
 30
0.0
 11
-1018.99999999958
 21
1306.99999999986
 31
0.0
  0
LINE
  5
220
330
71
100
AcDbEntity
  8
0
  6
Continuous
 62
     7
100
AcDbLine
 10
-1011.49999999958
 20
1299.49999999986
 30
0.0
 11
-1011.49999999958
 21
1306.99999999986
 31
0.0
  0
LINE
  5
221
330
71
100
AcDbEntity
  8
0
  6
Continuous
 62
     7
100
AcDbLine
 10
-1005.49999999958
 20
1306.99999999986
 30
0.0
 11
-1005.49999999958
 21
1299.49999999986
 31
0.0
  0
LINE
  5
222
330
71
100
AcDbEntity
  8
0
  6
Continuous
 62
     7
100
AcDbLine
 10
-997.9999999995799
 20
1299.49999999986
 30
0.0
 11
-997.9999999995799
 21
1306.99999999986
 31
0.0
  0
LINE
  5
223
330
71
100
AcDbEntity
  8
0
  6
Continuous
 62
     7
100
AcDbLine
 10
-997.9999999995799
 20
1306.99999999986
 30
0.0
 11
-1005.49999999958
 21
1306.99999999986
 31
0.0
  0
LINE
  5
224
330
71
100
AcDbEntity
  8
0
  6
Continuous
 62
     7
100
AcDbLine
 10
-1005.49999999958
 20
1299.49999999986
 30
0.0
 11
-997.9999999995799
 21
1299.49999999986
 31
0.0
  0
LINE
  5
225
330
71
100
AcDbEntity
  8
0
  6
Continuous
 62
     7
100
AcDbLine
 10
-997.9999999995799
 20
1293.49999999986
 30
0.0
 11
-1005.49999999958
 21
1293.49999999986
 31
0.0
  0
LINE
  5
226
330
71
100
AcDbEntity
  8
0
  6
Continuous
 62
     7
100
AcDbLine
 10
-1018.99999999958
 20
1285.99999999986
 30
0.0
 11
-1011.49999999958
 21
1285.99999999986
 31
0.0
  0
LINE
  5
227
330
71
100
AcDbEntity
  8
0
  6
Continuous
 62
     7
100
AcDbLine
 10
-1018.99999999958
 20
1299.49999999986
 30
0.0
 11
-1011.49999999958
 21
1299.49999999986
 31
0.0
  0
LINE
  5
228
330
71
100
AcDbEntity
  8
0
  6
Continuous
 62
     7
100
AcDbLine
 10
-1005.49999999958
 20
1293.49999999986
 30
0.0
 11
-1005.49999999958
 21
1285.99999999986
 31
0.0
  0
LINE
  5
229
330
71
100
AcDbEntity
  8
0
  6
Continuous
 62
     7
100
AcDbLine
 10
-1011.49999999958
 20
1279.99999999986
 30
0.0
 11
-1018.99999999958
 21
1279.99999999986
 31
0.0
  0
LINE
  5
22A
330
71
100
AcDbEntity
  8
0
  6
Continuous
 62
     7
100
AcDbLine
 10
-1011.49999999958
 20
1285.99999999986
 30
0.0
 11
-1011.49999999958
 21
1293.49999999986
 31
0.0
  0
LINE
  5
22B
330
71
100
AcDbEntity
  8
0
  6
Continuous
 62
     7
100
AcDbLine
 10
-1011.49999999958
 20
1293.49999999986
 30
0.0
 11
-1018.99999999958
 21
1293.49999999986
 31
0.0
  0
LINE
  5
22C
330
71
100
AcDbEntity
  8
0
  6
Continuous
 62
     7
100
AcDbLine
 10
-1018.99999999958
 20
1293.49999999986
 30
0.0
 11
-1018.99999999958
 21
1285.99999999986
 31
0.0
  0
LINE
  5
22D
330
71
100
AcDbEntity
  8
0
  6
Continuous
 62
     7
100
AcDbLine
 10
-1032.49999999958
 20
1299.49999999986
 30
0.0
 11
-1024.99999999958
 21
1299.49999999986
 31
0.0
  0
LINE
  5
22E
330
71
100
AcDbEntity
  8
0
  6
Continuous
 62
     7
100
AcDbLine
 10
-1045.99999999958
 20
1299.49999999986
 30
0.0
 11
-1038.49999999958
 21
1299.49999999986
 31
0.0
  0
LINE
  5
22F
330
71
100
AcDbEntity
  8
0
  6
Continuous
 62
     7
100
AcDbLine
 10
-1018.99999999958
 20
1252.99999999986
 30
0.0
 11
-1018.99999999958
 21
1245.49999999986
 31
0.0
  0
ARC
  5
230
330
71
100
AcDbEntity
  8
0
  6
Continuous
 62
     7
100
AcDbCircle
 10
-982.9999999995798
 20
1321.99999999986
 30
0.0
 40
3.0
100
AcDbArc
 50
0.0
 51
90.0
  0
ARC
  5
231
330
71
100
AcDbEntity
  8
0
  6
Continuous
 62
     7
100
AcDbCircle
 10
-1114.99999999958
 20
1321.99999999986
 30
0.0
 40
3.0
100
AcDbArc
 50
90.0
 51
180.0
  0
ARC
  5
232
330
71
100
AcDbEntity
  8
0
  6
Continuous
 62
     7
100
AcDbCircle
 10
-982.9999999995798
 20
1189.99999999986
 30
0.0
 40
3.0
100
AcDbArc
 50
270.0
 51
0.0
  0
ARC
  5
233
330
71
100
AcDbEntity
  8
0
  6
Continuous
 62
     7
100
AcDbCircle
 10
-993.0767065814198
 20
1193.981490157751
 30
0.0
 40
1.035057621840067
100
AcDbArc
 50
330.7470523344308
 51
29.25294766555816
  0
ARC
  5
234
330
71
100
AcDbEntity
  8
0
  6
Continuous
 62
     7
100
AcDbCircle
 10
-1114.99999999958
 20
1189.99999999986
 30
0.0
 40
3.0
100
AcDbArc
 50
180.0
 51
270.0
  0
ARC
  5
235
330
71
100
AcDbEntity
  8
0
  6
Continuous
 62
     7
100
AcDbCircle
 10
-996.1217495995797
 20
1194.510750179591
 30
0.0
 40
1.035057621839912
100
AcDbArc
 50
240.7470523344333
 51
299.2529476655722
  0
ARC
  5
236
330
71
100
AcDbEntity
  8
0
  6
Continuous
 62
     7
100
AcDbCircle
 10
-998.7013173595797
 20
1194.510750179591
 30
0.0
 40
1.035057621840023
100
AcDbArc
 50
240.7470523344223
 51
299.2529476655612
  0
ARC
  5
237
330
71
100
AcDbEntity
  8
0
  6
Continuous
 62
     7
100
AcDbCircle
 10
-994.3345980795797
 20
1197.228852215911
 30
0.0
 40
1.035057621839912
100
AcDbArc
 50
60.74705233443327
 51
119.2529476655722
  0
ARC
  5
238
330
71
100
AcDbEntity
  8
0
  6
Continuous
 62
     7
100
AcDbCircle
 10
-996.1217495995797
 20
1197.228852215911
 30
0.0
 40
1.035057621839968
100
AcDbArc
 50
60.74705233442778
 51
119.2529476655667
  0
ARC
  5
239
330
71
100
AcDbEntity
  8
0
  6
Continuous
 62
     7
100
AcDbCircle
 10
-998.7013173595797
 20
1197.228852215911
 30
0.0
 40
1.035057621839912
100
AcDbArc
 50
60.74705233443327
 51
119.2529476655722
  0
SPLINE
  5
23A
330
71
100
AcDbEntity
  8
0
  6
Continuous
 62
     7
100
AcDbSpline
210
0.0
220
0.0
230
1.0
 70
  1067
 71
     3
 72
    39
 73
    35
 74
    33
 42
0.0000000001
 43
0.0000000001
 44
0.00000001
 40
0.0
 40
0.0
 40
0.0
 40
0.0
 40
1.679052437423427
 40
3.364689693721629
 40
5.306245751307453
 40
7.246890135488002
 40
9.187534519659424
 40
11.12909057719989
 40
12.81472783338285
 40
14.49378028070909
 40
15.70919989760521
 40
16.95913362383613
 40
17.76608140611803
 40
18.49222659931756
 40
19.21837179245104
 40
20.02531957461908
 40
21.27525330068884
 40
22.49067291746472
 40
24.16972536465216
 40
25.85536262071289
 40
27.79691867812599
 40
29.7375630621679
 40
31.67820744618527
 40
33.6197635035312
 40
35.30540075947844
 40
36.98445320638382
 40
38.19987282269749
 40
39.44980654808762
 40
40.2567543296073
 40
40.98289952235978
 40
41.70904471615651
 40
42.51599249918689
 40
43.76592622681331
 40
44.98134583473974
 40
44.98134583473974
 40
44.98134583473974
 40
44.98134583473974
 10
-1002.769010256937
 20
1198.254153950203
 30
0.0
 10
-1002.229819623664
 20
1198.405209336486
 30
0.0
 10
-1001.149323788213
 20
1198.707912511284
 30
0.0
 10
-999.4056878388029
 20
1199.019978351765
 30
0.0
 10
-997.5574442157542
 20
1199.20655905831
 30
0.0
 10
-995.6159193575434
 20
1199.259504020027
 30
0.0
 10
-993.6745904422385
 20
1199.206119401933
 30
0.0
 10
-991.8257845580038
 20
1199.021641299279
 30
0.0
 10
-990.0839484604703
 20
1198.70259527601
 30
0.0
 10
-988.6072680425214
 20
1198.313408183611
 30
0.0
 10
-987.2927910562178
 20
1197.876748586395
 30
0.0
 10
-986.3539194043774
 20
1197.286658402699
 30
0.0
 10
-985.7137512861922
 20
1196.614161021113
 30
0.0
 10
-985.3987573161583
 20
1195.869801198807
 30
0.0
 10
-985.7137512853554
 20
1195.125441381063
 30
0.0
 10
-986.3539194079642
 20
1194.45294398132
 30
0.0
 10
-987.2927910328528
 20
1193.862853902369
 30
0.0
 10
-988.6072681374244
 20
1193.426193844845
 30
0.0
 10
-990.0839479492171
 20
1193.037009109726
 30
0.0
 10
-991.8257865732372
 20
1192.717953259958
 30
0.0
 10
-993.6745816463042
 20
1192.533517204628
 30
0.0
 10
-995.6159520079871
 20
1192.479971389831
 30
0.0
 10
-997.5573223737811
 20
1192.533517214541
 30
0.0
 10
-999.4061174348087
 20
1192.717953226022
 30
0.0
 10
-1001.147956096644
 20
1193.037009224452
 30
0.0
 10
-1002.624635783365
 20
1193.426193476482
 30
0.0
 10
-1003.93911323445
 20
1193.862854886772
 30
0.0
 10
-1004.877983772064
 20
1194.452940745074
 30
0.0
 10
-1005.518154562469
 20
1195.125448529787
 30
0.0
 10
-1005.833140515992
 20
1195.869777190587
 30
0.0
 10
-1005.518176961523
 20
1196.614255301916
 30
0.0
 10
-1004.877858958618
 20
1197.286169806553
 30
0.0
 10
-1003.939863160286
 20
1197.879666066895
 30
0.0
 10
-1003.155634913395
 20
1198.13049516187
 30
0.0
 10
-1002.769010256937
 20
1198.254153950203
 30
0.0
 11
-1002.769010256937
 21
1198.254153950203
 31
0.0
 11
-1001.145177057375
 21
1198.681217014592
 31
0.0
 11
-999.4871592325802
 21
1198.985108199307
 31
0.0
 11
-997.5557021834182
 21
1199.182879764096
 31
0.0
 11
-995.6159519995797
 21
1199.241785197751
 31
0.0
 11
-993.6762018157414
 21
1199.182879764096
 31
0.0
 11
-991.7447447665793
 21
1198.985108199306
 31
0.0
 11
-990.0867269417841
 21
1198.681217014592
 31
0.0
 11
-988.4628937422223
 21
1198.254153950203
 31
0.0
 11
-987.3218662177703
 21
1197.835464287481
 31
0.0
 11
-986.270030994913
 21
1197.160203608751
 31
0.0
 11
-985.7336463899167
 21
1196.55733025627
 31
0.0
 11
-985.4999999995798
 21
1195.869801197751
 31
0.0
 11
-985.7336463899164
 21
1195.182272139232
 31
0.0
 11
-986.2700309949131
 21
1194.579398786751
 31
0.0
 11
-987.3218662177702
 21
1193.90413810802
 31
0.0
 11
-988.4628937422223
 21
1193.485448445298
 31
0.0
 11
-990.0867269417841
 21
1193.05838538091
 31
0.0
 11
-991.7447447665793
 21
1192.754494196196
 31
0.0
 11
-993.6762018157413
 21
1192.556722631406
 31
0.0
 11
-995.6159519995797
 21
1192.497817197751
 31
0.0
 11
-997.5557021834181
 21
1192.556722631406
 31
0.0
 11
-999.4871592325803
 21
1192.754494196196
 31
0.0
 11
-1001.145177057375
 21
1193.05838538091
 31
0.0
 11
-1002.769010256937
 21
1193.485448445298
 31
0.0
 11
-1003.910037781389
 21
1193.904138108021
 31
0.0
 11
-1004.961873004246
 21
1194.579398786751
 31
0.0
 11
-1005.498257609243
 21
1195.182272139232
 31
0.0
 11
-1005.731903999579
 21
1195.869801197751
 31
0.0
 11
-1005.498257609243
 21
1196.55733025627
 31
0.0
 11
-1004.961873004246
 21
1197.160203608751
 31
0.0
 11
-1003.910037781389
 21
1197.835464287481
 31
0.0
 11
-1002.769010256937
 21
1198.254153950203
 31
0.0
  0
ENDBLK
  5
73
330
71
100
AcDbEntity
  8
0
100
AcDbBlockEnd
  0
BLOCK
  5
77
330
74
100
AcDbEntity
  8
0
100
AcDbBlockBegin
  2
HL66Q-WEB-Zeichnung__4
 70
     0
 10
-1123.99999999958
 20
1180.99999999986
 30
0.0
  3
HL66Q-WEB-Zeichnung__4
  1

  0
INSERT
  5
75
330
74
100
AcDbEntity
  8
0
100
AcDbBlockReference
  2
HL066Q_3E__3
 10
-1123.99999999958
 20
1180.99999999986
 30
0.0
  0
INSERT
  5
76
330
74
100
AcDbEntity
  8
0
100
AcDbBlockReference
  2
066Q-1E
 10
-1117.99999999958
 20
1186.99999999986
 30
0.0
  0
ENDBLK
  5
78
330
74
100
AcDbEntity
  8
0
100
AcDbBlockEnd
  0
BLOCK
  5
7B
330
79
100
AcDbEntity
  8
0
100
AcDbBlockBegin
  2
Vordans2
 70
     0
 10
-1048.99999999979
 20
1255.99999999993
 30
0.0
  3
Vordans2
  1

  0
INSERT
  5
7A
330
79
100
AcDbEntity
  8
0
100
AcDbBlockReference
  2
HL66Q-WEB-Zeichnung__4
 10
-1123.99999999958
 20
1180.99999999986
 30
0.0
  0
MTEXT
  5
23C
330
79
100
AcDbEntity
  8
1
 62
     1
100
AcDbMText
 10
-1048.99999999979
 20
1175.99999999993
 30
0.0
 40
3.5
 41
0.0
 46
0.0
 71
     2
 72
     1
  1
 
  7
CONVERTER_11
 73
     1
 44
1.32052821128451
  0
ENDBLK
  5
7C
330
79
100
AcDbEntity
  8
0
100
AcDbBlockEnd
  0
BLOCK
  5
7E
330
7D
100
AcDbEntity
  8
0
100
AcDbBlockBegin
  2
300020689__5
 70
     0
 10
-1121.99999999958
 20
1370.500000000916
 30
0.0
  3
300020689__5
  1

  0
LINE
  5
23D
330
7D
100
AcDbEntity
  8
0
  6
Continuous
 62
     7
100
AcDbLine
 10
-1121.99999999958
 20
1374.500000000916
 30
0.0
 11
-976.9999999995798
 21
1374.500000000916
 31
0.0
  0
LINE
  5
23E
330
7D
100
AcDbEntity
  8
0
  6
Continuous
 62
     7
100
AcDbLine
 10
-997.9999999995798
 20
1513.500000000916
 30
0.0
 11
-993.4999999995798
 21
1513.500000000916
 31
0.0
  0
LINE
  5
23F
330
7D
100
AcDbEntity
  8
0
  6
Continuous
 62
     7
100
AcDbLine
 10
-1120.928203229855
 20
1370.500000000916
 30
0.0
 11
-1121.99999999958
 21
1374.500000000916
 31
0.0
  0
LINE
  5
240
330
7D
100
AcDbEntity
  8
0
  6
Continuous
 62
     7
100
AcDbLine
 10
-1049.49999999958
 20
1370.500000000916
 30
0.0
 11
-1120.928203229855
 21
1370.500000000916
 31
0.0
  0
LINE
  5
241
330
7D
100
AcDbEntity
  8
0
  6
Continuous
 62
     7
100
AcDbLine
 10
-1056.99999999958
 20
1513.500000000916
 30
0.0
 11
-997.9999999995798
 21
1513.500000000916
 31
0.0
  0
LINE
  5
242
330
7D
100
AcDbEntity
  8
0
  6
Continuous
 62
     7
100
AcDbLine
 10
-1115.49999999958
 20
1513.500000000916
 30
0.0
 11
-1099.99999999958
 21
1513.500000000916
 31
0.0
  0
LINE
  5
243
330
7D
100
AcDbEntity
  8
0
  6
Continuous
 62
     7
100
AcDbLine
 10
-1099.99999999958
 20
1513.500000000916
 30
0.0
 11
-1056.99999999958
 21
1513.500000000916
 31
0.0
  0
LINE
  5
244
330
7D
100
AcDbEntity
  8
0
  6
Continuous
 62
     7
100
AcDbLine
 10
-1121.99999999958
 20
1374.500000000916
 30
0.0
 11
-1121.99999999958
 21
1509.000000000916
 31
0.0
  0
LINE
  5
245
330
7D
100
AcDbEntity
  8
0
  6
Continuous
 62
     7
100
AcDbLine
 10
-1117.99999999958
 20
1513.500000000916
 30
0.0
 11
-1115.99999999958
 21
1513.500000000916
 31
0.0
  0
LINE
  5
246
330
7D
100
AcDbEntity
  8
0
  6
Continuous
 62
     7
100
AcDbLine
 10
-1121.49999999958
 20
1513.500000000916
 30
0.0
 11
-1117.99999999958
 21
1513.500000000916
 31
0.0
  0
LINE
  5
247
330
7D
100
AcDbEntity
  8
0
  6
Continuous
 62
     7
100
AcDbLine
 10
-1115.99999999958
 20
1513.500000000916
 30
0.0
 11
-1115.49999999958
 21
1513.500000000916
 31
0.0
  0
LINE
  5
248
330
7D
100
AcDbEntity
  8
0
  6
Continuous
 62
     7
100
AcDbLine
 10
-1121.49999999958
 20
1513.500000000916
 30
0.0
 11
-1121.49999999958
 21
1509.000000000916
 31
0.0
  0
LINE
  5
249
330
7D
100
AcDbEntity
  8
0
  6
Continuous
 62
     7
100
AcDbLine
 10
-978.0717967693042
 20
1370.500000000916
 30
0.0
 11
-1049.49999999958
 21
1370.500000000916
 31
0.0
  0
LINE
  5
24A
330
7D
100
AcDbEntity
  8
0
  6
Continuous
 62
     7
100
AcDbLine
 10
-976.9999999995798
 20
1374.500000000916
 30
0.0
 11
-976.9999999995798
 21
1509.000000000916
 31
0.0
  0
LINE
  5
24B
330
7D
100
AcDbEntity
  8
0
  6
Continuous
 62
     7
100
AcDbLine
 10
-978.0717967693042
 20
1370.500000000916
 30
0.0
 11
-976.9999999995798
 21
1374.500000000916
 31
0.0
  0
LINE
  5
24C
330
7D
100
AcDbEntity
  8
0
  6
Continuous
 62
     7
100
AcDbLine
 10
-1121.99999999958
 20
1509.000000000916
 30
0.0
 11
-1121.49999999958
 21
1509.000000000916
 31
0.0
  0
LINE
  5
24D
330
7D
100
AcDbEntity
  8
0
  6
Continuous
 62
     7
100
AcDbLine
 10
-1121.49999999958
 20
1509.000000000916
 30
0.0
 11
-992.4999999995798
 21
1509.000000000916
 31
0.0
  0
LINE
  5
24E
330
7D
100
AcDbEntity
  8
0
  6
Continuous
 62
     7
100
AcDbLine
 10
-993.4999999995798
 20
1513.500000000916
 30
0.0
 11
-992.4999999995798
 21
1513.500000000916
 31
0.0
  0
LINE
  5
24F
330
7D
100
AcDbEntity
  8
0
  6
Continuous
 62
     7
100
AcDbLine
 10
-992.4999999995798
 20
1510.600000000916
 30
0.0
 11
-992.4999999995798
 21
1509.000000000916
 31
0.0
  0
LINE
  5
250
330
7D
100
AcDbEntity
  8
0
  6
Continuous
 62
     7
100
AcDbLine
 10
-992.4999999995798
 20
1509.000000000916
 30
0.0
 11
-976.9999999995798
 21
1509.000000000916
 31
0.0
  0
LINE
  5
251
330
7D
100
AcDbEntity
  8
1
  6
DOT_CENTER
 62
     2
100
AcDbLine
 10
-1056.99999999958
 20
1513.500000000916
 30
0.0
 11
-1056.99999999958
 21
1509.000000000916
 31
0.0
  0
LINE
  5
252
330
7D
100
AcDbEntity
  8
1
  6
DOT_CENTER
 62
     2
100
AcDbLine
 10
-1049.49999999958
 20
1365.51708606135
 30
0.0
 11
-1049.499999999578
 21
1523.28809465098
 31
0.0
  0
ENDBLK
  5
7F
330
7D
100
AcDbEntity
  8
0
100
AcDbBlockEnd
  0
BLOCK
  5
81
330
80
100
AcDbEntity
  8
0
100
AcDbBlockBegin
  2
395550659__6
 70
     0
 10
-1123.99999999958
 20
1510.600000000916
 30
0.0
  3
395550659__6
  1

  0
LINE
  5
253
330
80
100
AcDbEntity
  8
0
  6
Continuous
 62
     7
100
AcDbLine
 10
-1122.99999999958
 20
1515.600000000916
 30
0.0
 11
-1121.99999999958
 21
1515.600000000916
 31
0.0
  0
LINE
  5
254
330
80
100
AcDbEntity
  8
0
  6
Continuous
 62
     7
100
AcDbLine
 10
-1122.99999999958
 20
1515.600000000916
 30
0.0
 11
-1122.99999999958
 21
1517.750000000916
 31
0.0
  0
LINE
  5
255
330
80
100
AcDbEntity
  8
0
  6
Continuous
 62
     3
100
AcDbLine
 10
-1122.99999999958
 20
1517.750000000916
 30
0.0
 11
-1115.49999999958
 21
1517.750000000916
 31
0.0
  0
LINE
  5
256
330
80
100
AcDbEntity
  8
0
  6
Continuous
 62
     7
100
AcDbLine
 10
-1115.49999999958
 20
1520.000000000916
 30
0.0
 11
-982.4999999995798
 21
1520.000000000916
 31
0.0
  0
LINE
  5
257
330
80
100
AcDbEntity
  8
0
  6
Continuous
 62
     7
100
AcDbLine
 10
-1120.74999999958
 20
1520.000000000916
 30
0.0
 11
-1115.49999999958
 21
1520.000000000916
 31
0.0
  0
LINE
  5
258
330
80
100
AcDbEntity
  8
0
  6
Continuous
 62
     3
100
AcDbLine
 10
-1115.49999999958
 20
1520.000000000916
 30
0.0
 11
-1115.49999999958
 21
1517.750000000916
 31
0.0
  0
LINE
  5
259
330
80
100
AcDbEntity
  8
0
  6
Continuous
 62
     3
100
AcDbLine
 10
-1119.49999999958
 20
1515.000000000916
 30
0.0
 11
-1115.49999999958
 21
1515.000000000916
 31
0.0
  0
LINE
  5
25A
330
80
100
AcDbEntity
  8
0
  6
Continuous
 62
     7
100
AcDbLine
 10
-1119.49999999958
 20
1515.000000000916
 30
0.0
 11
-1119.49999999958
 21
1515.600000000916
 31
0.0
  0
LINE
  5
25B
330
80
100
AcDbEntity
  8
0
  6
Continuous
 62
     7
100
AcDbLine
 10
-1115.49999999958
 20
1515.600000000916
 30
0.0
 11
-1121.99999999958
 21
1515.600000000916
 31
0.0
  0
LINE
  5
25C
330
80
100
AcDbEntity
  8
0
  6
Continuous
 62
     3
100
AcDbLine
 10
-982.4999999995798
 20
1515.000000000916
 30
0.0
 11
-982.4999999995799
 21
1515.600000000916
 31
0.0
  0
LINE
  5
25D
330
80
100
AcDbEntity
  8
0
  6
Continuous
 62
     3
100
AcDbLine
 10
-982.4999999995799
 20
1515.600000000916
 30
0.0
 11
-982.4999999995798
 21
1517.750000000916
 31
0.0
  0
LINE
  5
25E
330
80
100
AcDbEntity
  8
0
  6
Continuous
 62
     7
100
AcDbLine
 10
-982.4999999995799
 20
1515.600000000916
 30
0.0
 11
-1001.49999999958
 21
1515.600000000916
 31
0.0
  0
LINE
  5
25F
330
80
100
AcDbEntity
  8
0
  6
Continuous
 62
     3
100
AcDbLine
 10
-1002.49999999958
 20
1514.100000000916
 30
0.0
 11
-1002.49999999958
 21
1515.100000000916
 31
0.0
  0
LINE
  5
260
330
80
100
AcDbEntity
  8
0
  6
Continuous
 62
     7
100
AcDbLine
 10
-1002.49999999958
 20
1515.100000000916
 30
0.0
 11
-1015.49999999958
 21
1515.100000000916
 31
0.0
  0
LINE
  5
261
330
80
100
AcDbEntity
  8
0
  6
Continuous
 62
     3
100
AcDbLine
 10
-1015.49999999958
 20
1515.100000000916
 30
0.0
 11
-1015.49999999958
 21
1514.100000000916
 31
0.0
  0
LINE
  5
262
330
80
100
AcDbEntity
  8
0
  6
Continuous
 62
     3
100
AcDbLine
 10
-1095.49999999958
 20
1515.100000000916
 30
0.0
 11
-1095.49999999958
 21
1514.100000000916
 31
0.0
  0
LINE
  5
263
330
80
100
AcDbEntity
  8
0
  6
Continuous
 62
     3
100
AcDbLine
 10
-1082.49999999958
 20
1514.100000000916
 30
0.0
 11
-1082.49999999958
 21
1515.100000000916
 31
0.0
  0
LINE
  5
264
330
80
100
AcDbEntity
  8
0
  6
Continuous
 62
     7
100
AcDbLine
 10
-1095.49999999958
 20
1515.100000000916
 30
0.0
 11
-1082.49999999958
 21
1515.100000000916
 31
0.0
  0
LINE
  5
265
330
80
100
AcDbEntity
  8
0
  6
Continuous
 62
     3
100
AcDbLine
 10
-1001.49999999958
 20
1515.600000000916
 30
0.0
 11
-1016.49999999958
 21
1515.600000000916
 31
0.0
  0
LINE
  5
266
330
80
100
AcDbEntity
  8
0
  6
Continuous
 62
     3
100
AcDbLine
 10
-1096.49999999958
 20
1515.600000000916
 30
0.0
 11
-1081.49999999958
 21
1515.600000000916
 31
0.0
  0
LINE
  5
267
330
80
100
AcDbEntity
  8
0
  6
Continuous
 62
     7
100
AcDbLine
 10
-1016.49999999958
 20
1515.600000000916
 30
0.0
 11
-1081.49999999958
 21
1515.600000000916
 31
0.0
  0
LINE
  5
268
330
80
100
AcDbEntity
  8
0
  6
Continuous
 62
     7
100
AcDbLine
 10
-1096.49999999958
 20
1515.600000000916
 30
0.0
 11
-1115.49999999958
 21
1515.600000000916
 31
0.0
  0
LINE
  5
269
330
80
100
AcDbEntity
  8
0
  6
Continuous
 62
     3
100
AcDbLine
 10
-1115.49999999958
 20
1515.000000000916
 30
0.0
 11
-1115.49999999958
 21
1515.600000000916
 31
0.0
  0
LINE
  5
26A
330
80
100
AcDbEntity
  8
0
  6
Continuous
 62
     3
100
AcDbLine
 10
-1115.49999999958
 20
1515.600000000916
 30
0.0
 11
-1115.49999999958
 21
1517.750000000916
 31
0.0
  0
LINE
  5
26B
330
80
100
AcDbEntity
  8
0
  6
Continuous
 62
     3
100
AcDbLine
 10
-1115.49999999958
 20
1513.500000000916
 30
0.0
 11
-1115.49999999958
 21
1515.000000000916
 31
0.0
  0
LINE
  5
26C
330
80
100
AcDbEntity
  8
0
  6
Continuous
 62
     3
100
AcDbLine
 10
-1115.49999999958
 20
1515.000000000916
 30
0.0
 11
-1096.49999999958
 21
1515.000000000916
 31
0.0
  0
LINE
  5
26D
330
80
100
AcDbEntity
  8
0
  6
Continuous
 62
     7
100
AcDbLine
 10
-1095.49999999958
 20
1514.100000000916
 30
0.0
 11
-1082.49999999958
 21
1514.100000000916
 31
0.0
  0
LINE
  5
26E
330
80
100
AcDbEntity
  8
0
  6
Continuous
 62
     7
100
AcDbLine
 10
-1002.49999999958
 20
1514.100000000916
 30
0.0
 11
-1015.49999999958
 21
1514.100000000916
 31
0.0
  0
LINE
  5
26F
330
80
100
AcDbEntity
  8
0
  6
Continuous
 62
     7
100
AcDbLine
 10
-997.9999999995798
 20
1513.500000000916
 30
0.0
 11
-993.4999999995798
 21
1513.500000000916
 31
0.0
  0
LINE
  5
270
330
80
100
AcDbEntity
  8
0
  6
Continuous
 62
     3
100
AcDbLine
 10
-1001.49999999958
 20
1515.000000000916
 30
0.0
 11
-982.4999999995798
 21
1515.000000000916
 31
0.0
  0
LINE
  5
271
330
80
100
AcDbEntity
  8
0
  6
Continuous
 62
     3
100
AcDbLine
 10
-982.4999999995798
 20
1517.750000000916
 30
0.0
 11
-1115.49999999958
 21
1517.750000000916
 31
0.0
  0
LINE
  5
272
330
80
100
AcDbEntity
  8
0
  6
Continuous
 62
     7
100
AcDbLine
 10
-1123.99999999958
 20
1514.100000000916
 30
0.0
 11
-1123.99999999958
 21
1515.100000000916
 31
0.0
  0
LINE
  5
273
330
80
100
AcDbEntity
  8
0
  6
Continuous
 62
     7
100
AcDbLine
 10
-1123.49999999958
 20
1514.100000000916
 30
0.0
 11
-1123.99999999958
 21
1514.100000000916
 31
0.0
  0
LINE
  5
274
330
80
100
AcDbEntity
  8
0
  6
Continuous
 62
     7
100
AcDbLine
 10
-1123.99999999958
 20
1515.100000000916
 30
0.0
 11
-1123.49999999958
 21
1515.100000000916
 31
0.0
  0
LINE
  5
275
330
80
100
AcDbEntity
  8
0
  6
Continuous
 62
     7
100
AcDbLine
 10
-1016.49999999958
 20
1515.600000000916
 30
0.0
 11
-1016.49999999958
 21
1514.185786438543
 31
0.0
  0
LINE
  5
276
330
80
100
AcDbEntity
  8
0
  6
Continuous
 62
     7
100
AcDbLine
 10
-1096.49999999958
 20
1515.600000000916
 30
0.0
 11
-1096.49999999958
 21
1514.185786438543
 31
0.0
  0
LINE
  5
277
330
80
100
AcDbEntity
  8
0
  6
Continuous
 62
     7
100
AcDbLine
 10
-1096.366025403364
 20
1515.100000000916
 30
0.0
 11
-1095.49999999958
 21
1515.100000000916
 31
0.0
  0
LINE
  5
278
330
80
100
AcDbEntity
  8
0
  6
Continuous
 62
     7
100
AcDbLine
 10
-1082.49999999958
 20
1515.100000000916
 30
0.0
 11
-1081.633974595795
 21
1515.100000000916
 31
0.0
  0
LINE
  5
279
330
80
100
AcDbEntity
  8
0
  6
Continuous
 62
     7
100
AcDbLine
 10
-1081.49999999958
 20
1515.600000000916
 30
0.0
 11
-1081.49999999958
 21
1514.185786438543
 31
0.0
  0
LINE
  5
27A
330
80
100
AcDbEntity
  8
0
  6
Continuous
 62
     3
100
AcDbLine
 10
-1122.99999999958
 20
1515.600000000916
 30
0.0
 11
-1122.99999999958
 21
1514.185786438543
 31
0.0
  0
LINE
  5
27B
330
80
100
AcDbEntity
  8
0
  6
Continuous
 62
     7
100
AcDbLine
 10
-1001.49999999958
 20
1515.600000000916
 30
0.0
 11
-1001.49999999958
 21
1514.185786438543
 31
0.0
  0
LINE
  5
27C
330
80
100
AcDbEntity
  8
0
  6
Continuous
 62
     7
100
AcDbLine
 10
-1015.49999999958
 20
1514.100000000916
 30
0.0
 11
-1016.366025403364
 21
1514.100000000916
 31
0.0
  0
LINE
  5
27D
330
80
100
AcDbEntity
  8
0
  6
Continuous
 62
     7
100
AcDbLine
 10
-1001.633974595795
 20
1514.100000000916
 30
0.0
 11
-1002.49999999958
 21
1514.100000000916
 31
0.0
  0
LINE
  5
27E
330
80
100
AcDbEntity
  8
0
  6
Continuous
 62
     7
100
AcDbLine
 10
-1082.49999999958
 20
1514.100000000916
 30
0.0
 11
-1081.633974595795
 21
1514.100000000916
 31
0.0
  0
LINE
  5
27F
330
80
100
AcDbEntity
  8
0
  6
Continuous
 62
     7
100
AcDbLine
 10
-1096.366025403364
 20
1514.100000000916
 30
0.0
 11
-1095.49999999958
 21
1514.100000000916
 31
0.0
  0
LINE
  5
280
330
80
100
AcDbEntity
  8
0
  6
Continuous
 62
     3
100
AcDbLine
 10
-1081.49999999958
 20
1515.000000000916
 30
0.0
 11
-1016.49999999958
 21
1515.000000000916
 31
0.0
  0
LINE
  5
281
330
80
100
AcDbEntity
  8
0
  6
Continuous
 62
     7
100
AcDbLine
 10
-1016.366025403364
 20
1515.100000000916
 30
0.0
 11
-1015.49999999958
 21
1515.100000000916
 31
0.0
  0
LINE
  5
282
330
80
100
AcDbEntity
  8
0
  6
Continuous
 62
     7
100
AcDbLine
 10
-1002.49999999958
 20
1515.100000000916
 30
0.0
 11
-1001.633974595795
 21
1515.100000000916
 31
0.0
  0
LINE
  5
283
330
80
100
AcDbEntity
  8
0
  6
Continuous
 62
     7
100
AcDbLine
 10
-1056.99999999958
 20
1513.500000000916
 30
0.0
 11
-997.9999999995798
 21
1513.500000000916
 31
0.0
  0
LINE
  5
284
330
80
100
AcDbEntity
  8
0
  6
Continuous
 62
     7
100
AcDbLine
 10
-1100.39999999958
 20
1513.100000000916
 30
0.0
 11
-1107.99999999958
 21
1513.100000000916
 31
0.0
  0
LINE
  5
285
330
80
100
AcDbEntity
  8
0
  6
Continuous
 62
     7
100
AcDbLine
 10
-1107.99999999958
 20
1513.100000000916
 30
0.0
 11
-1115.59999999958
 21
1513.100000000916
 31
0.0
  0
LINE
  5
286
330
80
100
AcDbEntity
  8
0
  6
Continuous
 62
     7
100
AcDbLine
 10
-1115.49999999958
 20
1513.500000000916
 30
0.0
 11
-1099.99999999958
 21
1513.500000000916
 31
0.0
  0
LINE
  5
287
330
80
100
AcDbEntity
  8
0
  6
Continuous
 62
     7
100
AcDbLine
 10
-1099.99999999958
 20
1513.500000000916
 30
0.0
 11
-1056.99999999958
 21
1513.500000000916
 31
0.0
  0
LINE
  5
288
330
80
100
AcDbEntity
  8
0
  6
Continuous
 62
     7
100
AcDbLine
 10
-1117.99999999958
 20
1513.500000000916
 30
0.0
 11
-1115.99999999958
 21
1513.500000000916
 31
0.0
  0
LINE
  5
289
330
80
100
AcDbEntity
  8
0
  6
Continuous
 62
     7
100
AcDbLine
 10
-1115.99999999958
 20
1513.500000000916
 30
0.0
 11
-1115.49999999958
 21
1513.500000000916
 31
0.0
  0
LINE
  5
28A
330
80
100
AcDbEntity
  8
0
  6
Continuous
 62
     7
100
AcDbLine
 10
-973.9999999995798
 20
1515.100000000916
 30
0.0
 11
-973.9999999995798
 21
1514.100000000916
 31
0.0
  0
LINE
  5
28B
330
80
100
AcDbEntity
  8
0
  6
Continuous
 62
     7
100
AcDbLine
 10
-974.4999999995798
 20
1515.100000000916
 30
0.0
 11
-973.9999999995798
 21
1515.100000000916
 31
0.0
  0
LINE
  5
28C
330
80
100
AcDbEntity
  8
0
  6
Continuous
 62
     7
100
AcDbLine
 10
-973.9999999995798
 20
1514.100000000916
 30
0.0
 11
-974.4999999995798
 21
1514.100000000916
 31
0.0
  0
LINE
  5
28D
330
80
100
AcDbEntity
  8
0
  6
Continuous
 62
     3
100
AcDbLine
 10
-974.9999999995798
 20
1514.185786438543
 30
0.0
 11
-974.9999999995798
 21
1515.600000000916
 31
0.0
  0
LINE
  5
28E
330
80
100
AcDbEntity
  8
0
  6
Continuous
 62
     7
100
AcDbLine
 10
-975.9999999995798
 20
1515.600000000916
 30
0.0
 11
-974.9999999995798
 21
1515.600000000916
 31
0.0
  0
LINE
  5
28F
330
80
100
AcDbEntity
  8
0
  6
Continuous
 62
     7
100
AcDbLine
 10
-974.9999999995798
 20
1515.600000000916
 30
0.0
 11
-974.9999999995798
 21
1517.750000000916
 31
0.0
  0
LINE
  5
290
330
80
100
AcDbEntity
  8
0
  6
Continuous
 62
     3
100
AcDbLine
 10
-982.4999999995798
 20
1517.750000000916
 30
0.0
 11
-974.9999999995798
 21
1517.750000000916
 31
0.0
  0
LINE
  5
291
330
80
100
AcDbEntity
  8
0
  6
Continuous
 62
     7
100
AcDbLine
 10
-982.4999999995798
 20
1520.000000000916
 30
0.0
 11
-977.2499999995798
 21
1520.000000000916
 31
0.0
  0
LINE
  5
292
330
80
100
AcDbEntity
  8
0
  6
Continuous
 62
     3
100
AcDbLine
 10
-982.4999999995798
 20
1520.000000000916
 30
0.0
 11
-982.4999999995798
 21
1517.750000000916
 31
0.0
  0
LINE
  5
293
330
80
100
AcDbEntity
  8
0
  6
Continuous
 62
     7
100
AcDbLine
 10
-975.9999999995798
 20
1515.600000000916
 30
0.0
 11
-982.4999999995799
 21
1515.600000000916
 31
0.0
  0
LINE
  5
294
330
80
100
AcDbEntity
  8
0
  6
Continuous
 62
     7
100
AcDbLine
 10
-978.4999999995798
 20
1515.000000000916
 30
0.0
 11
-978.4999999995798
 21
1515.600000000916
 31
0.0
  0
LINE
  5
295
330
80
100
AcDbEntity
  8
0
  6
Continuous
 62
     7
100
AcDbLine
 10
-994.7999999995798
 20
1513.100000000916
 30
0.0
 11
-997.5999999995798
 21
1513.100000000916
 31
0.0
  0
LINE
  5
296
330
80
100
AcDbEntity
  8
0
  6
Continuous
 62
     7
100
AcDbLine
 10
-985.1999999995799
 20
1513.100000000916
 30
0.0
 11
-994.7999999995798
 21
1513.100000000916
 31
0.0
  0
LINE
  5
297
330
80
100
AcDbEntity
  8
0
  6
Continuous
 62
     3
100
AcDbLine
 10
-986.4499999995799
 20
1511.850000000916
 30
0.0
 11
-993.5499999995798
 21
1511.850000000916
 31
0.0
  0
LINE
  5
298
330
80
100
AcDbEntity
  8
0
  6
Continuous
 62
     7
100
AcDbLine
 10
-993.5499999995798
 20
1510.600000000916
 30
0.0
 11
-993.5499999995798
 21
1511.850000000916
 31
0.0
  0
LINE
  5
299
330
80
100
AcDbEntity
  8
0
  6
Continuous
 62
     7
100
AcDbLine
 10
-989.9999999995798
 20
1510.600000000916
 30
0.0
 11
-993.5499999995798
 21
1510.600000000916
 31
0.0
  0
LINE
  5
29A
330
80
100
AcDbEntity
  8
0
  6
Continuous
 62
     7
100
AcDbLine
 10
-993.4999999995798
 20
1513.500000000916
 30
0.0
 11
-992.4999999995798
 21
1513.500000000916
 31
0.0
  0
LINE
  5
29B
330
80
100
AcDbEntity
  8
0
  6
Continuous
 62
     3
100
AcDbLine
 10
-982.4999999995798
 20
1515.000000000916
 30
0.0
 11
-978.4999999995798
 21
1515.000000000916
 31
0.0
  0
LINE
  5
29C
330
80
100
AcDbEntity
  8
0
  6
Continuous
 62
     3
100
AcDbLine
 10
-982.4999999995798
 20
1513.500000000916
 30
0.0
 11
-982.4999999995798
 21
1515.000000000916
 31
0.0
  0
LINE
  5
29D
330
80
100
AcDbEntity
  8
0
  6
Continuous
 62
     7
100
AcDbLine
 10
-986.4499999995799
 20
1510.600000000916
 30
0.0
 11
-989.9999999995798
 21
1510.600000000916
 31
0.0
  0
LINE
  5
29E
330
80
100
AcDbEntity
  8
0
  6
Continuous
 62
     7
100
AcDbLine
 10
-986.4499999995799
 20
1510.600000000916
 30
0.0
 11
-986.4499999995799
 21
1511.850000000916
 31
0.0
  0
LINE
  5
29F
330
80
100
AcDbEntity
  8
0
  6
Continuous
 62
     7
100
AcDbLine
 10
-981.9999999995798
 20
1513.500000000916
 30
0.0
 11
-982.4999999995798
 21
1513.500000000916
 31
0.0
  0
LINE
  5
2A0
330
80
100
AcDbEntity
  8
0
  6
Continuous
 62
     7
100
AcDbLine
 10
-979.9999999995798
 20
1513.500000000916
 30
0.0
 11
-981.9999999995798
 21
1513.500000000916
 31
0.0
  0
LINE
  5
2A1
330
80
100
AcDbEntity
  8
0
  6
Continuous
 62
     7
100
AcDbLine
 10
-982.3999999995798
 20
1513.100000000916
 30
0.0
 11
-985.1999999995799
 21
1513.100000000916
 31
0.0
  0
LINE
  5
2A2
330
80
100
AcDbEntity
  8
0
  6
Continuous
 62
     7
100
AcDbLine
 10
-992.4999999995798
 20
1513.500000000916
 30
0.0
 11
-982.4999999995798
 21
1513.500000000916
 31
0.0
  0
LINE
  5
2A3
330
80
100
AcDbEntity
  8
1
  6
DOT_CENTER
 62
     2
100
AcDbLine
 10
-989.9999999995798
 20
1510.600000000916
 30
0.0
 11
-989.9999999995798
 21
1511.850000000916
 31
0.0
  0
ARC
  5
2A4
330
80
100
AcDbEntity
  8
0
  6
Continuous
 62
     7
100
AcDbCircle
 10
-1117.99999999958
 20
1515.000000000916
 30
0.0
 40
1.5
100
AcDbArc
 50
180.0
 51
224.9515711632831
  0
ARC
  5
2A5
330
80
100
AcDbEntity
  8
0
  6
Continuous
 62
     7
100
AcDbCircle
 10
-1117.99999999958
 20
1515.000000000916
 30
0.0
 40
1.500000000000297
100
AcDbArc
 50
224.9515711632831
 51
270.0
  0
ARC
  5
2A6
330
80
100
AcDbEntity
  8
0
  6
Continuous
 62
     7
100
AcDbCircle
 10
-1120.74999999958
 20
1517.750000000916
 30
0.0
 40
2.25
100
AcDbArc
 50
90.0
 51
180.0
  0
ARC
  5
2A7
330
80
100
AcDbEntity
  8
0
  6
Continuous
 62
     7
100
AcDbCircle
 10
-1123.49999999958
 20
1515.600000000916
 30
0.0
 40
1.5
100
AcDbArc
 50
270.0
 51
289.4712206344905
  0
ARC
  5
2A8
330
80
100
AcDbEntity
  8
0
  6
Continuous
 62
     7
100
AcDbCircle
 10
-997.5999999995798
 20
1513.500000000916
 30
0.0
 40
0.3999999999999773
100
AcDbArc
 50
180.0
 51
270.0
  0
ARC
  5
2A9
330
80
100
AcDbEntity
  8
0
  6
Continuous
 62
     7
100
AcDbCircle
 10
-1100.39999999958
 20
1513.500000000916
 30
0.0
 40
0.4000000000000909
100
AcDbArc
 50
270.0
 51
0.0
  0
ARC
  5
2AA
330
80
100
AcDbEntity
  8
0
  6
Continuous
 62
     7
100
AcDbCircle
 10
-1123.49999999958
 20
1515.600000000916
 30
0.0
 40
1.500000000000011
100
AcDbArc
 50
289.4712206344905
 51
0.0
  0
ARC
  5
2AB
330
80
100
AcDbEntity
  8
0
  6
Continuous
 62
     7
100
AcDbCircle
 10
-1123.49999999958
 20
1515.600000000916
 30
0.0
 40
0.5
100
AcDbArc
 50
270.0
 51
0.0
  0
ARC
  5
2AC
330
80
100
AcDbEntity
  8
0
  6
Continuous
 62
     7
100
AcDbCircle
 10
-1115.59999999958
 20
1513.500000000916
 30
0.0
 40
0.4000000000000909
100
AcDbArc
 50
180.0
 51
270.0
  0
ARC
  5
2AD
330
80
100
AcDbEntity
  8
0
  6
Continuous
 62
     7
100
AcDbCircle
 10
-974.4999999995798
 20
1515.600000000916
 30
0.0
 40
0.5
100
AcDbArc
 50
180.0
 51
270.0
  0
ARC
  5
2AE
330
80
100
AcDbEntity
  8
0
  6
Continuous
 62
     7
100
AcDbCircle
 10
-974.4999999995798
 20
1515.600000000916
 30
0.0
 40
1.500000000000011
100
AcDbArc
 50
250.5287793655095
 51
270.0
  0
ARC
  5
2AF
330
80
100
AcDbEntity
  8
0
  6
Continuous
 62
     7
100
AcDbCircle
 10
-974.4999999995798
 20
1515.600000000916
 30
0.0
 40
1.5
100
AcDbArc
 50
180.0
 51
250.5287793655095
  0
ARC
  5
2B0
330
80
100
AcDbEntity
  8
0
  6
Continuous
 62
     7
100
AcDbCircle
 10
-982.3999999995798
 20
1513.500000000916
 30
0.0
 40
0.4000000000000909
100
AcDbArc
 50
270.0
 51
0.0
  0
ARC
  5
2B1
330
80
100
AcDbEntity
  8
0
  6
Continuous
 62
     7
100
AcDbCircle
 10
-979.9999999995798
 20
1515.000000000916
 30
0.0
 40
1.5
100
AcDbArc
 50
270.0
 51
0.0
  0
ARC
  5
2B2
330
80
100
AcDbEntity
  8
0
  6
Continuous
 62
     7
100
AcDbCircle
 10
-985.1999999995799
 20
1511.850000000916
 30
0.0
 40
1.25
100
AcDbArc
 50
90.0
 51
180.0
  0
ARC
  5
2B3
330
80
100
AcDbEntity
  8
0
  6
Continuous
 62
     7
100
AcDbCircle
 10
-994.7999999995798
 20
1511.850000000916
 30
0.0
 40
1.25
100
AcDbArc
 50
0.0
 51
90.0
  0
ARC
  5
2B4
330
80
100
AcDbEntity
  8
0
  6
Continuous
 62
     7
100
AcDbCircle
 10
-977.2499999995798
 20
1517.750000000916
 30
0.0
 40
2.25
100
AcDbArc
 50
0.0
 51
90.0
  0
SPLINE
  5
2B5
330
80
100
AcDbEntity
  8
0
  6
Continuous
 62
     7
100
AcDbSpline
210
0.0
220
0.0
230
1.0
 70
  1064
 71
     3
 72
    18
 73
    14
 74
    12
 42
0.0000000001
 43
0.0000000001
 44
0.00000001
 40
0.0
 40
0.0
 40
0.0
 40
0.0
 40
0.1391084751064136
 40
0.2604284581025003
 40
0.3620125821754215
 40
0.4179058473081501
 40
0.4737747453945972
 40
0.4876009995288051
 40
0.5012942196767689
 40
0.5141613787465932
 40
0.5278913703379166
 40
0.5374147133400631
 40
0.5469402824466503
 40
0.5469402824466503
 40
0.5469402824466503
 40
0.5469402824466503
 10
-1118.739753083928
 20
1513.500000000916
 30
0.0
 10
-1118.762581891408
 20
1513.540382396861
 30
0.0
 10
-1118.805320285418
 20
1513.615983283976
 30
0.0
 10
-1118.873347831877
 20
1513.715795858196
 30
0.0
 10
-1118.929570104511
 20
1513.789828157684
 30
0.0
 10
-1118.974834567366
 20
1513.844691206539
 30
0.0
 10
-1119.002365861032
 20
1513.876235157046
 30
0.0
 10
-1119.021006853842
 20
1513.896854179164
 30
0.0
 10
-1119.03010325738
 20
1513.906778389899
 30
0.0
 10
-1119.039244559222
 20
1513.916617435133
 30
0.0
 10
-1119.04749463689
 20
1513.925386961241
 30
0.0
 10
-1119.055038052818
 20
1513.933291544604
 30
0.0
 10
-1119.059383383189
 20
1513.937921486598
 30
0.0
 10
-1119.061556307585
 20
1513.940236723134
 30
0.0
 11
-1118.739753083928
 21
1513.500000000916
 31
0.0
 11
-1118.810008482766
 21
1513.62006392901
 31
0.0
 11
-1118.87796408584
 21
1513.720565542981
 31
0.0
 11
-1118.939472450838
 21
1513.801411417334
 31
0.0
 11
-1118.975036911478
 21
1513.844530163364
 31
0.0
 11
-1119.011776110885
 21
1513.886620126969
 31
0.0
 11
-1119.021048316301
 21
1513.896876418322
 31
0.0
 11
-1119.030300972034
 21
1513.906970606854
 31
0.0
 11
-1119.039058242051
 21
1513.916397907968
 31
0.0
 11
-1119.048469437741
 21
1513.926395010882
 31
0.0
 11
-1119.055027935442
 21
1513.933300093761
 31
0.0
 11
-1119.061556307585
 21
1513.940236723134
 31
0.0
  0
SPLINE
  5
2B6
330
80
100
AcDbEntity
  8
0
  6
Continuous
 62
     7
100
AcDbSpline
210
0.0
220
0.0
230
1.0
 70
  1064
 71
     3
 72
    15
 73
    11
 74
     9
 42
0.0000000001
 43
0.0000000001
 44
0.00000001
 40
0.0
 40
0.0
 40
0.0
 40
0.0
 40
0.1005479694915057
 40
0.1965607612796912
 40
0.2847876808514695
 40
0.3614908153378338
 40
0.4246350294415926
 40
0.475236300984648
 40
0.5190554139677857
 40
0.5657658218298709
 40
0.5657658218298709
 40
0.5657658218298709
 40
0.5657658218298709
 10
-1016.49999999958
 20
1515.600000000916
 30
0.0
 10
-1016.500034851803
 20
1515.566484213631
 30
0.0
 10
-1016.500102990609
 20
1515.500964355831
 30
0.0
 10
-1016.499591747949
 20
1515.406032338947
 30
0.0
 10
-1016.497098039835
 20
1515.319078259914
 30
0.0
 10
-1016.490309727086
 20
1515.243241037364
 30
0.0
 10
-1016.476283850086
 20
1515.1810559354
 30
0.0
 10
-1016.452136623822
 20
1515.13324679026
 30
0.0
 10
-1016.412384895424
 20
1515.103752934624
 30
0.0
 10
-1016.381804127073
 20
1515.101277330511
 30
0.0
 10
-1016.366025403364
 20
1515.100000000916
 30
0.0
 11
-1016.49999999958
 21
1515.600000000916
 31
0.0
 11
-1016.499994395911
 21
1515.499452040622
 31
0.0
 11
-1016.499189426838
 21
1515.4034426236
 31
0.0
 11
-1016.496034222761
 21
1515.315272141256
 31
0.0
 11
-1016.488060012272
 21
1515.238984640761
 31
0.0
 11
-1016.472569617261
 21
1515.177769941775
 31
0.0
 11
-1016.44761494673
 21
1515.133750024345
 31
0.0
 11
-1016.412008713834
 21
1515.108209640757
 31
0.0
 11
-1016.366025403364
 21
1515.100000000916
 31
0.0
  0
SPLINE
  5
2B7
330
80
100
AcDbEntity
  8
0
  6
Continuous
 62
     7
100
AcDbSpline
210
0.0
220
0.0
230
1.0
 70
  1064
 71
     3
 72
    13
 73
     9
 74
     7
 42
0.0000000001
 43
0.0000000001
 44
0.00000001
 40
0.0
 40
0.0
 40
0.0
 40
0.0
 40
0.0466148071902531
 40
0.0903908983016632
 40
0.140964226483508
 40
0.2040561332208077
 40
0.3686897389152449
 40
0.56571800649039
 40
0.56571800649039
 40
0.56571800649039
 40
0.56571800649039
 10
-1081.633974595795
 20
1515.100000000916
 30
0.0
 10
-1081.618224683275
 20
1515.101256547487
 30
0.0
 10
-1081.587683988331
 20
1515.103693129804
 30
0.0
 10
-1081.547982599378
 20
1515.133141301055
 30
0.0
 10
-1081.523716357049
 20
1515.180851124069
 30
0.0
 10
-1081.503523565897
 20
1515.271794391014
 30
0.0
 10
-1081.499119935409
 20
1515.413931599252
 30
0.0
 10
-1081.499689637164
 20
1515.534380917637
 30
0.0
 10
-1081.49999999958
 20
1515.600000000916
 30
0.0
 11
-1081.633974595795
 21
1515.100000000916
 31
0.0
 11
-1081.588076632907
 21
1515.108143592005
 31
0.0
 11
-1081.552486909121
 21
1515.133633159785
 31
0.0
 11
-1081.527481311358
 21
1515.177592022713
 31
0.0
 11
-1081.511978297969
 21
1515.238749566844
 31
0.0
 11
-1081.500350820333
 21
1515.402972055007
 31
0.0
 11
-1081.49999999958
 21
1515.600000000916
 31
0.0
  0
SPLINE
  5
2B8
330
80
100
AcDbEntity
  8
0
  6
Continuous
 62
     7
100
AcDbSpline
210
0.0
220
0.0
230
1.0
 70
  1064
 71
     3
 72
    13
 73
     9
 74
     7
 42
0.0000000001
 43
0.0000000001
 44
0.00000001
 40
0.0
 40
0.0
 40
0.0
 40
0.0
 40
0.0466148071903976
 40
0.0903908983017551
 40
0.1409642264837976
 40
0.2040561332209048
 40
0.3686897389148884
 40
0.5657180064907155
 40
0.5657180064907155
 40
0.5657180064907155
 40
0.5657180064907155
 10
-1001.633974595795
 20
1515.100000000916
 30
0.0
 10
-1001.618224683275
 20
1515.101256547486
 30
0.0
 10
-1001.587683988331
 20
1515.103693129804
 30
0.0
 10
-1001.547982599377
 20
1515.133141301054
 30
0.0
 10
-1001.523716357049
 20
1515.180851124069
 30
0.0
 10
-1001.503523565897
 20
1515.271794391014
 30
0.0
 10
-1001.499119935409
 20
1515.413931599252
 30
0.0
 10
-1001.499689637164
 20
1515.534380917637
 30
0.0
 10
-1001.49999999958
 20
1515.600000000916
 30
0.0
 11
-1001.633974595795
 21
1515.100000000916
 31
0.0
 11
-1001.588076632906
 21
1515.108143592004
 31
0.0
 11
-1001.552486909122
 21
1515.133633159785
 31
0.0
 11
-1001.527481311358
 21
1515.177592022713
 31
0.0
 11
-1001.511978297969
 21
1515.238749566844
 31
0.0
 11
-1001.500350820333
 21
1515.402972055007
 31
0.0
 11
-1001.49999999958
 21
1515.600000000916
 31
0.0
  0
SPLINE
  5
2B9
330
80
100
AcDbEntity
  8
0
  6
Continuous
 62
     7
100
AcDbSpline
210
0.0
220
0.0
230
1.0
 70
  1064
 71
     3
 72
    15
 73
    11
 74
     9
 42
0.0000000001
 43
0.0000000001
 44
0.00000001
 40
0.0
 40
0.0
 40
0.0
 40
0.0
 40
0.1005479694915057
 40
0.1965607612796912
 40
0.2847876808514654
 40
0.3614908153378297
 40
0.4246350294415885
 40
0.4752363009844197
 40
0.5190554139674648
 40
0.5657658218301096
 40
0.5657658218301096
 40
0.5657658218301096
 40
0.5657658218301096
 10
-1096.49999999958
 20
1515.600000000916
 30
0.0
 10
-1096.500034851803
 20
1515.566484213631
 30
0.0
 10
-1096.500102990609
 20
1515.500964355831
 30
0.0
 10
-1096.499591747949
 20
1515.406032338948
 30
0.0
 10
-1096.497098039834
 20
1515.319078259914
 30
0.0
 10
-1096.490309727086
 20
1515.243241037364
 30
0.0
 10
-1096.476283850086
 20
1515.1810559354
 30
0.0
 10
-1096.452136623822
 20
1515.13324679026
 30
0.0
 10
-1096.412384895424
 20
1515.103752934624
 30
0.0
 10
-1096.381804127073
 20
1515.101277330512
 30
0.0
 10
-1096.366025403364
 20
1515.100000000916
 30
0.0
 11
-1096.49999999958
 21
1515.600000000916
 31
0.0
 11
-1096.499994395911
 21
1515.499452040622
 31
0.0
 11
-1096.499189426837
 21
1515.4034426236
 31
0.0
 11
-1096.496034222761
 21
1515.315272141256
 31
0.0
 11
-1096.488060012272
 21
1515.238984640761
 31
0.0
 11
-1096.472569617261
 21
1515.177769941775
 31
0.0
 11
-1096.44761494673
 21
1515.133750024345
 31
0.0
 11
-1096.412008713834
 21
1515.108209640757
 31
0.0
 11
-1096.366025403364
 21
1515.100000000916
 31
0.0
  0
SPLINE
  5
2BA
330
80
100
AcDbEntity
  8
0
  6
Continuous
 62
     7
100
AcDbSpline
210
0.0
220
0.0
230
1.0
 70
  1064
 71
     3
 72
     9
 73
     5
 74
     3
 42
0.0000000001
 43
0.0000000001
 44
0.00000001
 40
0.0
 40
0.0
 40
0.0
 40
0.0
 40
0.1026452480565293
 40
0.1759811820826623
 40
0.1759811820826623
 40
0.1759811820826623
 40
0.1759811820826623
 10
-1001.633974595795
 20
1514.100000000916
 30
0.0
 10
-1001.59521517803
 20
1514.099940807179
 30
0.0
 10
-1001.528763710798
 20
1514.099839336609
 30
0.0
 10
-1001.508460760747
 20
1514.160505335314
 30
0.0
 10
-1001.49999999958
 20
1514.185786438543
 30
0.0
 11
-1001.633974595795
 21
1514.100000000916
 31
0.0
 11
-1001.533396466293
 21
1514.120496042109
 31
0.0
 11
-1001.49999999958
 21
1514.185786438543
 31
0.0
  0
SPLINE
  5
2BB
330
80
100
AcDbEntity
  8
0
  6
Continuous
 62
     7
100
AcDbSpline
210
0.0
220
0.0
230
1.0
 70
  1064
 71
     3
 72
     9
 73
     5
 74
     3
 42
0.0000000001
 43
0.0000000001
 44
0.00000001
 40
0.0
 40
0.0
 40
0.0
 40
0.0
 40
0.0733295169589731
 40
0.1759816307335564
 40
0.1759816307335564
 40
0.1759816307335564
 40
0.1759816307335564
 10
-1016.49999999958
 20
1514.185786438543
 30
0.0
 10
-1016.491541024272
 20
1514.160507325281
 30
0.0
 10
-1016.471240531579
 20
1514.099840638688
 30
0.0
 10
-1016.404787959381
 20
1514.099941284476
 30
0.0
 10
-1016.366025403364
 20
1514.100000000916
 30
0.0
 11
-1016.49999999958
 21
1514.185786438543
 31
0.0
 11
-1016.466609715231
 21
1514.120500087715
 31
0.0
 11
-1016.366025403364
 21
1514.100000000916
 31
0.0
  0
SPLINE
  5
2BC
330
80
100
AcDbEntity
  8
0
  6
Continuous
 62
     7
100
AcDbSpline
210
0.0
220
0.0
230
1.0
 70
  1064
 71
     3
 72
     9
 73
     5
 74
     3
 42
0.0000000001
 43
0.0000000001
 44
0.00000001
 40
0.0
 40
0.0
 40
0.0
 40
0.0
 40
0.1026452480565293
 40
0.1759811820826623
 40
0.1759811820826623
 40
0.1759811820826623
 40
0.1759811820826623
 10
-1081.633974595795
 20
1514.100000000916
 30
0.0
 10
-1081.59521517803
 20
1514.099940807179
 30
0.0
 10
-1081.528763710799
 20
1514.099839336609
 30
0.0
 10
-1081.508460760746
 20
1514.160505335314
 30
0.0
 10
-1081.49999999958
 20
1514.185786438543
 30
0.0
 11
-1081.633974595795
 21
1514.100000000916
 31
0.0
 11
-1081.533396466293
 21
1514.120496042109
 31
0.0
 11
-1081.49999999958
 21
1514.185786438543
 31
0.0
  0
SPLINE
  5
2BD
330
80
100
AcDbEntity
  8
0
  6
Continuous
 62
     7
100
AcDbSpline
210
0.0
220
0.0
230
1.0
 70
  1064
 71
     3
 72
     9
 73
     5
 74
     3
 42
0.0000000001
 43
0.0000000001
 44
0.00000001
 40
0.0
 40
0.0
 40
0.0
 40
0.0
 40
0.0733295169589214
 40
0.1759816307337274
 40
0.1759816307337274
 40
0.1759816307337274
 40
0.1759816307337274
 10
-1096.49999999958
 20
1514.185786438543
 30
0.0
 10
-1096.491541024272
 20
1514.160507325281
 30
0.0
 10
-1096.471240531579
 20
1514.099840638687
 30
0.0
 10
-1096.404787959381
 20
1514.099941284476
 30
0.0
 10
-1096.366025403364
 20
1514.100000000916
 30
0.0
 11
-1096.49999999958
 21
1514.185786438543
 31
0.0
 11
-1096.466609715231
 21
1514.120500087715
 31
0.0
 11
-1096.366025403364
 21
1514.100000000916
 31
0.0
  0
ENDBLK
  5
82
330
80
100
AcDbEntity
  8
0
100
AcDbBlockEnd
  0
BLOCK
  5
86
330
83
100
AcDbEntity
  8
0
100
AcDbBlockBegin
  2
HL066Q_3E__7
 70
     0
 10
-1123.99999999958
 20
1370.500000000916
 30
0.0
  3
HL066Q_3E__7
  1

  0
INSERT
  5
84
330
83
100
AcDbEntity
  8
0
100
AcDbBlockReference
  2
300020689__5
 10
-1121.99999999958
 20
1370.500000000916
 30
0.0
  0
INSERT
  5
85
330
83
100
AcDbEntity
  8
0
100
AcDbBlockReference
  2
395550659__6
 10
-1123.99999999958
 20
1510.600000000916
 30
0.0
  0
ENDBLK
  5
87
330
83
100
AcDbEntity
  8
0
100
AcDbBlockEnd
  0
BLOCK
  5
8A
330
88
100
AcDbEntity
  8
0
100
AcDbBlockBegin
  2
HL66Q-WEB-Zeichnung__8
 70
     0
 10
-1123.99999999958
 20
1370.500000000916
 30
0.0
  3
HL66Q-WEB-Zeichnung__8
  1

  0
INSERT
  5
89
330
88
100
AcDbEntity
  8
0
100
AcDbBlockReference
  2
HL066Q_3E__7
 10
-1123.99999999958
 20
1370.500000000916
 30
0.0
  0
ENDBLK
  5
8B
330
88
100
AcDbEntity
  8
0
100
AcDbBlockEnd
  0
BLOCK
  5
8E
330
8C
100
AcDbEntity
  8
0
100
AcDbBlockBegin
  2
Untsicht1
 70
     0
 10
-1048.99999999979
 20
1445.25000000046
 30
0.0
  3
Untsicht1
  1

  0
INSERT
  5
8D
330
8C
100
AcDbEntity
  8
0
100
AcDbBlockReference
  2
HL66Q-WEB-Zeichnung__8
 10
-1123.99999999958
 20
1370.500000000916
 30
0.0
  0
MTEXT
  5
2BE
330
8C
100
AcDbEntity
  8
1
 62
     1
100
AcDbMText
 10
-1048.99999999979
 20
1365.50000000046
 30
0.0
 40
3.5
 41
0.0
 46
0.0
 71
     2
 72
     1
  1
 
  7
CONVERTER_11
 73
     1
 44
1.32052821128451
  0
DIMENSION
  5
2C9
330
8C
100
AcDbEntity
  8
1
100
AcDbDimension
280
     0
  2
*D12
 10
-1121.99999999958
 20
1356.65684752002
 30
0.0
 11
-1032.85665866692
 21
1361.15684752002
 31
0.0
 70
    32
  1
<>
 71
     5
 42
-1.0
 73
     0
 74
     0
 75
     0
 53
0.00013888888889
  3
ME10_DIM_10
100
AcDbAlignedDimension
 13
-976.9999999995798
 23
1374.500000000916
 33
0.0
 14
-1121.99999999958
 24
1374.500000000916
 34
0.0
100
AcDbRotatedDimension
  0
DIMENSION
  5
2D4
330
8C
100
AcDbEntity
  8
1
100
AcDbDimension
280
     0
  2
*D13
 10
-956.27167945978
 20
1370.500000000916
 30
0.0
 11
-960.77167945978
 21
1440.18924228383
 31
0.0
 70
    32
  1
<>
 71
     5
 42
-1.0
 73
     0
 74
     0
 75
     0
 53
90.0
  3
ME10_DIM_11
100
AcDbAlignedDimension
 13
-977.2499999995798
 23
1520.000000000916
 33
0.0
 14
-978.0717967693042
 24
1370.500000000916
 34
0.0
 50
90.0
100
AcDbRotatedDimension
  0
DIMENSION
  5
2DF
330
8C
100
AcDbEntity
  8
1
100
AcDbDimension
280
     0
  2
*D14
 10
-1123.99999999958
 20
1533.52195821948
 30
0.0
 11
-1049.8291408964
 21
1538.02195821948
 31
0.0
 70
    32
  1
<>x150
 71
     5
 42
-1.0
 73
     0
 74
     0
 75
     0
 53
0.00013888888889
  3
ME10_DIM_12
100
AcDbAlignedDimension
 13
-973.9999999995798
 23
1515.100000000916
 33
0.0
 14
-1123.99999999958
 24
1515.100000000916
 34
0.0
100
AcDbRotatedDimension
  0
ENDBLK
  5
8F
330
8C
100
AcDbEntity
  8
0
100
AcDbBlockEnd
  0
BLOCK
  5
2C6
330
2BF
100
AcDbEntity
  8
0
100
AcDbBlockBegin
  2
*D12
 70
     1
 10
0.0
 20
0.0
 30
0.0
  3
*D12
  1

  0
LINE
  5
2C0
330
2BF
100
AcDbEntity
  8
1
  6
Continuous
 62
     4
100
AcDbLine
 10
-1121.99999999958
 20
1356.65684752002
 30
0.0
 11
-976.9999999995798
 21
1356.65684752002
 31
0.0
  0
LINE
  5
2C1
330
2BF
100
AcDbEntity
  8
1
  6
Continuous
 62
     4
100
AcDbLine
 10
-1121.99999999958
 20
1374.500000000916
 30
0.0
 11
-1121.99999999958
 21
1354.65684752002
 31
0.0
  0
LINE
  5
2C2
330
2BF
100
AcDbEntity
  8
1
  6
Continuous
 62
     4
100
AcDbLine
 10
-976.9999999995798
 20
1374.500000000916
 30
0.0
 11
-976.9999999995798
 21
1354.65684752002
 31
0.0
  0
SOLID
  5
2C3
330
2BF
100
AcDbEntity
  8
1
 62
     4
100
AcDbTrace
 10
-1116.99999999958
 20
1357.315110007957
 30
0.0
 11
-1116.99999999958
 21
1355.998585032083
 31
0.0
 12
-1121.99999999958
 22
1356.65684752002
 32
0.0
 13
-1121.99999999958
 23
1356.65684752002
 33
0.0
  0
SOLID
  5
2C4
330
2BF
100
AcDbEntity
  8
1
 62
     4
100
AcDbTrace
 10
-981.9999999995798
 20
1355.998585032083
 30
0.0
 11
-981.9999999995798
 21
1357.315110007957
 31
0.0
 12
-976.9999999995798
 22
1356.65684752002
 32
0.0
 13
-976.9999999995798
 23
1356.65684752002
 33
0.0
  0
MTEXT
  5
2C5
330
2BF
100
AcDbEntity
  8
1
 62
     1
100
AcDbMText
 10
-1041.306658666896
 20
1358.656827642659
 30
0.0
 40
5.0
 41
0.0
 46
0.0
 71
     7
 72
     1
  1
\C1; {\Fgdt;n}\C1;145
  7
CONVERTER_11
 11
0.9999999999970621
 21
2.424068405545307E-6
 31
0.0
 73
     1
 44
0.60024009603842
  0
ENDBLK
  5
2C7
330
2BF
100
AcDbEntity
  8
0
100
AcDbBlockEnd
  0
BLOCK
  5
2D1
330
2CA
100
AcDbEntity
  8
0
100
AcDbBlockBegin
  2
*D13
 70
     1
 10
0.0
 20
0.0
 30
0.0
  3
*D13
  1

  0
LINE
  5
2CB
330
2CA
100
AcDbEntity
  8
1
  6
Continuous
 62
     4
100
AcDbLine
 10
-956.27167945978
 20
1370.500000000916
 30
0.0
 11
-956.27167945978
 21
1520.000000000916
 31
0.0
  0
LINE
  5
2CC
330
2CA
100
AcDbEntity
  8
1
  6
Continuous
 62
     4
100
AcDbLine
 10
-978.0717967693042
 20
1370.500000000916
 30
0.0
 11
-954.27167945978
 21
1370.500000000916
 31
0.0
  0
LINE
  5
2CD
330
2CA
100
AcDbEntity
  8
1
  6
Continuous
 62
     4
100
AcDbLine
 10
-977.2499999995798
 20
1520.000000000916
 30
0.0
 11
-954.27167945978
 21
1520.000000000916
 31
0.0
  0
SOLID
  5
2CE
330
2CA
100
AcDbEntity
  8
1
 62
     4
100
AcDbTrace
 10
-956.929941947717
 20
1375.500000000916
 30
0.0
 11
-955.613416971843
 21
1375.500000000916
 31
0.0
 12
-956.27167945978
 22
1370.500000000916
 32
0.0
 13
-956.27167945978
 23
1370.500000000916
 33
0.0
  0
SOLID
  5
2CF
330
2CA
100
AcDbEntity
  8
1
 62
     4
100
AcDbTrace
 10
-955.613416971843
 20
1515.000000000916
 30
0.0
 11
-956.929941947717
 21
1515.000000000916
 31
0.0
 12
-956.27167945978
 22
1520.000000000916
 32
0.0
 13
-956.27167945978
 23
1520.000000000916
 33
0.0
  0
MTEXT
  5
2D0
330
2CA
100
AcDbEntity
  8
1
 62
     1
100
AcDbMText
 10
-958.27167945978
 20
1434.93924228383
 30
0.0
 40
5.0
 41
0.0
 46
0.0
 71
     7
 72
     1
  1
150
  7
CONVERTER_11
 11
0.0
 21
1.0
 31
0.0
 73
     1
 44
0.60024009603842
  0
ENDBLK
  5
2D2
330
2CA
100
AcDbEntity
  8
0
100
AcDbBlockEnd
  0
BLOCK
  5
2DC
330
2D5
100
AcDbEntity
  8
0
100
AcDbBlockBegin
  2
*D14
 70
     1
 10
0.0
 20
0.0
 30
0.0
  3
*D14
  1

  0
LINE
  5
2D6
330
2D5
100
AcDbEntity
  8
1
  6
Continuous
 62
     4
100
AcDbLine
 10
-1123.99999999958
 20
1533.52195821948
 30
0.0
 11
-973.9999999995798
 21
1533.52195821948
 31
0.0
  0
LINE
  5
2D7
330
2D5
100
AcDbEntity
  8
1
  6
Continuous
 62
     4
100
AcDbLine
 10
-1123.99999999958
 20
1515.100000000916
 30
0.0
 11
-1123.99999999958
 21
1535.52195821948
 31
0.0
  0
LINE
  5
2D8
330
2D5
100
AcDbEntity
  8
1
  6
Continuous
 62
     4
100
AcDbLine
 10
-973.9999999995798
 20
1515.100000000916
 30
0.0
 11
-973.9999999995798
 21
1535.52195821948
 31
0.0
  0
SOLID
  5
2D9
330
2D5
100
AcDbEntity
  8
1
 62
     4
100
AcDbTrace
 10
-1118.99999999958
 20
1534.180220707417
 30
0.0
 11
-1118.99999999958
 21
1532.863695731543
 31
0.0
 12
-1123.99999999958
 22
1533.52195821948
 32
0.0
 13
-1123.99999999958
 23
1533.52195821948
 33
0.0
  0
SOLID
  5
2DA
330
2D5
100
AcDbEntity
  8
1
 62
     4
100
AcDbTrace
 10
-978.9999999995798
 20
1532.863695731543
 30
0.0
 11
-978.9999999995798
 21
1534.180220707417
 31
0.0
 12
-973.9999999995798
 22
1533.52195821948
 32
0.0
 13
-973.9999999995798
 23
1533.52195821948
 33
0.0
  0
MTEXT
  5
2DB
330
2D5
100
AcDbEntity
  8
1
 62
     1
100
AcDbMText
 10
-1063.8291408964
 20
1535.52195821948
 30
0.0
 40
5.0
 41
0.0
 46
0.0
 71
     7
 72
     1
  1
\C1;150\C1;x150
  7
CONVERTER_11
 11
0.9999999999970621
 21
2.424068405545307E-6
 31
0.0
 73
     1
 44
0.60024009603842
  0
ENDBLK
  5
2DD
330
2D5
100
AcDbEntity
  8
0
100
AcDbBlockEnd
  0
ENDSEC
  0
SECTION
  2
ENTITIES
  0
INSERT
  5
90
330
1F
100
AcDbEntity
  8
0
100
AcDbBlockReference
  2
Vordans2
 10
-1048.99999999979
 20
1255.99999999993
 30
0.0
  0
INSERT
  5
91
330
1F
100
AcDbEntity
  8
0
100
AcDbBlockReference
  2
Untsicht1
 10
-1048.99999999979
 20
1445.25000000046
 30
0.0
  0
ENDSEC
  0
SECTION
  2
OBJECTS
  0
DICTIONARY
  5
C
330
0
100
AcDbDictionary
281
     1
  3
ACAD_DETAILVIEWSTYLE
350
2E7
  3
ACAD_GROUP
350
D
  3
ACAD_LAYOUT
350
1A
  3
ACAD_MATERIAL
350
43
  3
ACAD_MLEADERSTYLE
350
5B
  3
ACAD_MLINESTYLE
350
17
  3
ACAD_PLOTSETTINGS
350
19
  3
ACAD_PLOTSTYLENAME
350
E
  3
ACAD_SCALELIST
350
47
  3
ACAD_SECTIONVIEWSTYLE
350
2E8
  3
ACAD_TABLESTYLE
350
59
  3
ACAD_VISUALSTYLE
350
2A
  3
ACDB_RECOMPOSE_DATA
350
2E4
  3
AcDbVariableDictionary
350
2E0
  0
SUN
  5
5D
330
29
100
AcDbSun
 90
        1
290
     0
 63
     7
421
 16777215
 40
1.0
291
     1
 91
  2455826
 92
 54000000
292
     0
 70
     2
 71
   256
280
     1
  0
DICTIONARY
  5
2E7
102
{ACAD_REACTORS
330
C
102
}
330
C
100
AcDbDictionary
281
     1
  0
DICTIONARY
  5
D
102
{ACAD_REACTORS
330
C
102
}
330
C
100
AcDbDictionary
281
     1
  0
DICTIONARY
  5
1A
102
{ACAD_REACTORS
330
C
102
}
330
C
100
AcDbDictionary
281
     1
  3
Layout1
350
1E
  3
Layout2
350
26
  3
Model
350
22
  0
DICTIONARY
  5
43
102
{ACAD_REACTORS
330
C
102
}
330
C
100
AcDbDictionary
281
     1
  3
ByBlock
350
45
  3
ByLayer
350
44
  3
Global
350
46
  0
DICTIONARY
  5
5B
102
{ACAD_REACTORS
330
C
102
}
330
C
100
AcDbDictionary
281
     1
  3
Standard
350
5C
  0
DICTIONARY
  5
17
102
{ACAD_REACTORS
330
C
102
}
330
C
100
AcDbDictionary
281
     1
  3
Standard
350
18
  0
DICTIONARY
  5
19
102
{ACAD_REACTORS
330
C
102
}
330
C
100
AcDbDictionary
281
     1
  0
ACDBDICTIONARYWDFLT
  5
E
102
{ACAD_REACTORS
330
C
102
}
330
C
100
AcDbDictionary
281
     1
  3
Normal
350
F
100
AcDbDictionaryWithDefault
340
F
  0
DICTIONARY
  5
47
102
{ACAD_REACTORS
330
C
102
}
330
C
100
AcDbDictionary
281
     1
  3
A0
350
48
  3
A1
350
49
  3
A2
350
4A
  3
A3
350
4B
  3
A4
350
4C
  3
A5
350
4D
  3
A6
350
4E
  3
A7
350
4F
  3
A8
350
50
  3
A9
350
51
  3
B1
350
52
  3
B2
350
53
  3
B3
350
54
  3
B4
350
55
  3
B5
350
56
  3
B6
350
57
  3
B7
350
58
  0
DICTIONARY
  5
2E8
102
{ACAD_REACTORS
330
C
102
}
330
C
100
AcDbDictionary
281
     1
  0
DICTIONARY
  5
59
102
{ACAD_REACTORS
330
C
102
}
330
C
100
AcDbDictionary
281
     1
  3
Standard
350
5A
  0
DICTIONARY
  5
2A
102
{ACAD_REACTORS
330
C
102
}
330
C
100
AcDbDictionary
281
     1
  3
2dWireframe
350
2F
  3
Basic
350
32
  3
Brighten
350
36
  3
ColorChange
350
3A
  3
Conceptual
350
34
  3
Dim
350
35
  3
EdgeColorOff
350
3D
  3
Facepattern
350
39
  3
Flat
350
2B
  3
FlatWithEdges
350
2C
  3
Gouraud
350
2D
  3
GouraudWithEdges
350
2E
  3
Hidden
350
31
  3
JitterOff
350
3B
  3
Linepattern
350
38
  3
OverhangOff
350
3C
  3
Realistic
350
33
  3
Shaded
350
42
  3
Shaded with edges
350
41
  3
Shades of Gray
350
3E
  3
Sketchy
350
3F
  3
Thicken
350
37
  3
Wireframe
350
30
  3
X-Ray
350
40
  0
XRECORD
  5
2E4
102
{ACAD_REACTORS
330
C
102
}
330
C
100
AcDbXrecord
280
     1
 90
        1
330
5A
  0
DICTIONARY
  5
2E0
102
{ACAD_REACTORS
330
C
102
}
330
C
100
AcDbDictionary
281
     1
  3
CANNOSCALE
350
2E1
  3
CMLEADERSTYLE
350
2E6
  3
CTABLESTYLE
350
2E5
  0
LAYOUT
  5
1E
102
{ACAD_REACTORS
330
1A
102
}
330
1A
100
AcDbPlotSettings
  1

  2
none_device
  4

  6

 40
0.0
 41
0.0
 42
0.0
 43
0.0
 44
0.0
 45
0.0
 46
0.0
 47
0.0
 48
0.0
 49
0.0
140
0.0
141
0.0
142
1.0
143
1.0
 70
   688
 72
     0
 73
     0
 74
     5
  7

 75
    16
 76
     0
 77
     2
 78
   300
147
1.0
148
0.0
149
0.0
100
AcDbLayout
  1
Layout1
 70
     1
 71
     1
 10
0.0
 20
0.0
 11
12.0
 21
9.0
 12
0.0
 22
0.0
 32
0.0
 14
1.00000000000000E+20
 24
1.00000000000000E+20
 34
1.00000000000000E+20
 15
-1.00000000000000E+20
 25
-1.00000000000000E+20
 35
-1.00000000000000E+20
146
0.0
 13
0.0
 23
0.0
 33
0.0
 16
1.0
 26
0.0
 36
0.0
 17
0.0
 27
1.0
 37
0.0
 76
     0
330
1B
  0
LAYOUT
  5
26
102
{ACAD_REACTORS
330
1A
102
}
330
1A
100
AcDbPlotSettings
  1

  2
none_device
  4

  6

 40
0.0
 41
0.0
 42
0.0
 43
0.0
 44
0.0
 45
0.0
 46
0.0
 47
0.0
 48
0.0
 49
0.0
140
0.0
141
0.0
142
1.0
143
1.0
 70
   688
 72
     0
 73
     0
 74
     5
  7

 75
    16
 76
     0
 77
     2
 78
   300
147
1.0
148
0.0
149
0.0
100
AcDbLayout
  1
Layout2
 70
     1
 71
     2
 10
0.0
 20
0.0
 11
0.0
 21
0.0
 12
0.0
 22
0.0
 32
0.0
 14
0.0
 24
0.0
 34
0.0
 15
0.0
 25
0.0
 35
0.0
146
0.0
 13
0.0
 23
0.0
 33
0.0
 16
1.0
 26
0.0
 36
0.0
 17
0.0
 27
1.0
 37
0.0
 76
     0
330
23
  0
LAYOUT
  5
22
102
{ACAD_REACTORS
330
1A
102
}
330
1A
100
AcDbPlotSettings
  1

  2
none_device
  4
Letter_(8.50_x_11.00_Inches)
  6

 40
6.35
 41
6.35
 42
6.35000508
 43
6.35000508
 44
215.9
 45
279.4
 46
0.0
 47
0.0
 48
0.0
 49
0.0
140
0.0
141
0.0
142
1.0
143
1.0
 70
  1712
 72
     0
 73
     0
 74
     0
  7

 75
     0
 76
     0
 77
     2
 78
   300
147
1.0
148
0.0
149
0.0
100
AcDbLayout
  1
Model
 70
     1
 71
     0
 10
0.0
 20
0.0
 11
12.0
 21
9.0
 12
0.0
 22
0.0
 32
0.0
 14
-1127.48355208497
 24
1172.49999999993
 34
0.0
 15
-954.27167945978
 25
1540.52195821948
 35
0.0
146
0.0
 13
0.0
 23
0.0
 33
0.0
 16
1.0
 26
0.0
 36
0.0
 17
0.0
 27
1.0
 37
0.0
 76
     0
330
1F
331
29
  0
MATERIAL
  5
45
102
{ACAD_REACTORS
330
43
102
}
330
43
100
AcDbMaterial
  1
ByBlock
 72
     1
 94
      127
  0
MATERIAL
  5
44
102
{ACAD_REACTORS
330
43
102
}
330
43
100
AcDbMaterial
  1
ByLayer
 72
     1
 94
      127
  0
MATERIAL
  5
46
102
{ACAD_REACTORS
330
43
102
}
330
43
100
AcDbMaterial
  1
Global
 72
     1
 94
      127
  0
MLEADERSTYLE
  5
5C
102
{ACAD_REACTORS
330
5B
102
}
330
5B
100
AcDbMLeaderStyle
179
     2
170
     2
171
     1
172
     0
 90
        2
 40
0.0
 41
0.0
173
     1
 91
-1056964608
340
14
 92
       -2
290
     1
 42
0.09
291
     1
 43
0.36
  3
Standard
341
0
 44
0.18
300

342
11
174
     1
178
     6
175
     1
176
     0
 93
-1056964608
 45
0.18
292
     0
297
     0
 46
0.18
343
0
 94
-1056964608
 47
1.0
 49
1.0
140
1.0
293
     1
141
0.0
294
     1
177
     0
142
1.0
295
     0
296
     0
143
0.125
271
     0
272
     9
273
     9
298
     0
  0
MLINESTYLE
  5
18
102
{ACAD_REACTORS
330
17
102
}
330
17
100
AcDbMlineStyle
  2
Standard
 70
     0
  3

 62
   256
 51
90.0
 52
90.0
 71
     2
 49
0.5
 62
   256
  6
BYLAYER
 49
-0.5
 62
   256
  6
BYLAYER
  0
ACDBPLACEHOLDER
  5
F
102
{ACAD_REACTORS
330
E
102
}
330
E
  0
SCALE
  5
48
102
{ACAD_REACTORS
330
47
102
}
330
47
100
AcDbScale
 70
     0
300
1:1
140
1.0
141
1.0
290
     1
  0
SCALE
  5
49
102
{ACAD_REACTORS
330
47
102
}
330
47
100
AcDbScale
 70
     0
300
1/128" = 1'-0"
140
0.0078125
141
12.0
290
     0
  0
SCALE
  5
4A
102
{ACAD_REACTORS
330
47
102
}
330
47
100
AcDbScale
 70
     0
300
1/64" = 1'-0"
140
0.015625
141
12.0
290
     0
  0
SCALE
  5
4B
102
{ACAD_REACTORS
330
47
102
}
330
47
100
AcDbScale
 70
     0
300
1/32" = 1'-0"
140
0.03125
141
12.0
290
     0
  0
SCALE
  5
4C
102
{ACAD_REACTORS
330
47
102
}
330
47
100
AcDbScale
 70
     0
300
1/16" = 1'-0"
140
0.0625
141
12.0
290
     0
  0
SCALE
  5
4D
102
{ACAD_REACTORS
330
47
102
}
330
47
100
AcDbScale
 70
     0
300
3/32" = 1'-0"
140
0.09375
141
12.0
290
     0
  0
SCALE
  5
4E
102
{ACAD_REACTORS
330
47
102
}
330
47
100
AcDbScale
 70
     0
300
1/8" = 1'-0"
140
0.125
141
12.0
290
     0
  0
SCALE
  5
4F
102
{ACAD_REACTORS
330
47
102
}
330
47
100
AcDbScale
 70
     0
300
3/16" = 1'-0"
140
0.1875
141
12.0
290
     0
  0
SCALE
  5
50
102
{ACAD_REACTORS
330
47
102
}
330
47
100
AcDbScale
 70
     0
300
1/4" = 1'-0"
140
0.25
141
12.0
290
     0
  0
SCALE
  5
51
102
{ACAD_REACTORS
330
47
102
}
330
47
100
AcDbScale
 70
     0
300
3/8" = 1'-0"
140
0.375
141
12.0
290
     0
  0
SCALE
  5
52
102
{ACAD_REACTORS
330
47
102
}
330
47
100
AcDbScale
 70
     0
300
1/2" = 1'-0"
140
0.5
141
12.0
290
     0
  0
SCALE
  5
53
102
{ACAD_REACTORS
330
47
102
}
330
47
100
AcDbScale
 70
     0
300
3/4" = 1'-0"
140
0.75
141
12.0
290
     0
  0
SCALE
  5
54
102
{ACAD_REACTORS
330
47
102
}
330
47
100
AcDbScale
 70
     0
300
1" = 1'-0"
140
1.0
141
12.0
290
     0
  0
SCALE
  5
55
102
{ACAD_REACTORS
330
47
102
}
330
47
100
AcDbScale
 70
     0
300
1-1/2" = 1'-0"
140
1.5
141
12.0
290
     0
  0
SCALE
  5
56
102
{ACAD_REACTORS
330
47
102
}
330
47
100
AcDbScale
 70
     0
300
3" = 1'-0"
140
3.0
141
12.0
290
     0
  0
SCALE
  5
57
102
{ACAD_REACTORS
330
47
102
}
330
47
100
AcDbScale
 70
     0
300
6" = 1'-0"
140
6.0
141
12.0
290
     0
  0
SCALE
  5
58
102
{ACAD_REACTORS
330
47
102
}
330
47
100
AcDbScale
 70
     0
300
1'-0" = 1'-0"
140
12.0
141
12.0
290
     0
  0
TABLESTYLE
  5
5A
102
{ACAD_REACTORS
330
59
102
}
102
{ACAD_XDICTIONARY
360
2E2
102
}
330
59
100
AcDbTableStyle
  3
Standard
 70
     0
 71
     0
 40
0.06
 41
0.06
280
     0
281
     0
  7
Standard
140
0.18
170
     2
 62
     0
 63
   257
283
     0
 90
        4
 91
        0
  1

274
    -2
284
     1
 64
     0
275
    -2
285
     1
 65
     0
276
    -2
286
     1
 66
     0
277
    -2
287
     1
 67
     0
278
    -2
288
     1
 68
     0
279
    -2
289
     1
 69
     0
  7
Standard
140
0.25
170
     5
 62
     0
 63
   257
283
     0
 90
        4
 91
        0
  1

274
    -2
284
     1
 64
     0
275
    -2
285
     1
 65
     0
276
    -2
286
     1
 66
     0
277
    -2
287
     1
 67
     0
278
    -2
288
     1
 68
     0
279
    -2
289
     1
 69
     0
  7
Standard
140
0.18
170
     5
 62
     0
 63
   257
283
     0
 90
        4
 91
        0
  1

274
    -2
284
     1
 64
     0
275
    -2
285
     1
 65
     0
276
    -2
286
     1
 66
     0
277
    -2
287
     1
 67
     0
278
    -2
288
     1
 68
     0
279
    -2
289
     1
 69
     0
  0
VISUALSTYLE
  5
2F
102
{ACAD_REACTORS
330
2A
102
}
330
2A
100
AcDbVisualStyle
  2
2dWireframe
 70
     4
177
     3
291
     0
 70
    58
 90
        0
176
     1
 90
        2
176
     1
 90
        0
176
     1
 90
        0
176
     1
 40
0.6
176
     1
 40
30.0
176
     1
 62
     7
420
 16777215
176
     1
 90
        1
176
     1
 90
        4
176
     1
 62
     7
176
     1
 62
   257
176
     1
 90
        1
176
     1
 90
        1
176
     1
 40
1.0
176
     1
 90
        0
176
     1
 62
   257
176
     1
 40
1.0
176
     1
 90
        1
176
     1
 90
        6
176
     1
 90
        2
176
     1
 62
     7
176
     1
 90
        5
176
     1
 90
        0
176
     1
 90
        0
176
     1
290
     0
176
     1
 90
        1
176
     1
 40
0.0
176
     1
 90
        0
176
     1
290
     1
176
     1
290
     1
176
     1
290
     0
176
     1
290
     0
176
     1
290
     0
176
     1
290
     0
176
     1
290
     0
176
     1
290
     0
176
     1
290
     0
176
     1
 90
       50
176
     1
 40
0.0
176
     1
 40
1.0
176
     1
 90
        0
176
     1
 62
    18
420
        0
176
     1
 90
       50
176
     1
 90
        3
176
     1
 62
     5
420
      255
176
     1
290
     0
176
     1
 90
       50
176
     1
 90
       50
176
     1
 90
       50
176
     1
290
     0
176
     1
 90
       50
176
     1
 62
   256
176
     0
 40
1.0
176
     0
 90
        2
176
     1
  1
strokes_ogs.tif
176
     1
290
     0
176
     1
 40
1.0
176
     1
 40
1.0
176
     1
  0
VISUALSTYLE
  5
32
102
{ACAD_REACTORS
330
2A
102
}
330
2A
100
AcDbVisualStyle
  2
Basic
 70
     7
177
     3
291
     1
 70
    58
 90
        1
176
     1
 90
        0
176
     1
 90
        1
176
     1
 90
        0
176
     1
 40
0.6
176
     1
 40
30.0
176
     1
 62
     7
420
 16777215
176
     1
 90
        0
176
     1
 90
        4
176
     1
 62
     7
176
     1
 62
   257
176
     1
 90
        1
176
     1
 90
        1
176
     1
 40
1.0
176
     1
 90
        8
176
     1
 62
     7
176
     1
 40
1.0
176
     1
 90
        1
176
     1
 90
        6
176
     1
 90
        2
176
     1
 62
     7
176
     1
 90
        5
176
     1
 90
        0
176
     1
 90
        0
176
     1
290
     0
176
     1
 90
        1
176
     1
 40
0.0
176
     1
 90
        0
176
     1
290
     0
176
     1
290
     1
176
     1
290
     1
176
     1
290
     0
176
     1
290
     0
176
     1
290
     0
176
     1
290
     0
176
     1
290
     0
176
     1
290
     0
176
     1
 90
       50
176
     1
 40
0.0
176
     1
 40
1.0
176
     1
 90
        0
176
     1
 62
    18
420
        0
176
     1
 90
       50
176
     1
 90
        3
176
     1
 62
     5
420
      255
176
     1
290
     0
176
     1
 90
       50
176
     1
 90
       50
176
     1
 90
       50
176
     1
290
     0
176
     1
 90
       50
176
     1
 62
   256
176
     0
 40
1.0
176
     0
 90
        2
176
     1
  1
strokes_ogs.tif
176
     1
290
     0
176
     1
 40
1.0
176
     1
 40
1.0
176
     1
  0
VISUALSTYLE
  5
36
102
{ACAD_REACTORS
330
2A
102
}
330
2A
100
AcDbVisualStyle
  2
Brighten
 70
    12
177
     3
291
     1
 70
    58
 90
        2
176
     1
 90
        2
176
     1
 90
        0
176
     1
 90
        0
176
     1
 40
0.6
176
     1
 40
30.0
176
     1
 62
     7
420
 16777215
176
     1
 90
        1
176
     1
 90
        4
176
     1
 62
     7
176
     1
 62
   257
176
     1
 90
        1
176
     1
 90
        1
176
     1
 40
1.0
176
     1
 90
        8
176
     1
 62
     7
176
     1
 40
1.0
176
     1
 90
        1
176
     1
 90
        6
176
     1
 90
        2
176
     1
 62
     7
176
     1
 90
        5
176
     1
 90
        0
176
     1
 90
        0
176
     1
290
     0
176
     1
 90
        1
176
     1
 40
50.0
176
     1
 90
        0
176
     1
290
     0
176
     1
290
     1
176
     1
290
     1
176
     1
290
     0
176
     1
290
     0
176
     1
290
     0
176
     1
290
     0
176
     1
290
     0
176
     1
290
     0
176
     1
 90
       50
176
     1
 40
0.0
176
     1
 40
1.0
176
     1
 90
        0
176
     1
 62
    18
420
        0
176
     1
 90
       50
176
     1
 90
        3
176
     1
 62
     5
420
      255
176
     1
290
     0
176
     1
 90
       50
176
     1
 90
       50
176
     1
 90
       50
176
     1
290
     0
176
     1
 90
       50
176
     1
 62
   256
176
     0
 40
1.0
176
     0
 90
        2
176
     1
  1
strokes_ogs.tif
176
     1
290
     0
176
     1
 40
1.0
176
     1
 40
1.0
176
     1
  0
VISUALSTYLE
  5
3A
102
{ACAD_REACTORS
330
2A
102
}
330
2A
100
AcDbVisualStyle
  2
ColorChange
 70
    16
177
     3
291
     1
 70
    58
 90
        2
176
     1
 90
        2
176
     1
 90
        3
176
     1
 90
        0
176
     1
 40
0.6
176
     1
 40
30.0
176
     1
 62
     8
420
  8421504
176
     1
 90
        1
176
     1
 90
        4
176
     1
 62
     7
176
     1
 62
   257
176
     1
 90
        1
176
     1
 90
        1
176
     1
 40
1.0
176
     1
 90
        8
176
     1
 62
     8
420
  8421504
176
     1
 40
1.0
176
     1
 90
        1
176
     1
 90
        6
176
     1
 90
        2
176
     1
 62
     7
176
     1
 90
        5
176
     1
 90
        0
176
     1
 90
        0
176
     1
290
     0
176
     1
 90
        1
176
     1
 40
0.0
176
     1
 90
        0
176
     1
290
     0
176
     1
290
     1
176
     1
290
     1
176
     1
290
     0
176
     1
290
     0
176
     1
290
     0
176
     1
290
     0
176
     1
290
     0
176
     1
290
     0
176
     1
 90
       50
176
     1
 40
0.0
176
     1
 40
1.0
176
     1
 90
        0
176
     1
 62
    18
420
        0
176
     1
 90
       50
176
     1
 90
        3
176
     1
 62
     5
420
      255
176
     1
290
     0
176
     1
 90
       50
176
     1
 90
       50
176
     1
 90
       50
176
     1
290
     0
176
     1
 90
       50
176
     1
 62
   256
176
     0
 40
1.0
176
     0
 90
        2
176
     1
  1
strokes_ogs.tif
176
     1
290
     0
176
     1
 40
1.0
176
     1
 40
1.0
176
     1
  0
VISUALSTYLE
  5
34
102
{ACAD_REACTORS
330
2A
102
}
330
2A
100
AcDbVisualStyle
  2
Conceptual
 70
     9
177
     3
291
     0
 70
    58
 90
        3
176
     1
 90
        2
176
     1
 90
        0
176
     1
 90
        0
176
     1
 40
0.6
176
     1
 40
30.0
176
     1
 62
     7
420
 16777215
176
     1
 90
        2
176
     1
 90
        2
176
     1
 62
     7
176
     1
 62
   257
176
     1
 90
        1
176
     1
 90
        1
176
     1
 40
179.0
176
     1
 90
        8
176
     1
 62
     7
176
     1
 40
1.0
176
     1
 90
        1
176
     1
 90
        6
176
     1
 90
        2
176
     1
 62
     7
176
     1
 90
        3
176
     1
 90
        0
176
     1
 90
        0
176
     1
290
     0
176
     1
 90
        1
176
     1
 40
0.0
176
     1
 90
        0
176
     1
290
     0
176
     1
290
     1
176
     1
290
     1
176
     1
290
     0
176
     1
290
     0
176
     1
290
     0
176
     1
290
     0
176
     1
290
     0
176
     1
290
     0
176
     1
 90
       50
176
     1
 40
0.0
176
     1
 40
1.0
176
     1
 90
        0
176
     1
 62
    18
420
        0
176
     1
 90
       50
176
     1
 90
        3
176
     1
 62
     5
420
      255
176
     1
290
     0
176
     1
 90
       50
176
     1
 90
       50
176
     1
 90
       50
176
     1
290
     0
176
     1
 90
       50
176
     1
 62
   256
176
     0
 40
1.0
176
     0
 90
        2
176
     1
  1
strokes_ogs.tif
176
     1
290
     0
176
     1
 40
1.0
176
     1
 40
1.0
176
     1
  0
VISUALSTYLE
  5
35
102
{ACAD_REACTORS
330
2A
102
}
330
2A
100
AcDbVisualStyle
  2
Dim
 70
    11
177
     3
291
     1
 70
    58
 90
        2
176
     1
 90
        2
176
     1
 90
        0
176
     1
 90
        0
176
     1
 40
0.6
176
     1
 40
30.0
176
     1
 62
     7
420
 16777215
176
     1
 90
        1
176
     1
 90
        4
176
     1
 62
     7
176
     1
 62
   257
176
     1
 90
        1
176
     1
 90
        1
176
     1
 40
1.0
176
     1
 90
        8
176
     1
 62
     7
176
     1
 40
1.0
176
     1
 90
        1
176
     1
 90
        6
176
     1
 90
        2
176
     1
 62
     7
176
     1
 90
        5
176
     1
 90
        0
176
     1
 90
        0
176
     1
290
     0
176
     1
 90
        1
176
     1
 40
-50.0
176
     1
 90
        0
176
     1
290
     0
176
     1
290
     1
176
     1
290
     1
176
     1
290
     0
176
     1
290
     0
176
     1
290
     0
176
     1
290
     0
176
     1
290
     0
176
     1
290
     0
176
     1
 90
       50
176
     1
 40
0.0
176
     1
 40
1.0
176
     1
 90
        0
176
     1
 62
    18
420
        0
176
     1
 90
       50
176
     1
 90
        3
176
     1
 62
     5
420
      255
176
     1
290
     0
176
     1
 90
       50
176
     1
 90
       50
176
     1
 90
       50
176
     1
290
     0
176
     1
 90
       50
176
     1
 62
   256
176
     0
 40
1.0
176
     0
 90
        2
176
     1
  1
strokes_ogs.tif
176
     1
290
     0
176
     1
 40
1.0
176
     1
 40
1.0
176
     1
  0
VISUALSTYLE
  5
3D
102
{ACAD_REACTORS
330
2A
102
}
330
2A
100
AcDbVisualStyle
  2
EdgeColorOff
 70
    22
177
     3
291
     1
 70
    58
 90
        2
176
     0
 90
        2
176
     0
 90
        0
176
     0
 90
        0
176
     0
 40
0.6
176
     0
 40
30.0
176
     0
 62
     7
420
 16777215
176
     0
 90
        1
176
     0
 90
        4
176
     0
 62
     7
176
     0
 62
   257
176
     0
 90
        1
176
     0
 90
        1
176
     0
 40
1.0
176
     0
 90
        8
176
     2
 62
     7
176
     0
 40
1.0
176
     0
 90
        1
176
     0
 90
        6
176
     0
 90
        2
176
     0
 62
     7
176
     0
 90
        5
176
     0
 90
        0
176
     0
 90
        0
176
     0
290
     0
176
     0
 90
        1
176
     0
 40
0.0
176
     0
 90
        0
176
     0
290
     0
176
     0
290
     1
176
     0
290
     1
176
     0
290
     0
176
     0
290
     0
176
     0
290
     0
176
     0
290
     0
176
     0
290
     0
176
     0
290
     0
176
     0
 90
       50
176
     0
 40
0.0
176
     0
 40
1.0
176
     0
 90
        0
176
     0
 62
    18
420
        0
176
     0
 90
       50
176
     0
 90
        3
176
     0
 62
     5
420
      255
176
     0
290
     0
176
     0
 90
       50
176
     0
 90
       50
176
     0
 90
       50
176
     0
290
     0
176
     0
 90
       50
176
     0
 62
   256
176
     0
 40
1.0
176
     0
 90
        2
176
     0
  1
strokes_ogs.tif
176
     0
290
     0
176
     0
 40
1.0
176
     0
 40
1.0
176
     0
  0
VISUALSTYLE
  5
39
102
{ACAD_REACTORS
330
2A
102
}
330
2A
100
AcDbVisualStyle
  2
Facepattern
 70
    15
177
     3
291
     1
 70
    58
 90
        2
176
     1
 90
        2
176
     1
 90
        0
176
     1
 90
        0
176
     1
 40
0.6
176
     1
 40
30.0
176
     1
 62
     7
420
 16777215
176
     1
 90
        1
176
     1
 90
        4
176
     1
 62
     7
176
     1
 62
   257
176
     1
 90
        1
176
     1
 90
        1
176
     1
 40
1.0
176
     1
 90
        8
176
     1
 62
     7
176
     1
 40
1.0
176
     1
 90
        1
176
     1
 90
        6
176
     1
 90
        2
176
     1
 62
     7
176
     1
 90
        5
176
     1
 90
        0
176
     1
 90
        0
176
     1
290
     0
176
     1
 90
        1
176
     1
 40
0.0
176
     1
 90
        0
176
     1
290
     0
176
     1
290
     1
176
     1
290
     1
176
     1
290
     0
176
     1
290
     0
176
     1
290
     0
176
     1
290
     0
176
     1
290
     0
176
     1
290
     0
176
     1
 90
       50
176
     1
 40
0.0
176
     1
 40
1.0
176
     1
 90
        0
176
     1
 62
    18
420
        0
176
     1
 90
       50
176
     1
 90
        3
176
     1
 62
     5
420
      255
176
     1
290
     0
176
     1
 90
       50
176
     1
 90
       50
176
     1
 90
       50
176
     1
290
     0
176
     1
 90
       50
176
     1
 62
   256
176
     0
 40
1.0
176
     0
 90
        2
176
     1
  1
strokes_ogs.tif
176
     1
290
     0
176
     1
 40
1.0
176
     1
 40
1.0
176
     1
  0
VISUALSTYLE
  5
2B
102
{ACAD_REACTORS
330
2A
102
}
330
2A
100
AcDbVisualStyle
  2
Flat
 70
     0
177
     3
291
     1
 70
    58
 90
        2
176
     1
 90
        1
176
     1
 90
        1
176
     1
 90
        2
176
     1
 40
0.6
176
     1
 40
30.0
176
     1
 62
     7
420
 16777215
176
     1
 90
        0
176
     1
 90
        0
176
     1
 62
     7
176
     1
 62
   257
176
     1
 90
        1
176
     1
 90
        1
176
     1
 40
1.0
176
     1
 90
        8
176
     1
 62
     7
176
     1
 40
1.0
176
     1
 90
        1
176
     1
 90
        6
176
     1
 90
        2
176
     1
 62
     7
176
     1
 90
        5
176
     1
 90
        0
176
     1
 90
        0
176
     1
290
     0
176
     1
 90
       13
176
     1
 40
0.0
176
     1
 90
        0
176
     1
290
     0
176
     1
290
     1
176
     1
290
     1
176
     1
290
     0
176
     1
290
     0
176
     1
290
     0
176
     1
290
     0
176
     1
290
     0
176
     1
290
     0
176
     1
 90
       50
176
     1
 40
0.0
176
     1
 40
1.0
176
     1
 90
        0
176
     1
 62
    18
420
        0
176
     1
 90
       50
176
     1
 90
        3
176
     1
 62
     5
420
      255
176
     1
290
     0
176
     1
 90
       50
176
     1
 90
       50
176
     1
 90
       50
176
     1
290
     0
176
     1
 90
       50
176
     1
 62
   256
176
     0
 40
1.0
176
     0
 90
        2
176
     1
  1
strokes_ogs.tif
176
     1
290
     0
176
     1
 40
1.0
176
     1
 40
1.0
176
     1
  0
VISUALSTYLE
  5
2C
102
{ACAD_REACTORS
330
2A
102
}
330
2A
100
AcDbVisualStyle
  2
FlatWithEdges
 70
     1
177
     3
291
     1
 70
    58
 90
        2
176
     1
 90
        1
176
     1
 90
        1
176
     1
 90
        2
176
     1
 40
0.6
176
     1
 40
30.0
176
     1
 62
     7
420
 16777215
176
     1
 90
        1
176
     1
 90
        0
176
     1
 62
     7
176
     1
 62
   257
176
     1
 90
        1
176
     1
 90
        1
176
     1
 40
1.0
176
     1
 90
        0
176
     1
 62
   257
176
     1
 40
1.0
176
     1
 90
        1
176
     1
 90
        6
176
     1
 90
        2
176
     1
 62
     7
176
     1
 90
        5
176
     1
 90
        0
176
     1
 90
        0
176
     1
290
     0
176
     1
 90
       13
176
     1
 40
0.0
176
     1
 90
        0
176
     1
290
     0
176
     1
290
     1
176
     1
290
     1
176
     1
290
     0
176
     1
290
     0
176
     1
290
     0
176
     1
290
     0
176
     1
290
     0
176
     1
290
     0
176
     1
 90
       50
176
     1
 40
0.0
176
     1
 40
1.0
176
     1
 90
        0
176
     1
 62
    18
420
        0
176
     1
 90
       50
176
     1
 90
        3
176
     1
 62
     5
420
      255
176
     1
290
     0
176
     1
 90
       50
176
     1
 90
       50
176
     1
 90
       50
176
     1
290
     0
176
     1
 90
       50
176
     1
 62
   256
176
     0
 40
1.0
176
     0
 90
        2
176
     1
  1
strokes_ogs.tif
176
     1
290
     0
176
     1
 40
1.0
176
     1
 40
1.0
176
     1
  0
VISUALSTYLE
  5
2D
102
{ACAD_REACTORS
330
2A
102
}
330
2A
100
AcDbVisualStyle
  2
Gouraud
 70
     2
177
     3
291
     1
 70
    58
 90
        2
176
     1
 90
        2
176
     1
 90
        1
176
     1
 90
        2
176
     1
 40
0.6
176
     1
 40
30.0
176
     1
 62
     7
420
 16777215
176
     1
 90
        0
176
     1
 90
        0
176
     1
 62
     7
176
     1
 62
   257
176
     1
 90
        1
176
     1
 90
        1
176
     1
 40
1.0
176
     1
 90
        0
176
     1
 62
     7
176
     1
 40
1.0
176
     1
 90
        1
176
     1
 90
        6
176
     1
 90
        2
176
     1
 62
     7
176
     1
 90
        5
176
     1
 90
        0
176
     1
 90
        0
176
     1
290
     0
176
     1
 90
       13
176
     1
 40
0.0
176
     1
 90
        0
176
     1
290
     0
176
     1
290
     1
176
     1
290
     1
176
     1
290
     0
176
     1
290
     0
176
     1
290
     0
176
     1
290
     0
176
     1
290
     0
176
     1
290
     0
176
     1
 90
       50
176
     1
 40
0.0
176
     1
 40
1.0
176
     1
 90
        0
176
     1
 62
    18
420
        0
176
     1
 90
       50
176
     1
 90
        3
176
     1
 62
     5
420
      255
176
     1
290
     0
176
     1
 90
       50
176
     1
 90
       50
176
     1
 90
       50
176
     1
290
     0
176
     1
 90
       50
176
     1
 62
   256
176
     0
 40
1.0
176
     0
 90
        2
176
     1
  1
strokes_ogs.tif
176
     1
290
     0
176
     1
 40
1.0
176
     1
 40
1.0
176
     1
  0
VISUALSTYLE
  5
2E
102
{ACAD_REACTORS
330
2A
102
}
330
2A
100
AcDbVisualStyle
  2
GouraudWithEdges
 70
     3
177
     3
291
     1
 70
    58
 90
        2
176
     1
 90
        2
176
     1
 90
        1
176
     1
 90
        2
176
     1
 40
0.6
176
     1
 40
30.0
176
     1
 62
     7
420
 16777215
176
     1
 90
        1
176
     1
 90
        0
176
     1
 62
     7
176
     1
 62
   257
176
     1
 90
        1
176
     1
 90
        1
176
     1
 40
1.0
176
     1
 90
        0
176
     1
 62
   257
176
     1
 40
1.0
176
     1
 90
        1
176
     1
 90
        6
176
     1
 90
        2
176
     1
 62
     7
176
     1
 90
        5
176
     1
 90
        0
176
     1
 90
        0
176
     1
290
     0
176
     1
 90
       13
176
     1
 40
0.0
176
     1
 90
        0
176
     1
290
     0
176
     1
290
     1
176
     1
290
     1
176
     1
290
     0
176
     1
290
     0
176
     1
290
     0
176
     1
290
     0
176
     1
290
     0
176
     1
290
     0
176
     1
 90
       50
176
     1
 40
0.0
176
     1
 40
1.0
176
     1
 90
        0
176
     1
 62
    18
420
        0
176
     1
 90
       50
176
     1
 90
        3
176
     1
 62
     5
420
      255
176
     1
290
     0
176
     1
 90
       50
176
     1
 90
       50
176
     1
 90
       50
176
     1
290
     0
176
     1
 90
       50
176
     1
 62
   256
176
     0
 40
1.0
176
     0
 90
        2
176
     1
  1
strokes_ogs.tif
176
     1
290
     0
176
     1
 40
1.0
176
     1
 40
1.0
176
     1
  0
VISUALSTYLE
  5
31
102
{ACAD_REACTORS
330
2A
102
}
330
2A
100
AcDbVisualStyle
  2
Hidden
 70
     6
177
     3
291
     0
 70
    58
 90
        1
176
     1
 90
        2
176
     1
 90
        2
176
     1
 90
        0
176
     1
 40
0.6
176
     1
 40
30.0
176
     1
 62
     7
420
 16777215
176
     1
 90
        2
176
     1
 90
        2
176
     1
 62
     7
176
     1
 62
   257
176
     1
 90
        2
176
     1
 90
        1
176
     1
 40
40.0
176
     1
 90
        0
176
     1
 62
   257
176
     1
 40
1.0
176
     1
 90
        1
176
     1
 90
        6
176
     1
 90
        2
176
     1
 62
     7
176
     1
 90
        3
176
     1
 90
        0
176
     1
 90
        0
176
     1
290
     0
176
     1
 90
        1
176
     1
 40
0.0
176
     1
 90
        0
176
     1
290
     0
176
     1
290
     1
176
     1
290
     1
176
     1
290
     0
176
     1
290
     0
176
     1
290
     0
176
     1
290
     0
176
     1
290
     0
176
     1
290
     0
176
     1
 90
       50
176
     1
 40
0.0
176
     1
 40
1.0
176
     1
 90
        0
176
     1
 62
    18
420
        0
176
     1
 90
       50
176
     1
 90
        3
176
     1
 62
     5
420
      255
176
     1
290
     0
176
     1
 90
       50
176
     1
 90
       50
176
     1
 90
       50
176
     1
290
     0
176
     1
 90
       50
176
     1
 62
   256
176
     0
 40
1.0
176
     0
 90
        2
176
     1
  1
strokes_ogs.tif
176
     1
290
     0
176
     1
 40
1.0
176
     1
 40
1.0
176
     1
  0
VISUALSTYLE
  5
3B
102
{ACAD_REACTORS
330
2A
102
}
330
2A
100
AcDbVisualStyle
  2
JitterOff
 70
    20
177
     3
291
     1
 70
    58
 90
        2
176
     0
 90
        2
176
     0
 90
        0
176
     0
 90
        0
176
     0
 40
0.6
176
     0
 40
30.0
176
     0
 62
     7
420
 16777215
176
     0
 90
        1
176
     0
 90
        4
176
     0
 62
     7
176
     0
 62
   257
176
     0
 90
        1
176
     0
 90
        1
176
     0
 40
1.0
176
     0
 90
       10
176
     2
 62
     7
176
     0
 40
1.0
176
     0
 90
        1
176
     0
 90
        6
176
     0
 90
        2
176
     0
 62
     7
176
     0
 90
        5
176
     0
 90
        0
176
     0
 90
        0
176
     0
290
     0
176
     0
 90
        1
176
     0
 40
0.0
176
     0
 90
        0
176
     0
290
     0
176
     0
290
     1
176
     0
290
     1
176
     0
290
     0
176
     0
290
     0
176
     0
290
     0
176
     0
290
     0
176
     0
290
     0
176
     0
290
     0
176
     0
 90
       50
176
     0
 40
0.0
176
     0
 40
1.0
176
     0
 90
        0
176
     0
 62
    18
420
        0
176
     0
 90
       50
176
     0
 90
        3
176
     0
 62
     5
420
      255
176
     0
290
     0
176
     0
 90
       50
176
     0
 90
       50
176
     0
 90
       50
176
     0
290
     0
176
     0
 90
       50
176
     0
 62
   256
176
     0
 40
1.0
176
     0
 90
        2
176
     0
  1
strokes_ogs.tif
176
     0
290
     0
176
     0
 40
1.0
176
     0
 40
1.0
176
     0
  0
VISUALSTYLE
  5
38
102
{ACAD_REACTORS
330
2A
102
}
330
2A
100
AcDbVisualStyle
  2
Linepattern
 70
    14
177
     3
291
     1
 70
    58
 90
        2
176
     1
 90
        2
176
     1
 90
        0
176
     1
 90
        0
176
     1
 40
0.6
176
     1
 40
30.0
176
     1
 62
     7
420
 16777215
176
     1
 90
        1
176
     1
 90
        4
176
     1
 62
     7
176
     1
 62
   257
176
     1
 90
        7
176
     1
 90
        7
176
     1
 40
1.0
176
     1
 90
        8
176
     1
 62
     7
176
     1
 40
1.0
176
     1
 90
        1
176
     1
 90
        6
176
     1
 90
        2
176
     1
 62
     7
176
     1
 90
        5
176
     1
 90
        0
176
     1
 90
        0
176
     1
290
     0
176
     1
 90
        1
176
     1
 40
0.0
176
     1
 90
        0
176
     1
290
     0
176
     1
290
     1
176
     1
290
     1
176
     1
290
     0
176
     1
290
     0
176
     1
290
     0
176
     1
290
     0
176
     1
290
     0
176
     1
290
     0
176
     1
 90
       50
176
     1
 40
0.0
176
     1
 40
1.0
176
     1
 90
        0
176
     1
 62
    18
420
        0
176
     1
 90
       50
176
     1
 90
        3
176
     1
 62
     5
420
      255
176
     1
290
     0
176
     1
 90
       50
176
     1
 90
       50
176
     1
 90
       50
176
     1
290
     0
176
     1
 90
       50
176
     1
 62
   256
176
     0
 40
1.0
176
     0
 90
        2
176
     1
  1
strokes_ogs.tif
176
     1
290
     0
176
     1
 40
1.0
176
     1
 40
1.0
176
     1
  0
VISUALSTYLE
  5
3C
102
{ACAD_REACTORS
330
2A
102
}
330
2A
100
AcDbVisualStyle
  2
OverhangOff
 70
    21
177
     3
291
     1
 70
    58
 90
        2
176
     0
 90
        2
176
     0
 90
        0
176
     0
 90
        0
176
     0
 40
0.6
176
     0
 40
30.0
176
     0
 62
     7
420
 16777215
176
     0
 90
        1
176
     0
 90
        4
176
     0
 62
     7
176
     0
 62
   257
176
     0
 90
        1
176
     0
 90
        1
176
     0
 40
1.0
176
     0
 90
        9
176
     2
 62
     7
176
     0
 40
1.0
176
     0
 90
        1
176
     0
 90
        6
176
     0
 90
        2
176
     0
 62
     7
176
     0
 90
        5
176
     0
 90
        0
176
     0
 90
        0
176
     0
290
     0
176
     0
 90
        1
176
     0
 40
0.0
176
     0
 90
        0
176
     0
290
     0
176
     0
290
     1
176
     0
290
     1
176
     0
290
     0
176
     0
290
     0
176
     0
290
     0
176
     0
290
     0
176
     0
290
     0
176
     0
290
     0
176
     0
 90
       50
176
     0
 40
0.0
176
     0
 40
1.0
176
     0
 90
        0
176
     0
 62
    18
420
        0
176
     0
 90
       50
176
     0
 90
        3
176
     0
 62
     5
420
      255
176
     0
290
     0
176
     0
 90
       50
176
     0
 90
       50
176
     0
 90
       50
176
     0
290
     0
176
     0
 90
       50
176
     0
 62
   256
176
     0
 40
1.0
176
     0
 90
        2
176
     0
  1
strokes_ogs.tif
176
     0
290
     0
176
     0
 40
1.0
176
     0
 40
1.0
176
     0
  0
VISUALSTYLE
  5
33
102
{ACAD_REACTORS
330
2A
102
}
330
2A
100
AcDbVisualStyle
  2
Realistic
 70
     8
177
     3
291
     0
 70
    58
 90
        2
176
     1
 90
        3
176
     1
 90
        0
176
     1
 90
        2
176
     1
 40
0.6
176
     1
 40
30.0
176
     1
 62
     7
420
 16777215
176
     1
 90
        0
176
     1
 90
        0
176
     1
 62
     7
176
     1
 62
   257
176
     1
 90
        1
176
     1
 90
        1
176
     1
 40
1.0
176
     1
 90
        8
176
     1
 62
   257
176
     1
 40
1.0
176
     1
 90
        1
176
     1
 90
        6
176
     1
 90
        2
176
     1
 62
     7
176
     1
 90
        3
176
     1
 90
        0
176
     1
 90
        0
176
     1
290
     0
176
     1
 90
       13
176
     1
 40
0.0
176
     1
 90
        0
176
     1
290
     0
176
     1
290
     1
176
     1
290
     1
176
     1
290
     0
176
     1
290
     0
176
     1
290
     0
176
     1
290
     0
176
     1
290
     0
176
     1
290
     0
176
     1
 90
       50
176
     1
 40
0.0
176
     1
 40
1.0
176
     1
 90
        0
176
     1
 62
    18
420
        0
176
     1
 90
       50
176
     1
 90
        3
176
     1
 62
     5
420
      255
176
     1
290
     0
176
     1
 90
       50
176
     1
 90
       50
176
     1
 90
       50
176
     1
290
     0
176
     1
 90
       50
176
     1
 62
   256
176
     0
 40
1.0
176
     0
 90
        2
176
     1
  1
strokes_ogs.tif
176
     1
290
     0
176
     1
 40
1.0
176
     1
 40
1.0
176
     1
  0
VISUALSTYLE
  5
42
102
{ACAD_REACTORS
330
2A
102
}
330
2A
100
AcDbVisualStyle
  2
Shaded
 70
    27
177
     3
291
     0
 70
    58
 90
        2
176
     1
 90
        2
176
     1
 90
        1
176
     1
 90
        2
176
     1
 40
0.6
176
     1
 40
30.0
176
     1
 62
     7
420
 16777215
176
     1
 90
        0
176
     1
 90
        4
176
     1
 62
     7
176
     1
 62
   257
176
     1
 90
        1
176
     1
 90
        1
176
     1
 40
1.0
176
     1
 90
        8
176
     1
 62
   257
176
     1
 40
1.0
176
     1
 90
        1
176
     1
 90
        6
176
     1
 90
        2
176
     1
 62
     8
420
  7895160
176
     1
 90
        3
176
     1
 90
        0
176
     1
 90
        0
176
     1
290
     0
176
     1
 90
        5
176
     1
 40
0.0
176
     1
 90
        0
176
     1
290
     0
176
     1
290
     1
176
     1
290
     1
176
     1
290
     0
176
     1
290
     0
176
     1
290
     0
176
     1
290
     0
176
     1
290
     0
176
     1
290
     0
176
     1
 90
       50
176
     1
 40
0.0
176
     1
 40
1.0
176
     1
 90
        0
176
     1
 62
    18
420
        0
176
     1
 90
       50
176
     1
 90
        3
176
     1
 62
     5
420
      255
176
     1
290
     0
176
     1
 90
       50
176
     1
 90
       50
176
     1
 90
       50
176
     1
290
     0
176
     1
 90
       50
176
     1
 62
   256
176
     0
 40
1.0
176
     0
 90
        2
176
     1
  1
strokes_ogs.tif
176
     1
290
     0
176
     1
 40
1.0
176
     1
 40
1.0
176
     1
  0
VISUALSTYLE
  5
41
102
{ACAD_REACTORS
330
2A
102
}
330
2A
100
AcDbVisualStyle
  2
Shaded with edges
 70
    26
177
     3
291
     0
 70
    58
 90
        2
176
     1
 90
        2
176
     1
 90
        1
176
     1
 90
        2
176
     1
 40
0.6
176
     1
 40
30.0
176
     1
 62
     7
420
 16777215
176
     1
 90
        1
176
     1
 90
       10
176
     1
 62
     7
176
     1
 62
   257
176
     1
 90
        2
176
     1
 90
        1
176
     1
 40
1.0
176
     1
 90
        8
176
     1
 62
   257
176
     1
 40
1.0
176
     1
 90
        1
176
     1
 90
        6
176
     1
 90
        2
176
     1
 62
     7
176
     1
 90
        3
176
     1
 90
        0
176
     1
 90
        0
176
     1
290
     0
176
     1
 90
        5
176
     1
 40
0.0
176
     1
 90
        0
176
     1
290
     0
176
     1
290
     1
176
     1
290
     1
176
     1
290
     0
176
     1
290
     0
176
     1
290
     0
176
     1
290
     0
176
     1
290
     0
176
     1
290
     0
176
     1
 90
       50
176
     1
 40
0.0
176
     1
 40
1.0
176
     1
 90
        0
176
     1
 62
    18
420
        0
176
     1
 90
       50
176
     1
 90
        3
176
     1
 62
     5
420
      255
176
     1
290
     0
176
     1
 90
       50
176
     1
 90
       50
176
     1
 90
       50
176
     1
290
     0
176
     1
 90
       50
176
     1
 62
   256
176
     0
 40
1.0
176
     0
 90
        2
176
     1
  1
strokes_ogs.tif
176
     1
290
     0
176
     1
 40
1.0
176
     1
 40
1.0
176
     1
  0
VISUALSTYLE
  5
3E
102
{ACAD_REACTORS
330
2A
102
}
330
2A
100
AcDbVisualStyle
  2
Shades of Gray
 70
    23
177
     3
291
     0
 70
    58
 90
        2
176
     1
 90
        2
176
     1
 90
        3
176
     1
 90
        0
176
     1
 40
0.6
176
     1
 40
30.0
176
     1
 62
     7
420
 16777215
176
     1
 90
        2
176
     1
 90
        2
176
     1
 62
     7
176
     1
 62
     7
176
     1
 90
        1
176
     1
 90
        1
176
     1
 40
40.0
176
     1
 90
        8
176
     1
 62
     7
176
     1
 40
1.0
176
     1
 90
        1
176
     1
 90
        6
176
     1
 90
        2
176
     1
 62
     7
176
     1
 90
        3
176
     1
 90
        0
176
     1
 90
        0
176
     1
290
     0
176
     1
 90
        1
176
     1
 40
0.0
176
     1
 90
        0
176
     1
290
     0
176
     1
290
     1
176
     1
290
     1
176
     1
290
     0
176
     1
290
     0
176
     1
290
     0
176
     1
290
     0
176
     1
290
     0
176
     1
290
     0
176
     1
 90
       50
176
     1
 40
0.0
176
     1
 40
1.0
176
     1
 90
        0
176
     1
 62
    18
420
        0
176
     1
 90
       50
176
     1
 90
        3
176
     1
 62
     5
420
      255
176
     1
290
     0
176
     1
 90
       50
176
     1
 90
       50
176
     1
 90
       50
176
     1
290
     0
176
     1
 90
       50
176
     1
 62
   256
176
     0
 40
1.0
176
     0
 90
        2
176
     1
  1
strokes_ogs.tif
176
     1
290
     0
176
     1
 40
1.0
176
     1
 40
1.0
176
     1
  0
VISUALSTYLE
  5
3F
102
{ACAD_REACTORS
330
2A
102
}
330
2A
100
AcDbVisualStyle
  2
Sketchy
 70
    24
177
     3
291
     0
 70
    58
 90
        1
176
     1
 90
        2
176
     1
 90
        2
176
     1
 90
        0
176
     1
 40
0.6
176
     1
 40
30.0
176
     1
 62
     7
420
 16777215
176
     1
 90
        2
176
     1
 90
        2
176
     1
 62
     7
176
     1
 62
     7
176
     1
 90
        1
176
     1
 90
        1
176
     1
 40
40.0
176
     1
 90
       11
176
     1
 62
     7
176
     1
 40
1.0
176
     1
 90
        1
176
     1
 90
        6
176
     1
 90
        2
176
     1
 62
     7
176
     1
 90
        6
176
     1
 90
        0
176
     1
 90
        0
176
     1
290
     0
176
     1
 90
        1
176
     1
 40
0.0
176
     1
 90
        0
176
     1
290
     0
176
     1
290
     1
176
     1
290
     1
176
     1
290
     0
176
     1
290
     0
176
     1
290
     0
176
     1
290
     0
176
     1
290
     0
176
     1
290
     0
176
     1
 90
       50
176
     1
 40
0.0
176
     1
 40
1.0
176
     1
 90
        0
176
     1
 62
    18
420
        0
176
     1
 90
       50
176
     1
 90
        3
176
     1
 62
     5
420
      255
176
     1
290
     0
176
     1
 90
       50
176
     1
 90
       50
176
     1
 90
       50
176
     1
290
     0
176
     1
 90
       50
176
     1
 62
   256
176
     0
 40
1.0
176
     0
 90
        2
176
     1
  1
strokes_ogs.tif
176
     1
290
     0
176
     1
 40
1.0
176
     1
 40
1.0
176
     1
  0
VISUALSTYLE
  5
37
102
{ACAD_REACTORS
330
2A
102
}
330
2A
100
AcDbVisualStyle
  2
Thicken
 70
    13
177
     3
291
     1
 70
    58
 90
        2
176
     1
 90
        2
176
     1
 90
        0
176
     1
 90
        0
176
     1
 40
0.6
176
     1
 40
30.0
176
     1
 62
     7
420
 16777215
176
     1
 90
        1
176
     1
 90
        4
176
     1
 62
     7
176
     1
 62
   257
176
     1
 90
        1
176
     1
 90
        1
176
     1
 40
1.0
176
     1
 90
       12
176
     1
 62
     7
176
     1
 40
1.0
176
     1
 90
        1
176
     1
 90
        6
176
     1
 90
        2
176
     1
 62
     7
176
     1
 90
        5
176
     1
 90
        0
176
     1
 90
        0
176
     1
290
     0
176
     1
 90
        1
176
     1
 40
0.0
176
     1
 90
        0
176
     1
290
     0
176
     1
290
     1
176
     1
290
     1
176
     1
290
     0
176
     1
290
     0
176
     1
290
     0
176
     1
290
     0
176
     1
290
     0
176
     1
290
     0
176
     1
 90
       50
176
     1
 40
0.0
176
     1
 40
1.0
176
     1
 90
        0
176
     1
 62
    18
420
        0
176
     1
 90
       50
176
     1
 90
        3
176
     1
 62
     5
420
      255
176
     1
290
     0
176
     1
 90
       50
176
     1
 90
       50
176
     1
 90
       50
176
     1
290
     0
176
     1
 90
       50
176
     1
 62
   256
176
     0
 40
1.0
176
     0
 90
        2
176
     1
  1
strokes_ogs.tif
176
     1
290
     0
176
     1
 40
1.0
176
     1
 40
1.0
176
     1
  0
VISUALSTYLE
  5
30
102
{ACAD_REACTORS
330
2A
102
}
330
2A
100
AcDbVisualStyle
  2
Wireframe
 70
     5
177
     3
291
     0
 70
    58
 90
        0
176
     1
 90
        2
176
     1
 90
        0
176
     1
 90
        0
176
     1
 40
0.6
176
     1
 40
30.0
176
     1
 62
     7
420
 16777215
176
     1
 90
        1
176
     1
 90
        4
176
     1
 62
     7
176
     1
 62
   257
176
     1
 90
        1
176
     1
 90
        1
176
     1
 40
1.0
176
     1
 90
        0
176
     1
 62
   257
176
     1
 40
1.0
176
     1
 90
        1
176
     1
 90
        6
176
     1
 90
        2
176
     1
 62
     7
176
     1
 90
        3
176
     1
 90
        0
176
     1
 90
        0
176
     1
290
     0
176
     1
 90
        1
176
     1
 40
0.0
176
     1
 90
        0
176
     1
290
     0
176
     1
290
     1
176
     1
290
     1
176
     1
290
     0
176
     1
290
     0
176
     1
290
     0
176
     1
290
     0
176
     1
290
     0
176
     1
290
     0
176
     1
 90
       50
176
     1
 40
0.0
176
     1
 40
1.0
176
     1
 90
        0
176
     1
 62
    18
420
        0
176
     1
 90
       50
176
     1
 90
        3
176
     1
 62
     5
420
      255
176
     1
290
     0
176
     1
 90
       50
176
     1
 90
       50
176
     1
 90
       50
176
     1
290
     0
176
     1
 90
       50
176
     1
 62
   256
176
     0
 40
1.0
176
     0
 90
        2
176
     1
  1
strokes_ogs.tif
176
     1
290
     0
176
     1
 40
1.0
176
     1
 40
1.0
176
     1
  0
VISUALSTYLE
  5
40
102
{ACAD_REACTORS
330
2A
102
}
330
2A
100
AcDbVisualStyle
  2
X-Ray
 70
    25
177
     3
291
     0
 70
    58
 90
        2
176
     1
 90
        2
176
     1
 90
        1
176
     1
 90
        1
176
     1
 40
0.5
176
     1
 40
30.0
176
     1
 62
     7
420
 16777215
176
     1
 90
        1
176
     1
 90
        0
176
     1
 62
     7
176
     1
 62
   257
176
     1
 90
        1
176
     1
 90
        1
176
     1
 40
1.0
176
     1
 90
        8
176
     1
 62
     7
176
     1
 40
1.0
176
     1
 90
        1
176
     1
 90
        6
176
     1
 90
        2
176
     1
 62
     7
176
     1
 90
        3
176
     1
 90
        0
176
     1
 90
        0
176
     1
290
     0
176
     1
 90
       13
176
     1
 40
0.0
176
     1
 90
        0
176
     1
290
     0
176
     1
290
     1
176
     1
290
     1
176
     1
290
     0
176
     1
290
     0
176
     1
290
     0
176
     1
290
     0
176
     1
290
     0
176
     1
290
     0
176
     1
 90
       50
176
     1
 40
0.0
176
     1
 40
1.0
176
     1
 90
        0
176
     1
 62
    18
420
        0
176
     1
 90
       50
176
     1
 90
        3
176
     1
 62
     5
420
      255
176
     1
290
     0
176
     1
 90
       50
176
     1
 90
       50
176
     1
 90
       50
176
     1
290
     0
176
     1
 90
       50
176
     1
 62
   256
176
     0
 40
1.0
176
     0
 90
        2
176
     1
  1
strokes_ogs.tif
176
     1
290
     0
176
     1
 40
1.0
176
     1
 40
1.0
176
     1
  0
DICTIONARYVAR
  5
2E1
102
{ACAD_REACTORS
330
2E0
102
}
330
2E0
100
DictionaryVariables
280
     0
  1
1:1
  0
DICTIONARYVAR
  5
2E6
102
{ACAD_REACTORS
330
2E0
102
}
330
2E0
100
DictionaryVariables
280
     0
  1
Standard
  0
DICTIONARYVAR
  5
2E5
102
{ACAD_REACTORS
330
2E0
102
}
330
2E0
100
DictionaryVariables
280
     0
  1
Standard
  0
DICTIONARY
  5
2E2
330
5A
100
AcDbDictionary
280
     1
281
     1
  3
ACAD_ROUNDTRIP_2008_TABLESTYLE_CELLSTYLEMAP
360
2E3
  0
CELLSTYLEMAP
  5
2E3
102
{ACAD_REACTORS
330
2E2
102
}
330
2E2
100
AcDbCellStyleMap
 90
        3
300
CELLSTYLE
  1
TABLEFORMAT_BEGIN
 90
        5
170
     1
 91
        0
 92
    32768
 62
   257
 93
        1
300
CONTENTFORMAT
  1
CONTENTFORMAT_BEGIN
 90
        0
 91
        0
 92
        4
 93
        0
300

 40
0.0
140
1.0
 94
        5
 62
     0
340
11
144
0.25
309
CONTENTFORMAT_END
171
     1
301
MARGIN
  1
CELLMARGIN_BEGIN
 40
0.06
 40
0.06
 40
0.06
 40
0.06
 40
0.06
 40
0.06
309
CELLMARGIN_END
 94
        6
 95
        1
302
GRIDFORMAT
  1
GRIDFORMAT_BEGIN
 90
        0
 91
        1
 62
     0
 92
       -2
340
14
 93
        0
 40
0.045
309
GRIDFORMAT_END
 95
        2
302
GRIDFORMAT
  1
GRIDFORMAT_BEGIN
 90
        0
 91
        1
 62
     0
 92
       -2
340
14
 93
        0
 40
0.045
309
GRIDFORMAT_END
 95
        4
302
GRIDFORMAT
  1
GRIDFORMAT_BEGIN
 90
        0
 91
        1
 62
     0
 92
       -2
340
14
 93
        0
 40
0.045
309
GRIDFORMAT_END
 95
        8
302
GRIDFORMAT
  1
GRIDFORMAT_BEGIN
 90
        0
 91
        1
 62
     0
 92
       -2
340
14
 93
        0
 40
0.045
309
GRIDFORMAT_END
 95
       16
302
GRIDFORMAT
  1
GRIDFORMAT_BEGIN
 90
        0
 91
        1
 62
     0
 92
       -2
340
14
 93
        0
 40
0.045
309
GRIDFORMAT_END
 95
       32
302
GRIDFORMAT
  1
GRIDFORMAT_BEGIN
 90
        0
 91
        1
 62
     0
 92
       -2
340
14
 93
        0
 40
0.045
309
GRIDFORMAT_END
309
TABLEFORMAT_END
  1
CELLSTYLE_BEGIN
 90
        1
 91
        1
300
_TITLE
309
CELLSTYLE_END
300
CELLSTYLE
  1
TABLEFORMAT_BEGIN
 90
        5
170
     1
 91
        0
 92
        0
 62
   257
 93
        1
300
CONTENTFORMAT
  1
CONTENTFORMAT_BEGIN
 90
        0
 91
        0
 92
        4
 93
        0
300

 40
0.0
140
1.0
 94
        5
 62
     0
340
11
144
0.18
309
CONTENTFORMAT_END
171
     1
301
MARGIN
  1
CELLMARGIN_BEGIN
 40
0.06
 40
0.06
 40
0.06
 40
0.06
 40
0.06
 40
0.06
309
CELLMARGIN_END
 94
        6
 95
        1
302
GRIDFORMAT
  1
GRIDFORMAT_BEGIN
 90
        0
 91
        1
 62
     0
 92
       -2
340
14
 93
        0
 40
0.045
309
GRIDFORMAT_END
 95
        2
302
GRIDFORMAT
  1
GRIDFORMAT_BEGIN
 90
        0
 91
        1
 62
     0
 92
       -2
340
14
 93
        0
 40
0.045
309
GRIDFORMAT_END
 95
        4
302
GRIDFORMAT
  1
GRIDFORMAT_BEGIN
 90
        0
 91
        1
 62
     0
 92
       -2
340
14
 93
        0
 40
0.045
309
GRIDFORMAT_END
 95
        8
302
GRIDFORMAT
  1
GRIDFORMAT_BEGIN
 90
        0
 91
        1
 62
     0
 92
       -2
340
14
 93
        0
 40
0.045
309
GRIDFORMAT_END
 95
       16
302
GRIDFORMAT
  1
GRIDFORMAT_BEGIN
 90
        0
 91
        1
 62
     0
 92
       -2
340
14
 93
        0
 40
0.045
309
GRIDFORMAT_END
 95
       32
302
GRIDFORMAT
  1
GRIDFORMAT_BEGIN
 90
        0
 91
        1
 62
     0
 92
       -2
340
14
 93
        0
 40
0.045
309
GRIDFORMAT_END
309
TABLEFORMAT_END
  1
CELLSTYLE_BEGIN
 90
        2
 91
        1
300
_HEADER
309
CELLSTYLE_END
300
CELLSTYLE
  1
TABLEFORMAT_BEGIN
 90
        5
170
     1
 91
        0
 92
        0
 62
   257
 93
        1
300
CONTENTFORMAT
  1
CONTENTFORMAT_BEGIN
 90
        0
 91
        0
 92
        4
 93
        0
300

 40
0.0
140
1.0
 94
        2
 62
     0
340
11
144
0.18
309
CONTENTFORMAT_END
171
     1
301
MARGIN
  1
CELLMARGIN_BEGIN
 40
0.06
 40
0.06
 40
0.06
 40
0.06
 40
0.06
 40
0.06
309
CELLMARGIN_END
 94
        6
 95
        1
302
GRIDFORMAT
  1
GRIDFORMAT_BEGIN
 90
        0
 91
        1
 62
     0
 92
       -2
340
14
 93
        0
 40
0.045
309
GRIDFORMAT_END
 95
        2
302
GRIDFORMAT
  1
GRIDFORMAT_BEGIN
 90
        0
 91
        1
 62
     0
 92
       -2
340
14
 93
        0
 40
0.045
309
GRIDFORMAT_END
 95
        4
302
GRIDFORMAT
  1
GRIDFORMAT_BEGIN
 90
        0
 91
        1
 62
     0
 92
       -2
340
14
 93
        0
 40
0.045
309
GRIDFORMAT_END
 95
        8
302
GRIDFORMAT
  1
GRIDFORMAT_BEGIN
 90
        0
 91
        1
 62
     0
 92
       -2
340
14
 93
        0
 40
0.045
309
GRIDFORMAT_END
 95
       16
302
GRIDFORMAT
  1
GRIDFORMAT_BEGIN
 90
        0
 91
        1
 62
     0
 92
       -2
340
14
 93
        0
 40
0.045
309
GRIDFORMAT_END
 95
       32
302
GRIDFORMAT
  1
GRIDFORMAT_BEGIN
 90
        0
 91
        1
 62
     0
 92
       -2
340
14
 93
        0
 40
0.045
309
GRIDFORMAT_END
309
TABLEFORMAT_END
  1
CELLSTYLE_BEGIN
 90
        3
 91
        2
300
_DATA
309
CELLSTYLE_END
  0
ENDSEC
  0
EOF
