  0
SECTION
  2
HEADER
  9
$ACADVER
  1
AC1032
  9
$ACADMAINTVER
 90
       55
  9
$DWGCODEPAGE
  3
ANSI_1252
  9
$LASTSAVEDBY
  1
SYSTEM
  9
$REQUIREDVERSIONS
160
                 0
  9
$INSBASE
 10
0.0
 20
0.0
 30
0.0
  9
$EXTMIN
 10
-249.7972032859598
 20
-233.6242469364755
 30
0.0
  9
$EXTMAX
 10
249.7971399999999
 20
125.69167325091
 30
0.0
  9
$LIMMIN
 10
0.0
 20
0.0
  9
$LIMMAX
 10
12.0
 20
9.0
  9
$ORTHOMODE
 70
     0
  9
$REGENMODE
 70
     1
  9
$FILLMODE
 70
     1
  9
$QTEXTMODE
 70
     0
  9
$MIRRTEXT
 70
     1
  9
$LTSCALE
 40
1.0
  9
$ATTMODE
 70
     1
  9
$TEXTSIZE
 40
0.2
  9
$TRACEWID
 40
0.05
  9
$TEXTSTYLE
  7
Standard
  9
$CLAYER
  8
0
  9
$CELTYPE
  6
ByLayer
  9
$CECOLOR
 62
   256
  9
$CELTSCALE
 40
1.0
  9
$DISPSILH
 70
     0
  9
$DIMSCALE
 40
1.0
  9
$DIMASZ
 40
0.18
  9
$DIMEXO
 40
0.0625
  9
$DIMDLI
 40
0.38
  9
$DIMRND
 40
0.0
  9
$DIMDLE
 40
0.0
  9
$DIMEXE
 40
0.18
  9
$DIMTP
 40
0.0
  9
$DIMTM
 40
0.0
  9
$DIMTXT
 40
0.18
  9
$DIMCEN
 40
0.09
  9
$DIMTSZ
 40
0.0
  9
$DIMTOL
 70
     0
  9
$DIMLIM
 70
     0
  9
$DIMTIH
 70
     1
  9
$DIMTOH
 70
     1
  9
$DIMSE1
 70
     0
  9
$DIMSE2
 70
     0
  9
$DIMTAD
 70
     0
  9
$DIMZIN
 70
     0
  9
$DIMBLK
  1

  9
$DIMASO
 70
     1
  9
$DIMSHO
 70
     1
  9
$DIMPOST
  1

  9
$DIMAPOST
  1

  9
$DIMALT
 70
     0
  9
$DIMALTD
 70
     2
  9
$DIMALTF
 40
25.4
  9
$DIMLFAC
 40
1.0
  9
$DIMTOFL
 70
     0
  9
$DIMTVP
 40
0.0
  9
$DIMTIX
 70
     0
  9
$DIMSOXD
 70
     0
  9
$DIMSAH
 70
     0
  9
$DIMBLK1
  1

  9
$DIMBLK2
  1

  9
$DIMSTYLE
  2
Standard
  9
$DIMCLRD
 70
     0
  9
$DIMCLRE
 70
     0
  9
$DIMCLRT
 70
     0
  9
$DIMTFAC
 40
1.0
  9
$DIMGAP
 40
0.09
  9
$DIMJUST
 70
     0
  9
$DIMSD1
 70
     0
  9
$DIMSD2
 70
     0
  9
$DIMTOLJ
 70
     1
  9
$DIMTZIN
 70
     0
  9
$DIMALTZ
 70
     0
  9
$DIMALTTZ
 70
     0
  9
$DIMUPT
 70
     0
  9
$DIMDEC
 70
     4
  9
$DIMTDEC
 70
     4
  9
$DIMALTU
 70
     2
  9
$DIMALTTD
 70
     2
  9
$DIMTXSTY
  7
Standard
  9
$DIMAUNIT
 70
     0
  9
$DIMADEC
 70
     0
  9
$DIMALTRND
 40
0.0
  9
$DIMAZIN
 70
     0
  9
$DIMDSEP
 70
    46
  9
$DIMATFIT
 70
     3
  9
$DIMFRAC
 70
     0
  9
$DIMLDRBLK
  1

  9
$DIMLUNIT
 70
     2
  9
$DIMLWD
 70
    -2
  9
$DIMLWE
 70
    -2
  9
$DIMTMOVE
 70
     0
  9
$DIMFXL
 40
1.0
  9
$DIMFXLON
 70
     0
  9
$DIMJOGANG
 40
0.78539816339745
  9
$DIMTFILL
 70
     0
  9
$DIMTFILLCLR
 70
     0
  9
$DIMARCSYM
 70
     0
  9
$DIMLTYPE
  6

  9
$DIMLTEX1
  6

  9
$DIMLTEX2
  6

  9
$DIMTXTDIRECTION
 70
     0
  9
$LUNITS
 70
     2
  9
$LUPREC
 70
     4
  9
$SKETCHINC
 40
0.1
  9
$FILLETRAD
 40
0.0
  9
$AUNITS
 70
     0
  9
$AUPREC
 70
     0
  9
$MENU
  1
.
  9
$ELEVATION
 40
0.0
  9
$PELEVATION
 40
0.0
  9
$THICKNESS
 40
0.0
  9
$LIMCHECK
 70
     0
  9
$CHAMFERA
 40
0.0
  9
$CHAMFERB
 40
0.0
  9
$CHAMFERC
 40
0.0
  9
$CHAMFERD
 40
0.0
  9
$SKPOLY
 70
     0
  9
$TDCREATE
 40
2460480.335291215
  9
$TDUCREATE
 40
2460480.251957882
  9
$TDUPDATE
 40
2460480.335291285
  9
$TDUUPDATE
 40
2460480.251957952
  9
$TDINDWG
 40
0.0000000116
  9
$TDUSRTIMER
 40
0.0000000116
  9
$USRTIMER
 70
     1
  9
$ANGBASE
 50
0.0
  9
$ANGDIR
 70
     0
  9
$PDMODE
 70
     0
  9
$PDSIZE
 40
0.0
  9
$PLINEWID
 40
0.0
  9
$SPLFRAME
 70
     0
  9
$SPLINETYPE
 70
     6
  9
$SPLINESEGS
 70
     8
  9
$HANDSEED
  5
1D2
  9
$SURFTAB1
 70
     6
  9
$SURFTAB2
 70
     6
  9
$SURFTYPE
 70
     6
  9
$SURFU
 70
     6
  9
$SURFV
 70
     6
  9
$UCSBASE
  2

  9
$UCSNAME
  2

  9
$UCSORG
 10
0.0
 20
0.0
 30
0.0
  9
$UCSXDIR
 10
1.0
 20
0.0
 30
0.0
  9
$UCSYDIR
 10
0.0
 20
1.0
 30
0.0
  9
$UCSORTHOREF
  2

  9
$UCSORTHOVIEW
 70
     0
  9
$UCSORGTOP
 10
0.0
 20
0.0
 30
0.0
  9
$UCSORGBOTTOM
 10
0.0
 20
0.0
 30
0.0
  9
$UCSORGLEFT
 10
0.0
 20
0.0
 30
0.0
  9
$UCSORGRIGHT
 10
0.0
 20
0.0
 30
0.0
  9
$UCSORGFRONT
 10
0.0
 20
0.0
 30
0.0
  9
$UCSORGBACK
 10
0.0
 20
0.0
 30
0.0
  9
$PUCSBASE
  2

  9
$PUCSNAME
  2

  9
$PUCSORG
 10
0.0
 20
0.0
 30
0.0
  9
$PUCSXDIR
 10
1.0
 20
0.0
 30
0.0
  9
$PUCSYDIR
 10
0.0
 20
1.0
 30
0.0
  9
$PUCSORTHOREF
  2

  9
$PUCSORTHOVIEW
 70
     0
  9
$PUCSORGTOP
 10
0.0
 20
0.0
 30
0.0
  9
$PUCSORGBOTTOM
 10
0.0
 20
0.0
 30
0.0
  9
$PUCSORGLEFT
 10
0.0
 20
0.0
 30
0.0
  9
$PUCSORGRIGHT
 10
0.0
 20
0.0
 30
0.0
  9
$PUCSORGFRONT
 10
0.0
 20
0.0
 30
0.0
  9
$PUCSORGBACK
 10
0.0
 20
0.0
 30
0.0
  9
$USERI1
 70
     0
  9
$USERI2
 70
     0
  9
$USERI3
 70
     0
  9
$USERI4
 70
     0
  9
$USERI5
 70
     0
  9
$USERR1
 40
20.7
  9
$USERR2
 40
0.0
  9
$USERR3
 40
0.0
  9
$USERR4
 40
0.0
  9
$USERR5
 40
0.0
  9
$WORLDVIEW
 70
     1
  9
$SHADEDGE
 70
     3
  9
$SHADEDIF
 70
    70
  9
$TILEMODE
 70
     1
  9
$MAXACTVP
 70
    64
  9
$PINSBASE
 10
0.0
 20
0.0
 30
0.0
  9
$PLIMCHECK
 70
     0
  9
$PEXTMIN
 10
1.00000000000000E+20
 20
1.00000000000000E+20
 30
1.00000000000000E+20
  9
$PEXTMAX
 10
-1.00000000000000E+20
 20
-1.00000000000000E+20
 30
-1.00000000000000E+20
  9
$PLIMMIN
 10
0.0
 20
0.0
  9
$PLIMMAX
 10
12.0
 20
9.0
  9
$UNITMODE
 70
     0
  9
$VISRETAIN
 70
     1
  9
$PLINEGEN
 70
     0
  9
$PSLTSCALE
 70
     1
  9
$TREEDEPTH
 70
  3020
  9
$CMLSTYLE
  2
Standard
  9
$CMLJUST
 70
     0
  9
$CMLSCALE
 40
1.0
  9
$PROXYGRAPHICS
 70
     1
  9
$MEASUREMENT
 70
     1
  9
$CELWEIGHT
370
    -1
  9
$ENDCAPS
280
     0
  9
$JOINSTYLE
280
     0
  9
$LWDISPLAY
290
     0
  9
$INSUNITS
 70
     4
  9
$HYPERLINKBASE
  1

  9
$STYLESHEET
  1

  9
$XEDIT
290
     1
  9
$CEPSNTYPE
380
     0
  9
$PSTYLEMODE
290
     1
  9
$FINGERPRINTGUID
  2
{a0c6118a-cb1e-4fc8-bf4c-087d24a28128}
  9
$VERSIONGUID
  2
{FAEB1C32-E019-11D5-929B-00C0DF256EC4}
  9
$EXTNAMES
290
     1
  9
$PSVPSCALE
 40
0.0
  9
$OLESTARTUP
290
     0
  9
$SORTENTS
280
   127
  9
$INDEXCTL
280
     0
  9
$HIDETEXT
280
     1
  9
$XCLIPFRAME
280
     2
  9
$HALOGAP
280
     0
  9
$OBSCOLOR
 70
   257
  9
$OBSLTYPE
280
     0
  9
$INTERSECTIONDISPLAY
280
     0
  9
$INTERSECTIONCOLOR
 70
   257
  9
$DIMASSOC
280
     2
  9
$PROJECTNAME
  1

  9
$CAMERADISPLAY
290
     0
  9
$LENSLENGTH
 40
50.0
  9
$CAMERAHEIGHT
 40
0.0
  9
$STEPSPERSEC
 40
2.0
  9
$STEPSIZE
 40
6.0
  9
$3DDWFPREC
 40
2.0
  9
$PSOLWIDTH
 40
0.25
  9
$PSOLHEIGHT
 40
4.0
  9
$LOFTANG1
 40
1.5707963267949
  9
$LOFTANG2
 40
1.5707963267949
  9
$LOFTMAG1
 40
0.0
  9
$LOFTMAG2
 40
0.0
  9
$LOFTPARAM
 70
     7
  9
$LOFTNORMALS
280
     1
  9
$LATITUDE
 40
37.795
  9
$LONGITUDE
 40
-122.394
  9
$NORTHDIRECTION
 40
0.0
  9
$TIMEZONE
 70
 -8000
  9
$LIGHTGLYPHDISPLAY
280
     1
  9
$TILEMODELIGHTSYNCH
280
     1
  9
$CMATERIAL
347
44
  9
$SOLIDHIST
280
     0
  9
$SHOWHIST
280
     1
  9
$DWFFRAME
280
     2
  9
$DGNFRAME
280
     2
  9
$REALWORLDSCALE
290
     1
  9
$INTERFERECOLOR
 62
   256
  9
$CSHADOW
280
     0
  9
$SHADOWPLANELOCATION
 40
0.0
  0
ENDSEC
  0
SECTION
  2
CLASSES
  0
CLASS
  1
ACDBDICTIONARYWDFLT
  2
AcDbDictionaryWithDefault
  3
ObjectDBX Classes
 90
        0
 91
        3
280
     0
281
     0
  0
CLASS
  1
VISUALSTYLE
  2
AcDbVisualStyle
  3
ObjectDBX Classes
 90
     4095
 91
        3
280
     0
281
     0
  0
CLASS
  1
MATERIAL
  2
AcDbMaterial
  3
ObjectDBX Classes
 90
     1153
 91
        3
280
     0
281
     0
  0
CLASS
  1
SCALE
  2
AcDbScale
  3
ObjectDBX Classes
 90
     1153
 91
        3
280
     0
281
     0
  0
CLASS
  1
TABLESTYLE
  2
AcDbTableStyle
  3
ObjectDBX Classes
 90
     4095
 91
        3
280
     0
281
     0
  0
CLASS
  1
MLEADERSTYLE
  2
AcDbMLeaderStyle
  3
ACDB_MLEADERSTYLE_CLASS
 90
     4095
 91
        3
280
     0
281
     0
  0
CLASS
  1
SUN
  2
AcDbSun
  3
SCENEOE
 90
     1153
 91
        3
280
     0
281
     0
  0
CLASS
  1
DICTIONARYVAR
  2
AcDbDictionaryVar
  3
ObjectDBX Classes
 90
        0
 91
        3
280
     0
281
     0
  0
CLASS
  1
CELLSTYLEMAP
  2
AcDbCellStyleMap
  3
ObjectDBX Classes
 90
     1152
 91
        3
280
     0
281
     0
  0
ENDSEC
  0
SECTION
  2
TABLES
  0
TABLE
  2
VPORT
  5
8
330
0
100
AcDbSymbolTable
 70
     1
  0
VPORT
  5
29
330
8
100
AcDbSymbolTableRecord
100
AcDbViewportTableRecord
  2
*Active
 70
     0
 10
0.0
 20
0.0
 11
1.0
 21
1.0
 12
-0.00003164297995
 22
-53.96628684278274
 13
0.0
 23
0.0
 14
0.5
 24
0.5
 15
0.5
 25
0.5
 16
0.0
 26
0.0
 36
1.0
 17
0.0
 27
0.0
 37
0.0
 40
395.247512206124
 41
1.60267857142857
 42
50.0
 43
0.0
 44
0.0
 50
0.0
 51
0.0
 71
     0
 72
   100
 73
     1
 74
     3
 75
     0
 76
     0
 77
     0
 78
     0
281
     0
 65
     1
110
0.0
120
0.0
130
0.0
111
1.0
121
0.0
131
0.0
112
0.0
122
1.0
132
0.0
 79
     0
146
0.0
348
2F
 60
     3
 61
     5
292
     1
282
     1
141
0.0
142
0.0
 63
   250
361
5D
  0
ENDTAB
  0
TABLE
  2
LTYPE
  5
5
330
0
100
AcDbSymbolTable
 70
     9
  0
LTYPE
  5
14
330
5
100
AcDbSymbolTableRecord
100
AcDbLinetypeTableRecord
  2
ByBlock
 70
     0
  3

 72
    65
 73
     0
 40
0.0
  0
LTYPE
  5
15
330
5
100
AcDbSymbolTableRecord
100
AcDbLinetypeTableRecord
  2
ByLayer
 70
     0
  3

 72
    65
 73
     0
 40
0.0
  0
LTYPE
  5
16
330
5
100
AcDbSymbolTableRecord
100
AcDbLinetypeTableRecord
  2
Continuous
 70
     0
  3
Solid line
 72
    65
 73
     0
 40
0.0
  0
LTYPE
  5
5E
330
5
100
AcDbSymbolTableRecord
100
AcDbLinetypeTableRecord
  2
DASHED
 70
     0
  3
Dashed
 72
    65
 73
     2
 40
15.0
 49
7.0
 74
     0
 49
-8.0
 74
     0
  0
LTYPE
  5
5F
330
5
100
AcDbSymbolTableRecord
100
AcDbLinetypeTableRecord
  2
DOTTED
 70
     0
  3
Dotted
 72
    65
 73
     2
 40
1.0
 49
0.0
 74
     0
 49
-1.0
 74
     0
  0
LTYPE
  5
60
330
5
100
AcDbSymbolTableRecord
100
AcDbLinetypeTableRecord
  2
DOT_CENTER
 70
     0
  3
Dot_Center
 72
    65
 73
     4
 40
14.0
 49
12.0
 74
     0
 49
-1.0
 74
     0
 49
0.0
 74
     0
 49
-1.0
 74
     0
  0
LTYPE
  5
61
330
5
100
AcDbSymbolTableRecord
100
AcDbLinetypeTableRecord
  2
LONG_DASHED
 70
     0
  3
Long_Dashed
 72
    65
 73
     2
 40
15.0
 49
10.0
 74
     0
 49
-5.0
 74
     0
  0
LTYPE
  5
62
330
5
100
AcDbSymbolTableRecord
100
AcDbLinetypeTableRecord
  2
DASH_CENTER
 70
     0
  3
Dash_Center
 72
    65
 73
     4
 40
14.0
 49
11.0
 74
     0
 49
-1.0
 74
     0
 49
1.0
 74
     0
 49
-1.0
 74
     0
  0
LTYPE
  5
63
330
5
100
AcDbSymbolTableRecord
100
AcDbLinetypeTableRecord
  2
PHANTOM
 70
     0
  3
Phantom
 72
    65
 73
     6
 40
13.0
 49
10.0
 74
     0
 49
-1.0
 74
     0
 49
0.0
 74
     0
 49
-1.0
 74
     0
 49
0.0
 74
     0
 49
-1.0
 74
     0
  0
LTYPE
  5
64
330
5
100
AcDbSymbolTableRecord
100
AcDbLinetypeTableRecord
  2
CENTER_DASH_DASH
 70
     0
  3
Center_Dash_Dash
 72
    65
 73
     6
 40
14.0
 49
9.0
 74
     0
 49
-1.0
 74
     0
 49
1.0
 74
     0
 49
-1.0
 74
     0
 49
1.0
 74
     0
 49
-1.0
 74
     0
  0
LTYPE
  5
65
330
5
100
AcDbSymbolTableRecord
100
AcDbLinetypeTableRecord
  2
DASHDOT
 70
     0
  3
DASHDOT
 72
    65
 73
     4
 40
16.0
 49
10.0
 74
     0
 49
-3.0
 74
     0
 49
0.0
 74
     0
 49
-3.0
 74
     0
  0
ENDTAB
  0
TABLE
  2
LAYER
  5
2
330
0
100
AcDbSymbolTable
 70
    11
  0
LAYER
  5
10
330
2
100
AcDbSymbolTableRecord
100
AcDbLayerTableRecord
  2
0
 70
     0
 62
     7
  6
Continuous
370
    -3
390
F
347
46
348
0
  0
LAYER
  5
66
330
2
100
AcDbSymbolTableRecord
100
AcDbLayerTableRecord
  2
1
 70
     0
 62
     7
  6
Continuous
370
    -3
390
F
347
46
348
0
  0
LAYER
  5
67
330
2
100
AcDbSymbolTableRecord
100
AcDbLayerTableRecord
  2
LC-001-002-----0
 70
     0
 62
     7
  6
Continuous
370
    -3
390
F
347
46
348
0
  0
LAYER
  5
68
330
2
100
AcDbSymbolTableRecord
100
AcDbLayerTableRecord
  2
LC-002-002-----0
 70
     0
 62
     7
  6
Continuous
370
    -3
390
F
347
46
348
0
  0
LAYER
  5
69
330
2
100
AcDbSymbolTableRecord
100
AcDbLayerTableRecord
  2
LC-002-002-RND-0
 70
     0
 62
     7
  6
Continuous
370
    -3
390
F
347
46
348
0
  0
LAYER
  5
6A
330
2
100
AcDbSymbolTableRecord
100
AcDbLayerTableRecord
  2
LC-003-001-----0
 70
     0
 62
     7
  6
Continuous
370
    -3
390
F
347
46
348
0
  0
LAYER
  5
6B
330
2
100
AcDbSymbolTableRecord
100
AcDbLayerTableRecord
  2
LC-003-002-----0
 70
     0
 62
     7
  6
Continuous
370
    -3
390
F
347
46
348
0
  0
LAYER
  5
6C
330
2
100
AcDbSymbolTableRecord
100
AcDbLayerTableRecord
  2
LC-004-001-RND-0
 70
     0
 62
     7
  6
Continuous
370
    -3
390
F
347
46
348
0
  0
LAYER
  5
6D
330
2
100
AcDbSymbolTableRecord
100
AcDbLayerTableRecord
  2
LC-005-002-RND-0
 70
     0
 62
     7
  6
Continuous
370
    -3
390
F
347
46
348
0
  0
LAYER
  5
6E
330
2
100
AcDbSymbolTableRecord
100
AcDbLayerTableRecord
  2
LC-008-003-----0
 70
     0
 62
     7
  6
Continuous
370
    -3
390
F
347
46
348
0
  0
LAYER
  5
6F
330
2
100
AcDbSymbolTableRecord
100
AcDbLayerTableRecord
  2
LC-009-002-RND-0
 70
     0
 62
     7
  6
Continuous
370
    -3
390
F
347
46
348
0
  0
ENDTAB
  0
TABLE
  2
STYLE
  5
3
330
0
100
AcDbSymbolTable
 70
     2
  0
STYLE
  5
11
330
3
100
AcDbSymbolTableRecord
100
AcDbTextStyleTableRecord
  2
Standard
 70
     0
 40
0.0
 41
1.0
 50
0.0
 71
     0
 42
0.2
  3
txt
  4

  0
STYLE
  5
18C
330
3
100
AcDbSymbolTableRecord
100
AcDbTextStyleTableRecord
  2
CONVERTER_11
 70
     0
 40
0.0
 41
0.9
 50
0.0
 71
     0
 42
0.2
  3
txt.shx
  4

  0
ENDTAB
  0
TABLE
  2
VIEW
  5
6
330
0
100
AcDbSymbolTable
 70
     0
  0
ENDTAB
  0
TABLE
  2
UCS
  5
7
330
0
100
AcDbSymbolTable
 70
     0
  0
ENDTAB
  0
TABLE
  2
APPID
  5
9
330
0
100
AcDbSymbolTable
 70
     1
  0
APPID
  5
12
330
9
100
AcDbSymbolTableRecord
100
AcDbRegAppTableRecord
  2
ACAD
 70
     0
  0
ENDTAB
  0
TABLE
  2
DIMSTYLE
  5
A
330
0
100
AcDbSymbolTable
 70
     7
100
AcDbDimStyleTable
  0
DIMSTYLE
105
27
330
A
100
AcDbSymbolTableRecord
100
AcDbDimStyleTableRecord
  2
Standard
 70
     0
178
     0
340
11
  0
DIMSTYLE
105
190
102
{ACAD_REACTORS
330
191
102
}
330
A
100
AcDbSymbolTableRecord
100
AcDbDimStyleTableRecord
  2
ME10_DIM_10
 70
     0
 41
10.0
 42
0.0
 44
2.0
 73
     0
 74
     0
 77
     1
 78
     8
140
10.0
147
2.0
172
     1
173
     1
174
     1
175
     1
176
     4
177
     4
271
     2
178
     1
271
     2
340
18C
  0
DIMSTYLE
105
19B
102
{ACAD_REACTORS
330
19C
102
}
330
A
100
AcDbSymbolTableRecord
100
AcDbDimStyleTableRecord
  2
ME10_DIM_11
 70
     0
  3
Ø<>
 41
10.0
 42
0.0
 44
2.0
 73
     0
 74
     0
 77
     1
 78
     8
140
10.0
147
2.0
172
     1
173
     1
174
     1
175
     1
176
     4
177
     4
271
     2
178
     1
271
     2
340
18C
  0
DIMSTYLE
105
1A6
102
{ACAD_REACTORS
330
1A7
102
}
330
A
100
AcDbSymbolTableRecord
100
AcDbDimStyleTableRecord
  2
ME10_DIM_12
 70
     0
  3
<>x500
 41
10.0
 42
0.0
 44
2.0
 73
     0
 74
     0
 77
     1
 78
     8
140
10.0
147
2.0
172
     1
173
     1
174
     1
175
     1
176
     4
177
     4
271
     2
178
     1
271
     2
340
18C
  0
DIMSTYLE
105
1B1
102
{ACAD_REACTORS
330
1B2
102
}
330
A
100
AcDbSymbolTableRecord
100
AcDbDimStyleTableRecord
  2
ME10_DIM_13
 70
     0
 41
10.0
 42
0.0
 44
2.0
 73
     0
 74
     0
 77
     1
 78
     8
140
10.0
147
2.0
172
     1
173
     1
174
     1
175
     1
176
     4
177
     4
271
     2
178
     1
271
     2
340
18C
  0
DIMSTYLE
105
1BC
102
{ACAD_REACTORS
330
1BD
102
}
330
A
100
AcDbSymbolTableRecord
100
AcDbDimStyleTableRecord
  2
ME10_DIM_14
 70
     0
  3
DN<>
 41
10.0
 42
0.0
 44
2.0
 73
     0
 74
     0
 77
     1
 78
     8
140
10.0
147
2.0
172
     1
173
     1
174
     1
175
     1
176
     4
177
     4
271
     2
178
     1
271
     2
340
18C
  0
DIMSTYLE
105
1C7
102
{ACAD_REACTORS
330
1C8
102
}
330
A
100
AcDbSymbolTableRecord
100
AcDbDimStyleTableRecord
  2
ME10_DIM_15
 70
     0
  3
Ø<>
 41
10.0
 42
0.0
 44
2.0
 73
     0
 74
     0
 77
     1
 78
     8
140
10.0
147
2.0
172
     1
173
     1
174
     1
175
     1
176
     4
177
     4
271
     2
178
     1
271
     2
340
18C
  0
ENDTAB
  0
TABLE
  2
BLOCK_RECORD
  5
1
330
0
100
AcDbSymbolTable
 70
    11
  0
BLOCK_RECORD
  5
1F
330
1
100
AcDbSymbolTableRecord
100
AcDbBlockTableRecord
  2
*Model_Space
340
22
 70
     0
280
     1
281
     0
  0
BLOCK_RECORD
  5
1B
330
1
100
AcDbSymbolTableRecord
100
AcDbBlockTableRecord
  2
*Paper_Space
340
1E
 70
     0
280
     1
281
     0
  0
BLOCK_RECORD
  5
23
330
1
100
AcDbSymbolTableRecord
100
AcDbBlockTableRecord
  2
*Paper_Space0
340
26
 70
     0
280
     1
281
     0
  0
BLOCK_RECORD
  5
70
330
1
100
AcDbSymbolTableRecord
100
AcDbBlockTableRecord
  2
Körper
340
0
102
{BLKREFS
331
7B
102
}
 70
     0
280
     1
281
     0
  0
BLOCK_RECORD
  5
73
330
1
100
AcDbSymbolTableRecord
100
AcDbBlockTableRecord
  2
062B_2E_Aufsatzrahmen
340
0
102
{BLKREFS
331
77
102
}
 70
     0
280
     1
281
     0
  0
BLOCK_RECORD
  5
76
330
1
100
AcDbSymbolTableRecord
100
AcDbBlockTableRecord
  2
HL_66_0_Aufsatzrahmen
340
0
102
{BLKREFS
331
7C
102
}
 70
     0
280
     1
281
     0
  0
BLOCK_RECORD
  5
7A
330
1
100
AcDbSymbolTableRecord
100
AcDbBlockTableRecord
  2
HL_62BH_2_DN125_Dachablauf
340
0
102
{BLKREFS
331
7F
102
}
 70
     0
280
     1
281
     0
  0
BLOCK_RECORD
  5
186
330
1
100
AcDbSymbolTableRecord
100
AcDbBlockTableRecord
  2
*D5
340
0
 70
     0
280
     1
281
     0
  0
BLOCK_RECORD
  5
192
330
1
100
AcDbSymbolTableRecord
100
AcDbBlockTableRecord
  2
*D6
340
0
 70
     0
280
     1
281
     0
  0
BLOCK_RECORD
  5
19D
330
1
100
AcDbSymbolTableRecord
100
AcDbBlockTableRecord
  2
*D7
340
0
 70
     0
280
     1
281
     0
  0
BLOCK_RECORD
  5
1A8
330
1
100
AcDbSymbolTableRecord
100
AcDbBlockTableRecord
  2
*D8
340
0
 70
     0
280
     1
281
     0
  0
BLOCK_RECORD
  5
1B3
330
1
100
AcDbSymbolTableRecord
100
AcDbBlockTableRecord
  2
*D9
340
0
 70
     0
280
     1
281
     0
  0
BLOCK_RECORD
  5
1BE
330
1
100
AcDbSymbolTableRecord
100
AcDbBlockTableRecord
  2
*D10
340
0
 70
     0
280
     1
281
     0
  0
ENDTAB
  0
ENDSEC
  0
SECTION
  2
BLOCKS
  0
BLOCK
  5
20
330
1F
100
AcDbEntity
  8
0
100
AcDbBlockBegin
  2
*Model_Space
 70
     0
 10
0.0
 20
0.0
 30
0.0
  3
*Model_Space
  1

  0
ENDBLK
  5
21
330
1F
100
AcDbEntity
  8
0
100
AcDbBlockEnd
  0
BLOCK
  5
1C
330
1B
100
AcDbEntity
 67
     1
  8
0
100
AcDbBlockBegin
  2
*Paper_Space
 70
     0
 10
0.0
 20
0.0
 30
0.0
  3
*Paper_Space
  1

  0
ENDBLK
  5
1D
330
1B
100
AcDbEntity
 67
     1
  8
0
100
AcDbBlockEnd
  0
BLOCK
  5
24
330
23
100
AcDbEntity
  8
0
100
AcDbBlockBegin
  2
*Paper_Space0
 70
     0
 10
0.0
 20
0.0
 30
0.0
  3
*Paper_Space0
  1

  0
ENDBLK
  5
25
330
23
100
AcDbEntity
  8
0
100
AcDbBlockEnd
  0
BLOCK
  5
71
330
70
100
AcDbEntity
  8
0
100
AcDbBlockBegin
  2
Körper
 70
     0
 10
0.00004449999994
 20
-42.42033239921389
 30
0.0
  3
Körper
  1

  0
POINT
  5
80
330
70
100
AcDbEntity
  8
LC-008-003-----0
 62
     7
100
AcDbPoint
 10
-249.797051
 20
4.69999999999999
 30
0.0
  0
POINT
  5
81
330
70
100
AcDbEntity
  8
LC-008-003-----0
 62
     7
100
AcDbPoint
 10
249.7971399999999
 20
4.69999999999999
 30
0.0
  0
POINT
  5
82
330
70
100
AcDbEntity
  8
LC-008-003-----0
 62
     7
100
AcDbPoint
 10
-150.751659
 20
-3.00045699999998
 30
0.0
  0
POINT
  5
83
330
70
100
AcDbEntity
  8
LC-008-003-----0
 62
     7
100
AcDbPoint
 10
150.7518269999998
 20
-3.00045699999998
 30
0.0
  0
POINT
  5
84
330
70
100
AcDbEntity
  8
LC-008-003-----0
 62
     7
100
AcDbPoint
 10
-94.771301
 20
-12.35769199999999
 30
0.0
  0
POINT
  5
85
330
70
100
AcDbEntity
  8
LC-008-003-----0
 62
     7
100
AcDbPoint
 10
94.77146999999991
 20
-12.35769199999999
 30
0.0
  0
POINT
  5
86
330
70
100
AcDbEntity
  8
LC-008-003-----0
 62
     7
100
AcDbPoint
 10
-150.751659
 20
-3.00045699999998
 30
0.0
  0
POINT
  5
87
330
70
100
AcDbEntity
  8
LC-008-003-----0
 62
     7
100
AcDbPoint
 10
-80.24985639872348
 20
-97.0266037984278
 30
0.0
  0
POINT
  5
88
330
70
100
AcDbEntity
  8
LC-008-003-----0
 62
     7
100
AcDbPoint
 10
80.25014360127653
 20
-97.0266037984278
 30
0.0
  0
POINT
  5
89
330
70
100
AcDbEntity
  8
LC-008-003-----0
 62
     7
100
AcDbPoint
 10
-72.50016039872348
 20
-107.0266037984278
 30
0.0
  0
POINT
  5
8A
330
70
100
AcDbEntity
  8
LC-008-003-----0
 62
     7
100
AcDbPoint
 10
-62.49985739872349
 20
-158.5266037984278
 30
0.0
  0
POINT
  5
8B
330
70
100
AcDbEntity
  8
LC-008-003-----0
 62
     7
100
AcDbPoint
 10
62.50014260127651
 20
-158.5266037984278
 30
0.0
  0
POINT
  5
8C
330
70
100
AcDbEntity
  8
LC-008-003-----0
 62
     7
100
AcDbPoint
 10
-72.50016039872348
 20
-107.0266037984278
 30
0.0
  0
POINT
  5
8D
330
70
100
AcDbEntity
  8
LC-008-003-----0
 62
     7
100
AcDbPoint
 10
-61.29408639872348
 20
-163.0266037984278
 30
0.0
  0
LINE
  5
8E
330
70
100
AcDbEntity
  8
LC-001-002-----0
  6
Continuous
 62
     7
100
AcDbLine
 10
-68.19907839872349
 20
-107.0266037984278
 30
0.0
 11
70.74273660127653
 21
-107.0266037984278
 31
0.0
  0
LINE
  5
8F
330
70
100
AcDbEntity
  8
1
  6
Continuous
 62
     7
100
AcDbLine
 10
-68.19907839872349
 20
-109.0266037984278
 30
0.0
 11
-68.19907839872349
 21
-107.0266037984278
 31
0.0
  0
LINE
  5
90
330
70
100
AcDbEntity
  8
LC-002-002-----0
  6
Continuous
 62
     7
100
AcDbLine
 10
-150.751659
 20
-3.00045699999998
 30
0.0
 11
-111.1963450000001
 21
-3.690898
 31
0.0
  0
LINE
  5
91
330
70
100
AcDbEntity
  8
LC-002-002-----0
  6
Continuous
 62
     7
100
AcDbLine
 10
-111.1963450000001
 20
-3.690898
 30
0.0
 11
-109.48972
 21
-5.39752299999998
 31
0.0
  0
LINE
  5
92
330
70
100
AcDbEntity
  8
LC-003-001-----0
  6
Continuous
 62
     7
100
AcDbLine
 10
-109.48972
 20
-5.39752299999998
 30
0.0
 11
-96.38082800000007
 21
-6.31418500000001
 31
0.0
  0
LINE
  5
93
330
70
100
AcDbEntity
  8
LC-002-002-----0
  6
Continuous
 62
     7
100
AcDbLine
 10
-95.0136500000001
 20
-7.73339699999997
 30
0.0
 11
-94.771301
 21
-12.35769199999999
 31
0.0
  0
LINE
  5
94
330
70
100
AcDbEntity
  8
LC-002-002-----0
  6
Continuous
 62
     7
100
AcDbLine
 10
-150.751659
 20
0.0
 30
0.0
 11
-150.751659
 21
-3.00045699999998
 31
0.0
  0
LINE
  5
95
330
70
100
AcDbEntity
  8
LC-002-002-----0
  6
Continuous
 62
     7
100
AcDbLine
 10
-91.77541300000007
 20
-15.20068399999997
 30
0.0
 11
-91.49920900000006
 21
-15.20068399999997
 31
0.0
  0
LINE
  5
96
330
70
100
AcDbEntity
  8
LC-002-002-----0
  6
Continuous
 62
     7
100
AcDbLine
 10
150.7518269999998
 20
-3.00045699999998
 30
0.0
 11
111.196514
 21
-3.690898
 31
0.0
  0
LINE
  5
97
330
70
100
AcDbEntity
  8
LC-002-002-----0
  6
Continuous
 62
     7
100
AcDbLine
 10
111.196514
 20
-3.690898
 30
0.0
 11
109.489889
 21
-5.39752299999998
 31
0.0
  0
LINE
  5
98
330
70
100
AcDbEntity
  8
LC-003-001-----0
  6
Continuous
 62
     7
100
AcDbLine
 10
109.489889
 20
-5.39752299999998
 30
0.0
 11
96.3809960000001
 21
-6.31418500000001
 31
0.0
  0
LINE
  5
99
330
70
100
AcDbEntity
  8
LC-002-002-----0
  6
Continuous
 62
     7
100
AcDbLine
 10
95.01381900000001
 20
-7.73339699999997
 30
0.0
 11
94.77146999999991
 21
-12.35769199999999
 31
0.0
  0
LINE
  5
9A
330
70
100
AcDbEntity
  8
LC-002-002-----0
  6
Continuous
 62
     7
100
AcDbLine
 10
150.7518269999998
 20
0.0
 30
0.0
 11
150.7518269999998
 21
-3.00045699999998
 31
0.0
  0
LINE
  5
9B
330
70
100
AcDbEntity
  8
LC-002-002-----0
  6
Continuous
 62
     7
100
AcDbLine
 10
91.7755810000001
 20
-15.20068399999997
 30
0.0
 11
91.49937699999987
 21
-15.20068399999997
 31
0.0
  0
LINE
  5
9C
330
70
100
AcDbEntity
  8
LC-002-002-----0
  6
Continuous
 62
     7
100
AcDbLine
 10
89.49937699999987
 20
-25.10821800000002
 30
0.0
 11
89.49937699999987
 21
-17.20068399999997
 31
0.0
  0
LINE
  5
9D
330
70
100
AcDbEntity
  8
LC-002-002-----0
  6
Continuous
 62
     7
100
AcDbLine
 10
0.0
 20
4.69999999999999
 30
0.0
 11
-249.797051
 21
4.69999999999999
 31
0.0
  0
LINE
  5
9E
330
70
100
AcDbEntity
  8
LC-002-002-----0
  6
Continuous
 62
     7
100
AcDbLine
 10
-150.669672
 20
0.0
 30
0.0
 11
-249.797051
 21
0.0
 31
0.0
  0
LINE
  5
9F
330
70
100
AcDbEntity
  8
LC-002-002-----0
  6
Continuous
 62
     7
100
AcDbLine
 10
-249.797051
 20
4.69999999999999
 30
0.0
 11
-249.797051
 21
0.0
 31
0.0
  0
LINE
  5
A0
330
70
100
AcDbEntity
  8
LC-002-002-----0
  6
Continuous
 62
     7
100
AcDbLine
 10
0.0
 20
4.69999999999999
 30
0.0
 11
249.7971399999999
 21
4.69999999999999
 31
0.0
  0
LINE
  5
A1
330
70
100
AcDbEntity
  8
LC-002-002-----0
  6
Continuous
 62
     7
100
AcDbLine
 10
249.7971399999999
 20
4.69999999999999
 30
0.0
 11
249.7971399999999
 21
0.0
 31
0.0
  0
LINE
  5
A2
330
70
100
AcDbEntity
  8
LC-002-002-----0
  6
Continuous
 62
     7
100
AcDbLine
 10
-150.669672
 20
0.0
 30
0.0
 11
249.7971399999999
 21
0.0
 31
0.0
  0
LINE
  5
A3
330
70
100
AcDbEntity
  8
LC-002-002-----0
  6
Continuous
 62
     7
100
AcDbLine
 10
85.04231200000004
 20
4.69999999999999
 30
0.0
 11
85.58556500000009
 21
5.01043200000004
 31
0.0
  0
LINE
  5
A4
330
70
100
AcDbEntity
  8
LC-002-002-----0
  6
Continuous
 62
     7
100
AcDbLine
 10
-85.04272100000003
 20
4.69999999999999
 30
0.0
 11
-85.58556700000008
 21
5.01019700000001
 31
0.0
  0
LINE
  5
A5
330
70
100
AcDbEntity
  8
LC-002-002-----0
  6
DASHDOT
 62
     2
100
AcDbLine
 10
-0.00010100000009
 20
78.18593900000002
 30
0.0
 11
0.00022799999988
 21
-161.6006839999999
 31
0.0
  0
LINE
  5
A6
330
70
100
AcDbEntity
  8
LC-002-002-----0
  6
Continuous
 62
     7
100
AcDbLine
 10
150.7518269999998
 20
-3.00045699999998
 30
0.0
 11
-150.751659
 21
-3.00087099999996
 31
0.0
  0
LINE
  5
A7
330
70
100
AcDbEntity
  8
LC-002-002-----0
  6
Continuous
 62
     7
100
AcDbLine
 10
111.196514
 20
-3.690898
 30
0.0
 11
-111.1963450000001
 21
-3.69120299999997
 31
0.0
  0
LINE
  5
A8
330
70
100
AcDbEntity
  8
LC-002-002-----0
  6
Continuous
 62
     7
100
AcDbLine
 10
109.489889
 20
-5.39752299999998
 30
0.0
 11
-109.48972
 21
-5.39782299999996
 31
0.0
  0
LINE
  5
A9
330
70
100
AcDbEntity
  8
LC-002-002-----0
  6
Continuous
 62
     7
100
AcDbLine
 10
96.3809960000001
 20
-6.31418500000001
 30
0.0
 11
-96.38082800000007
 21
-6.31444999999997
 31
0.0
  0
LINE
  5
AA
330
70
100
AcDbEntity
  8
LC-002-002-----0
  6
Continuous
 62
     7
100
AcDbLine
 10
91.49937699999987
 20
-15.20068399999997
 30
0.0
 11
-91.49920900000006
 21
-15.20093499999996
 31
0.0
  0
LINE
  5
AB
330
70
100
AcDbEntity
  8
LC-002-002-----0
  6
Continuous
 62
     7
100
AcDbLine
 10
89.49937699999987
 20
-25.10821800000002
 30
0.0
 11
-89.49920900000006
 21
-25.10846299999997
 31
0.0
  0
LINE
  5
AC
330
70
100
AcDbEntity
  8
LC-001-002-----0
  6
Continuous
 62
     7
100
AcDbLine
 10
-82.63780039872348
 20
-38.28694179842785
 30
0.0
 11
-81.28401739872349
 21
-38.72924179842778
 31
0.0
  0
LINE
  5
AD
330
70
100
AcDbEntity
  8
LC-001-002-----0
  6
Continuous
 62
     7
100
AcDbLine
 10
-88.99311939872348
 20
-28.72599279842791
 30
0.0
 11
-85.57897439872349
 21
-35.72602779842794
 31
0.0
  0
LINE
  5
AE
330
70
100
AcDbEntity
  8
LC-008-003-----0
  6
Continuous
 62
     7
100
AcDbLine
 10
89.4994366012765
 20
-27.68847879842787
 30
0.0
 11
88.99340760127649
 21
-28.72599279842791
 31
0.0
  0
LINE
  5
AF
330
70
100
AcDbEntity
  8
LC-001-002-----0
  6
Continuous
 62
     7
100
AcDbLine
 10
82.63808860127654
 20
-38.28694179842785
 30
0.0
 11
81.28430460127652
 21
-38.72924179842778
 31
0.0
  0
LINE
  5
B0
330
70
100
AcDbEntity
  8
LC-001-002-----0
  6
Continuous
 62
     7
100
AcDbLine
 10
88.99340760127649
 20
-28.72599279842791
 30
0.0
 11
85.57926260127653
 21
-35.72602779842794
 31
0.0
  0
LINE
  5
B1
330
70
100
AcDbEntity
  8
LC-001-002-----0
  6
Continuous
 62
     7
100
AcDbLine
 10
-81.28401739872349
 20
-38.72924179842778
 30
0.0
 11
81.28430460127652
 21
-38.72924179842778
 31
0.0
  0
LINE
  5
B2
330
70
100
AcDbEntity
  8
LC-001-002-----0
  6
DASHDOT
 62
     2
100
AcDbLine
 10
-0.0000013987235
 20
76.76001920157216
 30
0.0
 11
0.00032760127652
 21
-163.0266037984278
 31
0.0
  0
LINE
  5
B3
330
70
100
AcDbEntity
  8
LC-001-002-----0
  6
Continuous
 62
     7
100
AcDbLine
 10
-80.24985639872348
 20
-97.0266037984278
 30
0.0
 11
-77.50016039872348
 21
-97.0266037984278
 31
0.0
  0
LINE
  5
B4
330
70
100
AcDbEntity
  8
LC-001-002-----0
  6
Continuous
 62
     7
100
AcDbLine
 10
-80.24985639872348
 20
-40.1550727984278
 30
0.0
 11
-80.24985639872348
 21
-97.0266037984278
 31
0.0
  0
LINE
  5
B5
330
70
100
AcDbEntity
  8
LC-001-002-----0
  6
Continuous
 62
     7
100
AcDbLine
 10
80.25014360127653
 20
-97.0266037984278
 30
0.0
 11
77.4998396012765
 21
-97.0266037984278
 31
0.0
  0
LINE
  5
B6
330
70
100
AcDbEntity
  8
LC-001-002-----0
  6
Continuous
 62
     7
100
AcDbLine
 10
80.25014360127653
 20
-40.1550727984278
 30
0.0
 11
80.25014360127653
 21
-97.0266037984278
 31
0.0
  0
LINE
  5
B7
330
70
100
AcDbEntity
  8
LC-001-002-----0
  6
Continuous
 62
     7
100
AcDbLine
 10
-62.49985739872349
 20
-109.0266037984278
 30
0.0
 11
-62.49985739872349
 21
-158.5266037984278
 31
0.0
  0
LINE
  5
B8
330
70
100
AcDbEntity
  8
LC-001-002-----0
  6
Continuous
 62
     7
100
AcDbLine
 10
-62.49985739872349
 20
-158.5266037984278
 30
0.0
 11
-61.29408639872348
 21
-163.0266037984278
 31
0.0
  0
LINE
  5
B9
330
70
100
AcDbEntity
  8
LC-001-002-----0
  6
Continuous
 62
     7
100
AcDbLine
 10
-59.49985739872349
 20
-163.0266037984278
 30
0.0
 11
-61.29408639872348
 21
-163.0266037984278
 31
0.0
  0
LINE
  5
BA
330
70
100
AcDbEntity
  8
LC-001-002-----0
  6
Continuous
 62
     7
100
AcDbLine
 10
61.29437060127651
 20
-163.0266037984278
 30
0.0
 11
-59.49985739872349
 21
-163.0266037984278
 31
0.0
  0
LINE
  5
BB
330
70
100
AcDbEntity
  8
LC-001-002-----0
  6
Continuous
 62
     7
100
AcDbLine
 10
62.50014260127651
 20
-158.5266037984278
 30
0.0
 11
61.29437060127651
 21
-163.0266037984278
 31
0.0
  0
LINE
  5
BC
330
70
100
AcDbEntity
  8
LC-001-002-----0
  6
Continuous
 62
     7
100
AcDbLine
 10
62.50014260127651
 20
-109.0266037984278
 30
0.0
 11
62.50014260127651
 21
-158.5266037984278
 31
0.0
  0
LINE
  5
BD
330
70
100
AcDbEntity
  8
LC-001-002-----0
  6
Continuous
 62
     7
100
AcDbLine
 10
80.25014360127653
 20
-97.0266037984278
 30
0.0
 11
0.00023660127652
 21
-97.0266037984278
 31
0.0
  0
LINE
  5
BE
330
70
100
AcDbEntity
  8
LC-001-002-----0
  6
Continuous
 62
     7
100
AcDbLine
 10
80.25014360127653
 20
-99.0266037984278
 30
0.0
 11
80.25014360127653
 21
-97.0266037984278
 31
0.0
  0
LINE
  5
BF
330
70
100
AcDbEntity
  8
LC-001-002-----0
  6
Continuous
 62
     7
100
AcDbLine
 10
-80.24985639872348
 20
-99.0266037984278
 30
0.0
 11
-80.24985639872348
 21
-97.0266037984278
 31
0.0
  0
LINE
  5
C0
330
70
100
AcDbEntity
  8
LC-001-002-----0
  6
Continuous
 62
     7
100
AcDbLine
 10
-80.24985639872348
 20
-97.0266037984278
 30
0.0
 11
0.00023660127652
 21
-97.0266037984278
 31
0.0
  0
LINE
  5
C1
330
70
100
AcDbEntity
  8
LC-001-002-----0
  6
Continuous
 62
     7
100
AcDbLine
 10
72.25014360127653
 20
-107.0266037984278
 30
0.0
 11
70.74273660127653
 21
-107.0266037984278
 31
0.0
  0
LINE
  5
C2
330
70
100
AcDbEntity
  8
LC-001-002-----0
  6
Continuous
 62
     7
100
AcDbLine
 10
70.74273660127653
 20
-107.0266037984278
 30
0.0
 11
70.74273660127653
 21
-109.0266037984278
 31
0.0
  0
LINE
  5
C3
330
70
100
AcDbEntity
  8
LC-001-002-----0
  6
Continuous
 62
     7
100
AcDbLine
 10
70.74273660127653
 20
-109.0266037984278
 30
0.0
 11
0.00025260127651
 21
-109.0266037984278
 31
0.0
  0
LINE
  5
C4
330
70
100
AcDbEntity
  8
LC-001-002-----0
  6
Continuous
 62
     7
100
AcDbLine
 10
0.00025260127651
 20
-109.0266037984278
 30
0.0
 11
-68.19907839872349
 21
-109.0266037984278
 31
0.0
  0
LINE
  5
C5
330
70
100
AcDbEntity
  8
LC-001-002-----0
  6
Continuous
 62
     7
100
AcDbLine
 10
-72.24985639872348
 20
-107.0266037984278
 30
0.0
 11
-68.19907839872349
 21
-107.0266037984278
 31
0.0
  0
LINE
  5
C6
330
70
100
AcDbEntity
  8
LC-001-002-----0
  6
Continuous
 62
     7
100
AcDbLine
 10
-62.49985739872349
 20
-158.5266037984278
 30
0.0
 11
62.50014260127651
 21
-158.5266037984278
 31
0.0
  0
LINE
  5
C7
330
70
100
AcDbEntity
  8
1
  6
Continuous
 62
     7
100
AcDbLine
 10
-89.49920900000006
 20
-17.20068399999997
 30
0.0
 11
-89.49920900000006
 21
-26.53413779842788
 31
0.0
  0
LINE
  5
C8
330
70
100
AcDbEntity
  8
1
  6
Continuous
 62
     7
100
AcDbLine
 10
89.4994366012765
 20
-27.68847879842787
 30
0.0
 11
-89.36407456317534
 21
-27.68847879842787
 31
0.0
  0
LINE
  5
C9
330
70
100
AcDbEntity
  8
1
  6
Continuous
 62
     7
100
AcDbLine
 10
89.4994366012765
 20
-27.68847879842787
 30
0.0
 11
89.4994366012765
 21
-25.10821799991845
 31
0.0
  0
ARC
  5
CA
330
70
100
AcDbEntity
  8
LC-004-001-RND-0
  6
Continuous
 62
     7
100
AcDbCircle
 10
-96.48546299999998
 20
-7.81053099999997
 30
0.0
 40
1.500000000000058
100
AcDbArc
 50
2.99999999998374
 51
86.00000299998644
  0
ARC
  5
CB
330
70
100
AcDbEntity
  8
LC-005-002-RND-0
  6
Continuous
 62
     7
100
AcDbCircle
 10
-91.77541300000007
 20
-12.20068399999997
 30
0.0
 40
3.00000000000017
100
AcDbArc
 50
183.0000000000032
 51
270.0
  0
ARC
  5
CC
330
70
100
AcDbEntity
  8
LC-005-002-RND-0
  6
Continuous
 62
     7
100
AcDbCircle
 10
-91.49920900000006
 20
-17.20068399999997
 30
0.0
 40
2.0
100
AcDbArc
 50
0.0
 51
90.0
  0
ARC
  5
CD
330
70
100
AcDbEntity
  8
LC-004-001-RND-0
  6
Continuous
 62
     7
100
AcDbCircle
 10
96.48563100000001
 20
-7.81053099999997
 30
0.0
 40
1.499999999999594
100
AcDbArc
 50
93.99999700001356
 51
177.0000000000165
  0
ARC
  5
CE
330
70
100
AcDbEntity
  8
LC-005-002-RND-0
  6
Continuous
 62
     7
100
AcDbCircle
 10
91.7755810000001
 20
-12.20068399999997
 30
0.0
 40
3.0
100
AcDbArc
 50
270.0
 51
356.9999999999968
  0
ARC
  5
CF
330
70
100
AcDbEntity
  8
LC-005-002-RND-0
  6
Continuous
 62
     7
100
AcDbCircle
 10
91.49937699999987
 20
-17.20068399999997
 30
0.0
 40
2.0
100
AcDbArc
 50
90.0
 51
180.0
  0
ARC
  5
D0
330
70
100
AcDbEntity
  8
LC-002-002-RND-0
  6
Continuous
 62
     7
100
AcDbCircle
 10
-81.08500439872348
 20
-33.53417179842779
 30
0.0
 40
5.000000000000025
100
AcDbArc
 50
205.9999999999961
 51
251.9070640000017
  0
ARC
  5
D1
330
70
100
AcDbEntity
  8
LC-002-002-RND-0
  6
Continuous
 62
     7
100
AcDbCircle
 10
-81.74985639872348
 20
-40.1550727984278
 30
0.0
 40
1.5
100
AcDbArc
 50
0.0
 51
71.90706399998737
  0
ARC
  5
D2
330
70
100
AcDbEntity
  8
LC-002-002-RND-0
  6
Continuous
 62
     7
100
AcDbCircle
 10
-84.49914939872349
 20
-26.53413779842788
 30
0.0
 40
4.999999999999781
100
AcDbArc
 50
193.3481916881813
 51
205.9999999999959
  0
ARC
  5
D3
330
70
100
AcDbEntity
  8
LC-002-002-RND-0
  6
Continuous
 62
     7
100
AcDbCircle
 10
81.08529260127654
 20
-33.53417179842779
 30
0.0
 40
5.000000000000559
100
AcDbArc
 50
288.0929359999978
 51
334.0000000000039
  0
ARC
  5
D4
330
70
100
AcDbEntity
  8
LC-002-002-RND-0
  6
Continuous
 62
     7
100
AcDbCircle
 10
81.75014360127653
 20
-40.1550727984278
 30
0.0
 40
1.499999999999976
100
AcDbArc
 50
108.0929360000137
 51
180.0
  0
ARC
  5
D5
330
70
100
AcDbEntity
  8
LC-002-002-RND-0
  6
Continuous
 62
     7
100
AcDbCircle
 10
72.25014360127653
 20
-99.0266037984278
 30
0.0
 40
8.0
100
AcDbArc
 50
270.0
 51
0.0
  0
ARC
  5
D6
330
70
100
AcDbEntity
  8
LC-002-002-RND-0
  6
Continuous
 62
     7
100
AcDbCircle
 10
-72.24985639872348
 20
-99.0266037984278
 30
0.0
 40
8.0
100
AcDbArc
 50
180.0
 51
270.0
  0
ARC
  5
D7
330
70
100
AcDbEntity
  8
LC-002-002-RND-0
  6
Continuous
 62
     7
100
AcDbCircle
 10
-84.49914939872349
 20
-26.53413779842788
 30
0.0
 40
5.0
100
AcDbArc
 50
180.0
 51
193.3481916881813
  0
ENDBLK
  5
72
330
70
100
AcDbEntity
  8
0
100
AcDbBlockEnd
  0
BLOCK
  5
74
330
73
100
AcDbEntity
  8
0
100
AcDbBlockBegin
  2
062B_2E_Aufsatzrahmen
 70
     0
 10
0.00008993170244
 20
24.4119012381222
 30
0.0
  3
062B_2E_Aufsatzrahmen
  1

  0
POINT
  5
D8
330
73
100
AcDbEntity
  8
0
 62
     7
100
AcDbPoint
 10
-73.49991006829755
 20
69.70000000000005
 30
0.0
  0
POINT
  5
D9
330
73
100
AcDbEntity
  8
0
 62
     7
100
AcDbPoint
 10
73.50008993170243
 20
69.70000000000005
 30
0.0
  0
POINT
  5
DA
330
73
100
AcDbEntity
  8
0
 62
     7
100
AcDbPoint
 10
73.50008993170243
 20
69.70000000000005
 30
0.0
  0
LINE
  5
DB
330
73
100
AcDbEntity
  8
1
  6
PHANTOM
 62
     2
100
AcDbLine
 10
0.00008993170243
 20
72.35862692968414
 30
0.0
 11
0.00008993170243
 21
-23.53482445343974
 31
0.0
  0
LINE
  5
DC
330
73
100
AcDbEntity
  8
1
  6
Continuous
 62
     7
100
AcDbLine
 10
-71.99991006829755
 20
5.19999999999999
 30
0.0
 11
72.00008993170243
 21
5.19999999999999
 31
0.0
  0
LINE
  5
DD
330
73
100
AcDbEntity
  8
LC-003-002-----0
  6
Continuous
 62
     7
100
AcDbLine
 10
72.00008993170243
 20
5.19999999999999
 30
0.0
 11
72.00008993170243
 21
5.19999999999999
 31
0.0
  0
LINE
  5
DE
330
73
100
AcDbEntity
  8
LC-003-002-----0
  6
Continuous
 62
     7
100
AcDbLine
 10
-71.99991006829755
 20
5.19999999999999
 30
0.0
 11
-71.99991006829755
 21
5.19999999999999
 31
0.0
  0
LINE
  5
DF
330
73
100
AcDbEntity
  8
1
  6
Continuous
 62
     7
100
AcDbLine
 10
-71.99991006829755
 20
7.69999999999999
 30
0.0
 11
72.00008993170243
 21
7.69999999999999
 31
0.0
  0
LINE
  5
E0
330
73
100
AcDbEntity
  8
1
  6
Continuous
 62
     7
100
AcDbLine
 10
-71.99991006829755
 20
9.69999999999999
 30
0.0
 11
72.00008993170243
 21
9.69999999999999
 31
0.0
  0
LINE
  5
E1
330
73
100
AcDbEntity
  8
1
  6
Continuous
 62
     7
100
AcDbLine
 10
-71.99991006829755
 20
12.20000000000005
 30
0.0
 11
72.00008993170243
 21
12.20000000000005
 31
0.0
  0
LINE
  5
E2
330
73
100
AcDbEntity
  8
1
  6
Continuous
 62
     7
100
AcDbLine
 10
-71.99991006829755
 20
14.20000000000005
 30
0.0
 11
72.00008993170243
 21
14.20000000000005
 31
0.0
  0
LINE
  5
E3
330
73
100
AcDbEntity
  8
1
  6
Continuous
 62
     7
100
AcDbLine
 10
-71.99991006829755
 20
16.70000000000005
 30
0.0
 11
72.00008993170243
 21
16.70000000000005
 31
0.0
  0
LINE
  5
E4
330
73
100
AcDbEntity
  8
1
  6
Continuous
 62
     7
100
AcDbLine
 10
-71.99991006829755
 20
18.70000000000005
 30
0.0
 11
72.00008993170243
 21
18.70000000000005
 31
0.0
  0
LINE
  5
E5
330
73
100
AcDbEntity
  8
1
  6
Continuous
 62
     7
100
AcDbLine
 10
-71.99991006829755
 20
21.20000000000005
 30
0.0
 11
72.00008993170243
 21
21.20000000000005
 31
0.0
  0
LINE
  5
E6
330
73
100
AcDbEntity
  8
1
  6
Continuous
 62
     7
100
AcDbLine
 10
-71.99991006829755
 20
23.20000000000005
 30
0.0
 11
72.00008993170243
 21
23.20000000000005
 31
0.0
  0
LINE
  5
E7
330
73
100
AcDbEntity
  8
1
  6
Continuous
 62
     7
100
AcDbLine
 10
-71.99991006829755
 20
25.70000000000005
 30
0.0
 11
72.00008993170243
 21
25.70000000000005
 31
0.0
  0
LINE
  5
E8
330
73
100
AcDbEntity
  8
1
  6
Continuous
 62
     7
100
AcDbLine
 10
-71.99991006829755
 20
27.70000000000005
 30
0.0
 11
72.00008993170243
 21
27.70000000000005
 31
0.0
  0
LINE
  5
E9
330
73
100
AcDbEntity
  8
1
  6
Continuous
 62
     7
100
AcDbLine
 10
-71.99991006829755
 20
30.20000000000005
 30
0.0
 11
72.00008993170243
 21
30.20000000000005
 31
0.0
  0
LINE
  5
EA
330
73
100
AcDbEntity
  8
1
  6
Continuous
 62
     7
100
AcDbLine
 10
-71.99991006829755
 20
32.20000000000005
 30
0.0
 11
72.00008993170243
 21
32.20000000000005
 31
0.0
  0
LINE
  5
EB
330
73
100
AcDbEntity
  8
1
  6
Continuous
 62
     7
100
AcDbLine
 10
-71.99991006829755
 20
34.70000000000005
 30
0.0
 11
72.00008993170243
 21
34.70000000000005
 31
0.0
  0
LINE
  5
EC
330
73
100
AcDbEntity
  8
1
  6
Continuous
 62
     7
100
AcDbLine
 10
-71.99991006829755
 20
36.70000000000005
 30
0.0
 11
72.00008993170243
 21
36.70000000000005
 31
0.0
  0
LINE
  5
ED
330
73
100
AcDbEntity
  8
1
  6
Continuous
 62
     7
100
AcDbLine
 10
-71.99991006829755
 20
39.20000000000005
 30
0.0
 11
72.00008993170243
 21
39.20000000000005
 31
0.0
  0
LINE
  5
EE
330
73
100
AcDbEntity
  8
1
  6
Continuous
 62
     7
100
AcDbLine
 10
-71.99991006829755
 20
41.20000000000005
 30
0.0
 11
72.00008993170243
 21
41.20000000000005
 31
0.0
  0
LINE
  5
EF
330
73
100
AcDbEntity
  8
1
  6
Continuous
 62
     7
100
AcDbLine
 10
-71.99991006829755
 20
43.70000000000005
 30
0.0
 11
72.00008993170243
 21
43.70000000000005
 31
0.0
  0
LINE
  5
F0
330
73
100
AcDbEntity
  8
1
  6
Continuous
 62
     7
100
AcDbLine
 10
-71.99991006829755
 20
45.70000000000005
 30
0.0
 11
72.00008993170243
 21
45.70000000000005
 31
0.0
  0
LINE
  5
F1
330
73
100
AcDbEntity
  8
1
  6
Continuous
 62
     7
100
AcDbLine
 10
72.00008993170243
 20
48.20000000000005
 30
0.0
 11
-71.99991006829755
 21
48.20000000000005
 31
0.0
  0
LINE
  5
F2
330
73
100
AcDbEntity
  8
1
  6
Continuous
 62
     7
100
AcDbLine
 10
-72.49991006829755
 20
51.20000000000005
 30
0.0
 11
-34.99991006829756
 21
51.20000000000005
 31
0.0
  0
LINE
  5
F3
330
73
100
AcDbEntity
  8
1
  6
Continuous
 62
     7
100
AcDbLine
 10
-72.49991006829755
 20
53.20000000000005
 30
0.0
 11
-63.49991006829755
 21
53.20000000000005
 31
0.0
  0
LINE
  5
F4
330
73
100
AcDbEntity
  8
1
  6
Continuous
 62
     7
100
AcDbLine
 10
-72.49991006829755
 20
55.70000000000005
 30
0.0
 11
63.50008993170244
 21
55.70000000000005
 31
0.0
  0
LINE
  5
F5
330
73
100
AcDbEntity
  8
LC-003-002-----0
  6
Continuous
 62
     7
100
AcDbLine
 10
-73.49991006829755
 20
69.70000000000005
 30
0.0
 11
-73.49991006829755
 21
55.70000000000005
 31
0.0
  0
LINE
  5
F6
330
73
100
AcDbEntity
  8
LC-003-002-----0
  6
Continuous
 62
     7
100
AcDbLine
 10
-72.99991006829755
 20
53.20000000000005
 30
0.0
 11
-72.49991006829755
 21
53.20000000000005
 31
0.0
  0
LINE
  5
F7
330
73
100
AcDbEntity
  8
LC-003-002-----0
  6
Continuous
 62
     7
100
AcDbLine
 10
-72.49991006829755
 20
55.70000000000005
 30
0.0
 11
-73.49991006829755
 21
55.70000000000005
 31
0.0
  0
LINE
  5
F8
330
73
100
AcDbEntity
  8
LC-003-002-----0
  6
Continuous
 62
     7
100
AcDbLine
 10
-72.99991006829755
 20
51.20000000000005
 30
0.0
 11
-72.49991006829755
 21
51.20000000000005
 31
0.0
  0
LINE
  5
F9
330
73
100
AcDbEntity
  8
LC-003-002-----0
  6
Continuous
 62
     7
100
AcDbLine
 10
-72.99991006829755
 20
53.20000000000005
 30
0.0
 11
-72.99991006829755
 21
51.20000000000005
 31
0.0
  0
LINE
  5
FA
330
73
100
AcDbEntity
  8
LC-003-002-----0
  6
Continuous
 62
     7
100
AcDbLine
 10
-72.49991006829755
 20
51.20000000000005
 30
0.0
 11
-72.49991006829755
 21
48.70000000000005
 31
0.0
  0
LINE
  5
FB
330
73
100
AcDbEntity
  8
LC-003-002-----0
  6
Continuous
 62
     7
100
AcDbLine
 10
-71.99991006829755
 20
7.69999999999999
 30
0.0
 11
-71.99991006829755
 21
7.69999999999999
 31
0.0
  0
LINE
  5
FC
330
73
100
AcDbEntity
  8
LC-003-002-----0
  6
Continuous
 62
     7
100
AcDbLine
 10
-71.99991006829755
 20
12.20000000000005
 30
0.0
 11
-71.99991006829755
 21
12.20000000000005
 31
0.0
  0
LINE
  5
FD
330
73
100
AcDbEntity
  8
LC-003-002-----0
  6
Continuous
 62
     7
100
AcDbLine
 10
-71.99991006829755
 20
16.70000000000005
 30
0.0
 11
-71.99991006829755
 21
16.70000000000005
 31
0.0
  0
LINE
  5
FE
330
73
100
AcDbEntity
  8
LC-003-002-----0
  6
Continuous
 62
     7
100
AcDbLine
 10
-71.99991006829755
 20
21.20000000000005
 30
0.0
 11
-71.99991006829755
 21
21.20000000000005
 31
0.0
  0
LINE
  5
FF
330
73
100
AcDbEntity
  8
LC-003-002-----0
  6
Continuous
 62
     7
100
AcDbLine
 10
-71.99991006829755
 20
25.70000000000005
 30
0.0
 11
-71.99991006829755
 21
25.70000000000005
 31
0.0
  0
LINE
  5
100
330
73
100
AcDbEntity
  8
LC-003-002-----0
  6
Continuous
 62
     7
100
AcDbLine
 10
-71.99991006829755
 20
30.20000000000005
 30
0.0
 11
-71.99991006829755
 21
30.20000000000005
 31
0.0
  0
LINE
  5
101
330
73
100
AcDbEntity
  8
LC-003-002-----0
  6
Continuous
 62
     7
100
AcDbLine
 10
-71.99991006829755
 20
34.70000000000005
 30
0.0
 11
-71.99991006829755
 21
34.70000000000005
 31
0.0
  0
LINE
  5
102
330
73
100
AcDbEntity
  8
LC-003-002-----0
  6
Continuous
 62
     7
100
AcDbLine
 10
-71.99991006829755
 20
39.20000000000005
 30
0.0
 11
-71.99991006829755
 21
39.20000000000005
 31
0.0
  0
LINE
  5
103
330
73
100
AcDbEntity
  8
LC-003-002-----0
  6
Continuous
 62
     7
100
AcDbLine
 10
-71.99991006829755
 20
43.70000000000005
 30
0.0
 11
-71.99991006829755
 21
43.70000000000005
 31
0.0
  0
LINE
  5
104
330
73
100
AcDbEntity
  8
LC-003-002-----0
  6
Continuous
 62
     7
100
AcDbLine
 10
-71.99991006829755
 20
48.20000000000005
 30
0.0
 11
-71.99991006829755
 21
48.20000000000005
 31
0.0
  0
LINE
  5
105
330
73
100
AcDbEntity
  8
LC-003-002-----0
  6
Continuous
 62
     7
100
AcDbLine
 10
-71.99991006829755
 20
9.69999999999999
 30
0.0
 11
-71.99991006829755
 21
9.69999999999999
 31
0.0
  0
LINE
  5
106
330
73
100
AcDbEntity
  8
LC-003-002-----0
  6
Continuous
 62
     7
100
AcDbLine
 10
-71.99991006829755
 20
14.20000000000005
 30
0.0
 11
-71.99991006829755
 21
14.20000000000005
 31
0.0
  0
LINE
  5
107
330
73
100
AcDbEntity
  8
LC-003-002-----0
  6
Continuous
 62
     7
100
AcDbLine
 10
-71.99991006829755
 20
18.70000000000005
 30
0.0
 11
-71.99991006829755
 21
18.70000000000005
 31
0.0
  0
LINE
  5
108
330
73
100
AcDbEntity
  8
LC-003-002-----0
  6
Continuous
 62
     7
100
AcDbLine
 10
-71.99991006829755
 20
23.20000000000005
 30
0.0
 11
-71.99991006829755
 21
23.20000000000005
 31
0.0
  0
LINE
  5
109
330
73
100
AcDbEntity
  8
LC-003-002-----0
  6
Continuous
 62
     7
100
AcDbLine
 10
-71.99991006829755
 20
27.70000000000005
 30
0.0
 11
-71.99991006829755
 21
27.70000000000005
 31
0.0
  0
LINE
  5
10A
330
73
100
AcDbEntity
  8
LC-003-002-----0
  6
Continuous
 62
     7
100
AcDbLine
 10
-71.99991006829755
 20
32.20000000000005
 30
0.0
 11
-71.99991006829755
 21
32.20000000000005
 31
0.0
  0
LINE
  5
10B
330
73
100
AcDbEntity
  8
LC-003-002-----0
  6
Continuous
 62
     7
100
AcDbLine
 10
-71.99991006829755
 20
36.70000000000005
 30
0.0
 11
-71.99991006829755
 21
36.70000000000005
 31
0.0
  0
LINE
  5
10C
330
73
100
AcDbEntity
  8
LC-003-002-----0
  6
Continuous
 62
     7
100
AcDbLine
 10
-71.99991006829755
 20
41.20000000000005
 30
0.0
 11
-71.99991006829755
 21
41.20000000000005
 31
0.0
  0
LINE
  5
10D
330
73
100
AcDbEntity
  8
LC-003-002-----0
  6
Continuous
 62
     7
100
AcDbLine
 10
-71.99991006829755
 20
45.70000000000005
 30
0.0
 11
-71.99991006829755
 21
45.70000000000005
 31
0.0
  0
LINE
  5
10E
330
73
100
AcDbEntity
  8
LC-003-002-----0
  6
Continuous
 62
     7
100
AcDbLine
 10
-72.49991006829755
 20
9.19999999999999
 30
0.0
 11
-72.49991006829755
 21
8.19999999999999
 31
0.0
  0
LINE
  5
10F
330
73
100
AcDbEntity
  8
LC-003-002-----0
  6
Continuous
 62
     7
100
AcDbLine
 10
-72.49991006829755
 20
13.70000000000005
 30
0.0
 11
-72.49991006829755
 21
12.70000000000005
 31
0.0
  0
LINE
  5
110
330
73
100
AcDbEntity
  8
LC-003-002-----0
  6
Continuous
 62
     7
100
AcDbLine
 10
-72.49991006829755
 20
18.20000000000005
 30
0.0
 11
-72.49991006829755
 21
17.20000000000005
 31
0.0
  0
LINE
  5
111
330
73
100
AcDbEntity
  8
LC-003-002-----0
  6
Continuous
 62
     7
100
AcDbLine
 10
-72.49991006829755
 20
22.70000000000005
 30
0.0
 11
-72.49991006829755
 21
21.70000000000005
 31
0.0
  0
LINE
  5
112
330
73
100
AcDbEntity
  8
LC-003-002-----0
  6
Continuous
 62
     7
100
AcDbLine
 10
-72.49991006829755
 20
27.20000000000005
 30
0.0
 11
-72.49991006829755
 21
26.20000000000005
 31
0.0
  0
LINE
  5
113
330
73
100
AcDbEntity
  8
LC-003-002-----0
  6
Continuous
 62
     7
100
AcDbLine
 10
-72.49991006829755
 20
31.70000000000005
 30
0.0
 11
-72.49991006829755
 21
30.70000000000005
 31
0.0
  0
LINE
  5
114
330
73
100
AcDbEntity
  8
LC-003-002-----0
  6
Continuous
 62
     7
100
AcDbLine
 10
-72.49991006829755
 20
36.20000000000005
 30
0.0
 11
-72.49991006829755
 21
35.20000000000005
 31
0.0
  0
LINE
  5
115
330
73
100
AcDbEntity
  8
LC-003-002-----0
  6
Continuous
 62
     7
100
AcDbLine
 10
-72.49991006829755
 20
40.70000000000005
 30
0.0
 11
-72.49991006829755
 21
39.70000000000005
 31
0.0
  0
LINE
  5
116
330
73
100
AcDbEntity
  8
LC-003-002-----0
  6
Continuous
 62
     7
100
AcDbLine
 10
-72.49991006829755
 20
45.20000000000005
 30
0.0
 11
-72.49991006829755
 21
44.20000000000005
 31
0.0
  0
LINE
  5
117
330
73
100
AcDbEntity
  8
LC-003-002-----0
  6
Continuous
 62
     7
100
AcDbLine
 10
-72.49991006829755
 20
55.70000000000005
 30
0.0
 11
-72.49991006829755
 21
53.20000000000005
 31
0.0
  0
LINE
  5
118
330
73
100
AcDbEntity
  8
LC-003-002-----0
  6
Continuous
 62
     7
100
AcDbLine
 10
73.50008993170243
 20
69.70000000000005
 30
0.0
 11
-73.49991006829755
 21
69.70000000000005
 31
0.0
  0
LINE
  5
119
330
73
100
AcDbEntity
  8
LC-003-002-----0
  6
Continuous
 62
     7
100
AcDbLine
 10
73.50008993170243
 20
69.70000000000005
 30
0.0
 11
73.50008993170243
 21
55.70000000000005
 31
0.0
  0
LINE
  5
11A
330
73
100
AcDbEntity
  8
LC-003-002-----0
  6
Continuous
 62
     7
100
AcDbLine
 10
73.00008993170243
 20
53.20000000000005
 30
0.0
 11
72.50008993170243
 21
53.20000000000005
 31
0.0
  0
LINE
  5
11B
330
73
100
AcDbEntity
  8
LC-003-002-----0
  6
Continuous
 62
     7
100
AcDbLine
 10
72.50008993170243
 20
55.70000000000005
 30
0.0
 11
73.50008993170243
 21
55.70000000000005
 31
0.0
  0
LINE
  5
11C
330
73
100
AcDbEntity
  8
LC-003-002-----0
  6
Continuous
 62
     7
100
AcDbLine
 10
73.00008993170243
 20
51.20000000000005
 30
0.0
 11
72.50008993170243
 21
51.20000000000005
 31
0.0
  0
LINE
  5
11D
330
73
100
AcDbEntity
  8
LC-003-002-----0
  6
Continuous
 62
     7
100
AcDbLine
 10
73.00008993170243
 20
53.20000000000005
 30
0.0
 11
73.00008993170243
 21
51.20000000000005
 31
0.0
  0
LINE
  5
11E
330
73
100
AcDbEntity
  8
LC-003-002-----0
  6
Continuous
 62
     7
100
AcDbLine
 10
72.50008993170243
 20
51.20000000000005
 30
0.0
 11
72.50008993170243
 21
48.70000000000005
 31
0.0
  0
LINE
  5
11F
330
73
100
AcDbEntity
  8
LC-003-002-----0
  6
Continuous
 62
     7
100
AcDbLine
 10
72.00008993170243
 20
7.69999999999999
 30
0.0
 11
72.00008993170243
 21
7.69999999999999
 31
0.0
  0
LINE
  5
120
330
73
100
AcDbEntity
  8
LC-003-002-----0
  6
Continuous
 62
     7
100
AcDbLine
 10
72.00008993170243
 20
12.20000000000005
 30
0.0
 11
72.00008993170243
 21
12.20000000000005
 31
0.0
  0
LINE
  5
121
330
73
100
AcDbEntity
  8
LC-003-002-----0
  6
Continuous
 62
     7
100
AcDbLine
 10
72.00008993170243
 20
16.70000000000005
 30
0.0
 11
72.00008993170243
 21
16.70000000000005
 31
0.0
  0
LINE
  5
122
330
73
100
AcDbEntity
  8
LC-003-002-----0
  6
Continuous
 62
     7
100
AcDbLine
 10
72.00008993170243
 20
21.20000000000005
 30
0.0
 11
72.00008993170243
 21
21.20000000000005
 31
0.0
  0
LINE
  5
123
330
73
100
AcDbEntity
  8
LC-003-002-----0
  6
Continuous
 62
     7
100
AcDbLine
 10
72.00008993170243
 20
25.70000000000005
 30
0.0
 11
72.00008993170243
 21
25.70000000000005
 31
0.0
  0
LINE
  5
124
330
73
100
AcDbEntity
  8
LC-003-002-----0
  6
Continuous
 62
     7
100
AcDbLine
 10
72.00008993170243
 20
30.20000000000005
 30
0.0
 11
72.00008993170243
 21
30.20000000000005
 31
0.0
  0
LINE
  5
125
330
73
100
AcDbEntity
  8
LC-003-002-----0
  6
Continuous
 62
     7
100
AcDbLine
 10
72.00008993170243
 20
34.70000000000005
 30
0.0
 11
72.00008993170243
 21
34.70000000000005
 31
0.0
  0
LINE
  5
126
330
73
100
AcDbEntity
  8
LC-003-002-----0
  6
Continuous
 62
     7
100
AcDbLine
 10
72.00008993170243
 20
39.20000000000005
 30
0.0
 11
72.00008993170243
 21
39.20000000000005
 31
0.0
  0
LINE
  5
127
330
73
100
AcDbEntity
  8
LC-003-002-----0
  6
Continuous
 62
     7
100
AcDbLine
 10
72.00008993170243
 20
43.70000000000005
 30
0.0
 11
72.00008993170243
 21
43.70000000000005
 31
0.0
  0
LINE
  5
128
330
73
100
AcDbEntity
  8
LC-003-002-----0
  6
Continuous
 62
     7
100
AcDbLine
 10
72.00008993170243
 20
48.20000000000005
 30
0.0
 11
72.00008993170243
 21
48.20000000000005
 31
0.0
  0
LINE
  5
129
330
73
100
AcDbEntity
  8
LC-003-002-----0
  6
Continuous
 62
     7
100
AcDbLine
 10
72.00008993170243
 20
9.69999999999999
 30
0.0
 11
72.00008993170243
 21
9.69999999999999
 31
0.0
  0
LINE
  5
12A
330
73
100
AcDbEntity
  8
LC-003-002-----0
  6
Continuous
 62
     7
100
AcDbLine
 10
72.00008993170243
 20
14.20000000000005
 30
0.0
 11
72.00008993170243
 21
14.20000000000005
 31
0.0
  0
LINE
  5
12B
330
73
100
AcDbEntity
  8
LC-003-002-----0
  6
Continuous
 62
     7
100
AcDbLine
 10
72.00008993170243
 20
18.70000000000005
 30
0.0
 11
72.00008993170243
 21
18.70000000000005
 31
0.0
  0
LINE
  5
12C
330
73
100
AcDbEntity
  8
LC-003-002-----0
  6
Continuous
 62
     7
100
AcDbLine
 10
72.00008993170243
 20
23.20000000000005
 30
0.0
 11
72.00008993170243
 21
23.20000000000005
 31
0.0
  0
LINE
  5
12D
330
73
100
AcDbEntity
  8
LC-003-002-----0
  6
Continuous
 62
     7
100
AcDbLine
 10
72.00008993170243
 20
27.70000000000005
 30
0.0
 11
72.00008993170243
 21
27.70000000000005
 31
0.0
  0
LINE
  5
12E
330
73
100
AcDbEntity
  8
LC-003-002-----0
  6
Continuous
 62
     7
100
AcDbLine
 10
72.00008993170243
 20
32.20000000000005
 30
0.0
 11
72.00008993170243
 21
32.20000000000005
 31
0.0
  0
LINE
  5
12F
330
73
100
AcDbEntity
  8
LC-003-002-----0
  6
Continuous
 62
     7
100
AcDbLine
 10
72.00008993170243
 20
36.70000000000005
 30
0.0
 11
72.00008993170243
 21
36.70000000000005
 31
0.0
  0
LINE
  5
130
330
73
100
AcDbEntity
  8
LC-003-002-----0
  6
Continuous
 62
     7
100
AcDbLine
 10
72.00008993170243
 20
41.20000000000005
 30
0.0
 11
72.00008993170243
 21
41.20000000000005
 31
0.0
  0
LINE
  5
131
330
73
100
AcDbEntity
  8
LC-003-002-----0
  6
Continuous
 62
     7
100
AcDbLine
 10
72.00008993170243
 20
45.70000000000005
 30
0.0
 11
72.00008993170243
 21
45.70000000000005
 31
0.0
  0
LINE
  5
132
330
73
100
AcDbEntity
  8
LC-003-002-----0
  6
Continuous
 62
     7
100
AcDbLine
 10
72.50008993170243
 20
9.19999999999999
 30
0.0
 11
72.50008993170243
 21
8.19999999999999
 31
0.0
  0
LINE
  5
133
330
73
100
AcDbEntity
  8
LC-003-002-----0
  6
Continuous
 62
     7
100
AcDbLine
 10
72.50008993170243
 20
13.70000000000005
 30
0.0
 11
72.50008993170243
 21
12.70000000000005
 31
0.0
  0
LINE
  5
134
330
73
100
AcDbEntity
  8
LC-003-002-----0
  6
Continuous
 62
     7
100
AcDbLine
 10
72.50008993170243
 20
18.20000000000005
 30
0.0
 11
72.50008993170243
 21
17.20000000000005
 31
0.0
  0
LINE
  5
135
330
73
100
AcDbEntity
  8
LC-003-002-----0
  6
Continuous
 62
     7
100
AcDbLine
 10
72.50008993170243
 20
22.70000000000005
 30
0.0
 11
72.50008993170243
 21
21.70000000000005
 31
0.0
  0
LINE
  5
136
330
73
100
AcDbEntity
  8
LC-003-002-----0
  6
Continuous
 62
     7
100
AcDbLine
 10
72.50008993170243
 20
27.20000000000005
 30
0.0
 11
72.50008993170243
 21
26.20000000000005
 31
0.0
  0
LINE
  5
137
330
73
100
AcDbEntity
  8
LC-003-002-----0
  6
Continuous
 62
     7
100
AcDbLine
 10
72.50008993170243
 20
31.70000000000005
 30
0.0
 11
72.50008993170243
 21
30.70000000000005
 31
0.0
  0
LINE
  5
138
330
73
100
AcDbEntity
  8
LC-003-002-----0
  6
Continuous
 62
     7
100
AcDbLine
 10
72.50008993170243
 20
36.20000000000005
 30
0.0
 11
72.50008993170243
 21
35.20000000000005
 31
0.0
  0
LINE
  5
139
330
73
100
AcDbEntity
  8
LC-003-002-----0
  6
Continuous
 62
     7
100
AcDbLine
 10
72.50008993170243
 20
40.70000000000005
 30
0.0
 11
72.50008993170243
 21
39.70000000000005
 31
0.0
  0
LINE
  5
13A
330
73
100
AcDbEntity
  8
LC-003-002-----0
  6
Continuous
 62
     7
100
AcDbLine
 10
72.50008993170243
 20
45.20000000000005
 30
0.0
 11
72.50008993170243
 21
44.20000000000005
 31
0.0
  0
LINE
  5
13B
330
73
100
AcDbEntity
  8
LC-003-002-----0
  6
Continuous
 62
     7
100
AcDbLine
 10
72.50008993170243
 20
55.70000000000005
 30
0.0
 11
72.50008993170243
 21
53.20000000000005
 31
0.0
  0
LINE
  5
13C
330
73
100
AcDbEntity
  8
1
  6
Continuous
 62
     7
100
AcDbLine
 10
-34.99991006829756
 20
53.20000000000005
 30
0.0
 11
-34.99991006829756
 21
51.20000000000005
 31
0.0
  0
LINE
  5
13D
330
73
100
AcDbEntity
  8
1
  6
Continuous
 62
     7
100
AcDbLine
 10
-34.99991006829756
 20
51.20000000000005
 30
0.0
 11
35.00008993170244
 21
51.20000000000005
 31
0.0
  0
LINE
  5
13E
330
73
100
AcDbEntity
  8
1
  6
Continuous
 62
     7
100
AcDbLine
 10
-34.99991006829756
 20
53.20000000000005
 30
0.0
 11
35.00008993170244
 21
53.20000000000005
 31
0.0
  0
LINE
  5
13F
330
73
100
AcDbEntity
  8
1
  6
Continuous
 62
     7
100
AcDbLine
 10
35.00008993170244
 20
51.20000000000005
 30
0.0
 11
35.00008993170244
 21
53.20000000000005
 31
0.0
  0
LINE
  5
140
330
73
100
AcDbEntity
  8
1
  6
Continuous
 62
     7
100
AcDbLine
 10
35.00008993170244
 20
51.20000000000005
 30
0.0
 11
63.50008993170244
 21
51.20000000000005
 31
0.0
  0
LINE
  5
141
330
73
100
AcDbEntity
  8
1
  6
Continuous
 62
     7
100
AcDbLine
 10
35.00008993170244
 20
51.20000000000005
 30
0.0
 11
63.50008993170244
 21
55.70000000000005
 31
0.0
  0
LINE
  5
142
330
73
100
AcDbEntity
  8
1
  6
Continuous
 62
     7
100
AcDbLine
 10
63.50008993170244
 20
55.70000000000005
 30
0.0
 11
72.50008993170243
 21
55.70000000000005
 31
0.0
  0
LINE
  5
143
330
73
100
AcDbEntity
  8
1
  6
Continuous
 62
     7
100
AcDbLine
 10
63.50008993170244
 20
55.70000000000005
 30
0.0
 11
63.50008993170244
 21
53.20000000000005
 31
0.0
  0
LINE
  5
144
330
73
100
AcDbEntity
  8
1
  6
Continuous
 62
     7
100
AcDbLine
 10
63.50008993170244
 20
51.20000000000005
 30
0.0
 11
72.50008993170243
 21
51.20000000000005
 31
0.0
  0
LINE
  5
145
330
73
100
AcDbEntity
  8
1
  6
Continuous
 62
     7
100
AcDbLine
 10
72.50008993170243
 20
53.20000000000005
 30
0.0
 11
63.50008993170244
 21
53.20000000000005
 31
0.0
  0
LINE
  5
146
330
73
100
AcDbEntity
  8
1
  6
Continuous
 62
     7
100
AcDbLine
 10
63.50008993170244
 20
53.20000000000005
 30
0.0
 11
63.50008993170244
 21
51.20000000000005
 31
0.0
  0
LINE
  5
147
330
73
100
AcDbEntity
  8
1
  6
Continuous
 62
     7
100
AcDbLine
 10
-63.49991006829755
 20
55.70000000000005
 30
0.0
 11
-34.99991006829756
 21
51.20000000000005
 31
0.0
  0
LINE
  5
148
330
73
100
AcDbEntity
  8
1
  6
Continuous
 62
     7
100
AcDbLine
 10
-63.49991006829755
 20
51.20000000000005
 30
0.0
 11
-63.49991006829755
 21
53.20000000000005
 31
0.0
  0
LINE
  5
149
330
73
100
AcDbEntity
  8
1
  6
Continuous
 62
     7
100
AcDbLine
 10
-63.49991006829755
 20
53.20000000000005
 30
0.0
 11
-63.49991006829755
 21
55.70000000000005
 31
0.0
  0
ARC
  5
14A
330
73
100
AcDbEntity
  8
LC-003-002-----0
  6
Continuous
 62
     7
100
AcDbCircle
 10
72.00008993170243
 20
6.44999999999999
 30
0.0
 40
1.25
100
AcDbArc
 50
90.0
 51
270.0
  0
ARC
  5
14B
330
73
100
AcDbEntity
  8
LC-009-002-RND-0
  6
Continuous
 62
     7
100
AcDbCircle
 10
72.00008993170243
 20
4.69999999999999
 30
0.0
 40
0.5
100
AcDbArc
 50
0.0
 51
90.0
  0
ARC
  5
14C
330
73
100
AcDbEntity
  8
LC-003-002-----0
  6
Continuous
 62
     7
100
AcDbCircle
 10
-71.99991006829755
 20
6.44999999999999
 30
0.0
 40
1.25
100
AcDbArc
 50
270.0
 51
90.0
  0
ARC
  5
14D
330
73
100
AcDbEntity
  8
LC-009-002-RND-0
  6
Continuous
 62
     7
100
AcDbCircle
 10
-71.99991006829755
 20
4.69999999999999
 30
0.0
 40
0.5
100
AcDbArc
 50
90.0
 51
180.0
  0
ARC
  5
14E
330
73
100
AcDbEntity
  8
LC-003-002-----0
  6
Continuous
 62
     7
100
AcDbCircle
 10
-71.99991006829755
 20
10.94999999999999
 30
0.0
 40
1.250000000000002
100
AcDbArc
 50
270.0
 51
90.0
  0
ARC
  5
14F
330
73
100
AcDbEntity
  8
LC-003-002-----0
  6
Continuous
 62
     7
100
AcDbCircle
 10
-71.99991006829755
 20
15.45000000000005
 30
0.0
 40
1.25
100
AcDbArc
 50
270.0
 51
90.0
  0
ARC
  5
150
330
73
100
AcDbEntity
  8
LC-003-002-----0
  6
Continuous
 62
     7
100
AcDbCircle
 10
-71.99991006829755
 20
19.95000000000005
 30
0.0
 40
1.25
100
AcDbArc
 50
270.0
 51
90.0
  0
ARC
  5
151
330
73
100
AcDbEntity
  8
LC-003-002-----0
  6
Continuous
 62
     7
100
AcDbCircle
 10
-71.99991006829755
 20
24.45000000000005
 30
0.0
 40
1.25
100
AcDbArc
 50
270.0
 51
90.0
  0
ARC
  5
152
330
73
100
AcDbEntity
  8
LC-003-002-----0
  6
Continuous
 62
     7
100
AcDbCircle
 10
-71.99991006829755
 20
28.95000000000005
 30
0.0
 40
1.25
100
AcDbArc
 50
270.0
 51
90.0
  0
ARC
  5
153
330
73
100
AcDbEntity
  8
LC-003-002-----0
  6
Continuous
 62
     7
100
AcDbCircle
 10
-71.99991006829755
 20
33.45000000000005
 30
0.0
 40
1.25
100
AcDbArc
 50
270.0
 51
90.0
  0
ARC
  5
154
330
73
100
AcDbEntity
  8
LC-003-002-----0
  6
Continuous
 62
     7
100
AcDbCircle
 10
-71.99991006829755
 20
37.95000000000005
 30
0.0
 40
1.25
100
AcDbArc
 50
270.0
 51
90.0
  0
ARC
  5
155
330
73
100
AcDbEntity
  8
LC-003-002-----0
  6
Continuous
 62
     7
100
AcDbCircle
 10
-71.99991006829755
 20
42.45000000000005
 30
0.0
 40
1.25
100
AcDbArc
 50
270.0
 51
90.0
  0
ARC
  5
156
330
73
100
AcDbEntity
  8
LC-003-002-----0
  6
Continuous
 62
     7
100
AcDbCircle
 10
-71.99991006829755
 20
46.95000000000005
 30
0.0
 40
1.25
100
AcDbArc
 50
270.0
 51
90.0
  0
ARC
  5
157
330
73
100
AcDbEntity
  8
LC-009-002-RND-0
  6
Continuous
 62
     7
100
AcDbCircle
 10
-71.99991006829755
 20
9.19999999999999
 30
0.0
 40
0.5
100
AcDbArc
 50
90.0
 51
180.0
  0
ARC
  5
158
330
73
100
AcDbEntity
  8
LC-009-002-RND-0
  6
Continuous
 62
     7
100
AcDbCircle
 10
-71.99991006829755
 20
13.70000000000005
 30
0.0
 40
0.5
100
AcDbArc
 50
90.0
 51
180.0
  0
ARC
  5
159
330
73
100
AcDbEntity
  8
LC-009-002-RND-0
  6
Continuous
 62
     7
100
AcDbCircle
 10
-71.99991006829755
 20
18.20000000000005
 30
0.0
 40
0.5
100
AcDbArc
 50
90.0
 51
180.0
  0
ARC
  5
15A
330
73
100
AcDbEntity
  8
LC-009-002-RND-0
  6
Continuous
 62
     7
100
AcDbCircle
 10
-71.99991006829755
 20
22.70000000000005
 30
0.0
 40
0.5
100
AcDbArc
 50
90.0
 51
180.0
  0
ARC
  5
15B
330
73
100
AcDbEntity
  8
LC-009-002-RND-0
  6
Continuous
 62
     7
100
AcDbCircle
 10
-71.99991006829755
 20
27.20000000000005
 30
0.0
 40
0.5
100
AcDbArc
 50
90.0
 51
180.0
  0
ARC
  5
15C
330
73
100
AcDbEntity
  8
LC-009-002-RND-0
  6
Continuous
 62
     7
100
AcDbCircle
 10
-71.99991006829755
 20
31.70000000000005
 30
0.0
 40
0.5000000000000036
100
AcDbArc
 50
90.0
 51
180.0
  0
ARC
  5
15D
330
73
100
AcDbEntity
  8
LC-009-002-RND-0
  6
Continuous
 62
     7
100
AcDbCircle
 10
-71.99991006829755
 20
36.20000000000005
 30
0.0
 40
0.5
100
AcDbArc
 50
90.0
 51
180.0
  0
ARC
  5
15E
330
73
100
AcDbEntity
  8
LC-009-002-RND-0
  6
Continuous
 62
     7
100
AcDbCircle
 10
-71.99991006829755
 20
40.70000000000005
 30
0.0
 40
0.5
100
AcDbArc
 50
90.0
 51
180.0
  0
ARC
  5
15F
330
73
100
AcDbEntity
  8
LC-009-002-RND-0
  6
Continuous
 62
     7
100
AcDbCircle
 10
-71.99991006829755
 20
45.20000000000005
 30
0.0
 40
0.5
100
AcDbArc
 50
90.0
 51
180.0
  0
ARC
  5
160
330
73
100
AcDbEntity
  8
LC-009-002-RND-0
  6
Continuous
 62
     7
100
AcDbCircle
 10
-71.99991006829755
 20
48.70000000000005
 30
0.0
 40
0.5
100
AcDbArc
 50
180.0
 51
270.0
  0
ARC
  5
161
330
73
100
AcDbEntity
  8
LC-009-002-RND-0
  6
Continuous
 62
     7
100
AcDbCircle
 10
-71.99991006829755
 20
44.20000000000005
 30
0.0
 40
0.5
100
AcDbArc
 50
180.0
 51
270.0
  0
ARC
  5
162
330
73
100
AcDbEntity
  8
LC-009-002-RND-0
  6
Continuous
 62
     7
100
AcDbCircle
 10
-71.99991006829755
 20
39.70000000000005
 30
0.0
 40
0.5
100
AcDbArc
 50
180.0
 51
270.0
  0
ARC
  5
163
330
73
100
AcDbEntity
  8
LC-009-002-RND-0
  6
Continuous
 62
     7
100
AcDbCircle
 10
-71.99991006829755
 20
35.20000000000005
 30
0.0
 40
0.5
100
AcDbArc
 50
180.0
 51
270.0
  0
ARC
  5
164
330
73
100
AcDbEntity
  8
LC-009-002-RND-0
  6
Continuous
 62
     7
100
AcDbCircle
 10
-71.99991006829755
 20
30.70000000000005
 30
0.0
 40
0.5
100
AcDbArc
 50
180.0
 51
270.0
  0
ARC
  5
165
330
73
100
AcDbEntity
  8
LC-009-002-RND-0
  6
Continuous
 62
     7
100
AcDbCircle
 10
-71.99991006829755
 20
26.20000000000005
 30
0.0
 40
0.5
100
AcDbArc
 50
180.0
 51
270.0
  0
ARC
  5
166
330
73
100
AcDbEntity
  8
LC-009-002-RND-0
  6
Continuous
 62
     7
100
AcDbCircle
 10
-71.99991006829755
 20
21.70000000000005
 30
0.0
 40
0.5
100
AcDbArc
 50
180.0
 51
270.0
  0
ARC
  5
167
330
73
100
AcDbEntity
  8
LC-009-002-RND-0
  6
Continuous
 62
     7
100
AcDbCircle
 10
-71.99991006829755
 20
12.70000000000005
 30
0.0
 40
0.5
100
AcDbArc
 50
180.0
 51
270.0
  0
ARC
  5
168
330
73
100
AcDbEntity
  8
LC-009-002-RND-0
  6
Continuous
 62
     7
100
AcDbCircle
 10
-71.99991006829755
 20
17.20000000000005
 30
0.0
 40
0.5
100
AcDbArc
 50
180.0
 51
270.0
  0
ARC
  5
169
330
73
100
AcDbEntity
  8
LC-009-002-RND-0
  6
Continuous
 62
     7
100
AcDbCircle
 10
-71.99991006829755
 20
8.19999999999999
 30
0.0
 40
0.5
100
AcDbArc
 50
180.0
 51
270.0
  0
ARC
  5
16A
330
73
100
AcDbEntity
  8
LC-003-002-----0
  6
Continuous
 62
     7
100
AcDbCircle
 10
72.00008993170243
 20
10.94999999999999
 30
0.0
 40
1.25000000000006
100
AcDbArc
 50
90.0
 51
270.0
  0
ARC
  5
16B
330
73
100
AcDbEntity
  8
LC-003-002-----0
  6
Continuous
 62
     7
100
AcDbCircle
 10
72.00008993170243
 20
15.45000000000005
 30
0.0
 40
1.249999999999998
100
AcDbArc
 50
90.0
 51
270.0
  0
ARC
  5
16C
330
73
100
AcDbEntity
  8
LC-003-002-----0
  6
Continuous
 62
     7
100
AcDbCircle
 10
72.00008993170243
 20
19.95000000000005
 30
0.0
 40
1.25
100
AcDbArc
 50
90.0
 51
270.0
  0
ARC
  5
16D
330
73
100
AcDbEntity
  8
LC-003-002-----0
  6
Continuous
 62
     7
100
AcDbCircle
 10
72.00008993170243
 20
24.45000000000005
 30
0.0
 40
1.25
100
AcDbArc
 50
90.0
 51
270.0
  0
ARC
  5
16E
330
73
100
AcDbEntity
  8
LC-003-002-----0
  6
Continuous
 62
     7
100
AcDbCircle
 10
72.00008993170243
 20
28.95000000000005
 30
0.0
 40
1.25
100
AcDbArc
 50
90.0
 51
270.0
  0
ARC
  5
16F
330
73
100
AcDbEntity
  8
LC-003-002-----0
  6
Continuous
 62
     7
100
AcDbCircle
 10
72.00008993170243
 20
33.45000000000005
 30
0.0
 40
1.25
100
AcDbArc
 50
90.0
 51
270.0
  0
ARC
  5
170
330
73
100
AcDbEntity
  8
LC-003-002-----0
  6
Continuous
 62
     7
100
AcDbCircle
 10
72.00008993170243
 20
37.95000000000005
 30
0.0
 40
1.25
100
AcDbArc
 50
90.0
 51
270.0
  0
ARC
  5
171
330
73
100
AcDbEntity
  8
LC-003-002-----0
  6
Continuous
 62
     7
100
AcDbCircle
 10
72.00008993170243
 20
42.45000000000005
 30
0.0
 40
1.25
100
AcDbArc
 50
90.0
 51
270.0
  0
ARC
  5
172
330
73
100
AcDbEntity
  8
LC-003-002-----0
  6
Continuous
 62
     7
100
AcDbCircle
 10
72.00008993170243
 20
46.95000000000005
 30
0.0
 40
1.25
100
AcDbArc
 50
90.0
 51
270.0
  0
ARC
  5
173
330
73
100
AcDbEntity
  8
LC-009-002-RND-0
  6
Continuous
 62
     7
100
AcDbCircle
 10
72.00008993170243
 20
9.19999999999999
 30
0.0
 40
0.5
100
AcDbArc
 50
0.0
 51
90.0
  0
ARC
  5
174
330
73
100
AcDbEntity
  8
LC-009-002-RND-0
  6
Continuous
 62
     7
100
AcDbCircle
 10
72.00008993170243
 20
13.70000000000005
 30
0.0
 40
0.5
100
AcDbArc
 50
0.0
 51
90.0
  0
ARC
  5
175
330
73
100
AcDbEntity
  8
LC-009-002-RND-0
  6
Continuous
 62
     7
100
AcDbCircle
 10
72.00008993170243
 20
18.20000000000005
 30
0.0
 40
0.5
100
AcDbArc
 50
0.0
 51
90.0
  0
ARC
  5
176
330
73
100
AcDbEntity
  8
LC-009-002-RND-0
  6
Continuous
 62
     7
100
AcDbCircle
 10
72.00008993170243
 20
22.70000000000005
 30
0.0
 40
0.5
100
AcDbArc
 50
0.0
 51
90.0
  0
ARC
  5
177
330
73
100
AcDbEntity
  8
LC-009-002-RND-0
  6
Continuous
 62
     7
100
AcDbCircle
 10
72.00008993170243
 20
27.20000000000005
 30
0.0
 40
0.5
100
AcDbArc
 50
0.0
 51
90.0
  0
ARC
  5
178
330
73
100
AcDbEntity
  8
LC-009-002-RND-0
  6
Continuous
 62
     7
100
AcDbCircle
 10
72.00008993170243
 20
31.70000000000005
 30
0.0
 40
0.5
100
AcDbArc
 50
0.0
 51
90.0
  0
ARC
  5
179
330
73
100
AcDbEntity
  8
LC-009-002-RND-0
  6
Continuous
 62
     7
100
AcDbCircle
 10
72.00008993170243
 20
36.20000000000005
 30
0.0
 40
0.5
100
AcDbArc
 50
0.0
 51
90.0
  0
ARC
  5
17A
330
73
100
AcDbEntity
  8
LC-009-002-RND-0
  6
Continuous
 62
     7
100
AcDbCircle
 10
72.00008993170243
 20
40.70000000000005
 30
0.0
 40
0.5
100
AcDbArc
 50
0.0
 51
90.0
  0
ARC
  5
17B
330
73
100
AcDbEntity
  8
LC-009-002-RND-0
  6
Continuous
 62
     7
100
AcDbCircle
 10
72.00008993170243
 20
45.20000000000005
 30
0.0
 40
0.5
100
AcDbArc
 50
0.0
 51
90.0
  0
ARC
  5
17C
330
73
100
AcDbEntity
  8
LC-009-002-RND-0
  6
Continuous
 62
     7
100
AcDbCircle
 10
72.00008993170243
 20
48.70000000000005
 30
0.0
 40
0.5
100
AcDbArc
 50
270.0
 51
0.0
  0
ARC
  5
17D
330
73
100
AcDbEntity
  8
LC-009-002-RND-0
  6
Continuous
 62
     7
100
AcDbCircle
 10
72.00008993170243
 20
44.20000000000005
 30
0.0
 40
0.5
100
AcDbArc
 50
270.0
 51
0.0
  0
ARC
  5
17E
330
73
100
AcDbEntity
  8
LC-009-002-RND-0
  6
Continuous
 62
     7
100
AcDbCircle
 10
72.00008993170243
 20
39.70000000000005
 30
0.0
 40
0.5
100
AcDbArc
 50
270.0
 51
0.0
  0
ARC
  5
17F
330
73
100
AcDbEntity
  8
LC-009-002-RND-0
  6
Continuous
 62
     7
100
AcDbCircle
 10
72.00008993170243
 20
35.20000000000005
 30
0.0
 40
0.5
100
AcDbArc
 50
270.0
 51
0.0
  0
ARC
  5
180
330
73
100
AcDbEntity
  8
LC-009-002-RND-0
  6
Continuous
 62
     7
100
AcDbCircle
 10
72.00008993170243
 20
30.70000000000005
 30
0.0
 40
0.5
100
AcDbArc
 50
270.0
 51
0.0
  0
ARC
  5
181
330
73
100
AcDbEntity
  8
LC-009-002-RND-0
  6
Continuous
 62
     7
100
AcDbCircle
 10
72.00008993170243
 20
26.20000000000005
 30
0.0
 40
0.5
100
AcDbArc
 50
270.0
 51
0.0
  0
ARC
  5
182
330
73
100
AcDbEntity
  8
LC-009-002-RND-0
  6
Continuous
 62
     7
100
AcDbCircle
 10
72.00008993170243
 20
21.70000000000005
 30
0.0
 40
0.5
100
AcDbArc
 50
270.0
 51
0.0
  0
ARC
  5
183
330
73
100
AcDbEntity
  8
LC-009-002-RND-0
  6
Continuous
 62
     7
100
AcDbCircle
 10
72.00008993170243
 20
12.70000000000005
 30
0.0
 40
0.5
100
AcDbArc
 50
270.0
 51
0.0
  0
ARC
  5
184
330
73
100
AcDbEntity
  8
LC-009-002-RND-0
  6
Continuous
 62
     7
100
AcDbCircle
 10
72.00008993170243
 20
17.20000000000005
 30
0.0
 40
0.5
100
AcDbArc
 50
270.0
 51
0.0
  0
ARC
  5
185
330
73
100
AcDbEntity
  8
LC-009-002-RND-0
  6
Continuous
 62
     7
100
AcDbCircle
 10
72.00008993170243
 20
8.19999999999999
 30
0.0
 40
0.5
100
AcDbArc
 50
270.0
 51
0.0
  0
ENDBLK
  5
75
330
73
100
AcDbEntity
  8
0
100
AcDbBlockEnd
  0
BLOCK
  5
78
330
76
100
AcDbEntity
  8
0
100
AcDbBlockBegin
  2
HL_66_0_Aufsatzrahmen
 70
     0
 10
0.00008993170244
 20
24.4119012381222
 30
0.0
  3
HL_66_0_Aufsatzrahmen
  1

  0
INSERT
  5
77
330
76
100
AcDbEntity
  8
1
100
AcDbBlockReference
  2
062B_2E_Aufsatzrahmen
 10
0.00008993170244
 20
24.4119012381222
 30
0.0
  0
ENDBLK
  5
79
330
76
100
AcDbEntity
  8
0
100
AcDbBlockEnd
  0
BLOCK
  5
7D
330
7A
100
AcDbEntity
  8
0
100
AcDbBlockBegin
  2
HL_62BH_2_DN125_Dachablauf
 70
     0
 10
-0.00003164297995
 20
-53.96629576112844
 30
0.0
  3
HL_62BH_2_DN125_Dachablauf
  1

  0
INSERT
  5
7B
330
7A
100
AcDbEntity
  8
0
100
AcDbBlockReference
  2
Körper
 10
0.00004449999994
 20
-42.42033239921389
 30
0.0
  0
INSERT
  5
7C
330
7A
100
AcDbEntity
  8
0
100
AcDbBlockReference
  2
HL_66_0_Aufsatzrahmen
 10
0.00008993170244
 20
24.4119012381222
 30
0.0
  0
DIMENSION
  5
191
330
7A
100
AcDbEntity
  8
1
100
AcDbDimension
280
     0
  2
*D5
 10
-160.751659
 20
-107.0266037984278
 30
0.0
 11
-167.751659
 21
-55.7883860010749
 31
0.0
 70
    32
  1
103
 71
     5
 42
-1.0
 73
     0
 74
     0
 75
     0
 53
90.0
  3
ME10_DIM_10
100
AcDbAlignedDimension
 13
-150.751659
 23
-3.00045699999998
 33
0.0
 14
-72.24985639872348
 24
-107.0266037984278
 34
0.0
 50
90.0
100
AcDbRotatedDimension
  0
DIMENSION
  5
19C
330
7A
100
AcDbEntity
  8
1
100
AcDbDimension
280
     0
  2
*D6
 10
-94.77100015462479
 20
-231.6242469364774
 30
0.0
 11
-1.64254048644212
 21
-224.624119159271
 31
0.0
 70
    32
  1
Ø190
 71
     5
 42
-1.0
 73
     0
 74
     0
 75
     0
 53
0.00013888888889
  3
ME10_DIM_11
100
AcDbAlignedDimension
 13
94.77146999999991
 23
-12.35769199999999
 33
0.0
 14
-94.771301
 24
-12.35769199999999
 34
0.0
 50
0.00007861285681
100
AcDbRotatedDimension
  0
DIMENSION
  5
1A7
330
7A
100
AcDbEntity
  8
1
100
AcDbDimension
280
     0
  2
*D7
 10
-249.7972005418534
 20
113.6912949837844
 30
0.0
 11
-5.10298717920072
 21
120.691630717266
 31
0.0
 70
    32
  1
500x500
 71
     5
 42
-1.0
 73
     0
 74
     0
 75
     0
 53
0.00013888888889
  3
ME10_DIM_12
100
AcDbAlignedDimension
 13
249.7971399999999
 23
4.69999999999999
 33
0.0
 14
-249.797051
 24
4.69999999999999
 34
0.0
 50
0.00007861285681
100
AcDbRotatedDimension
  0
DIMENSION
  5
1B2
330
7A
100
AcDbEntity
  8
1
100
AcDbDimension
280
     0
  2
*D8
 10
-73.49993293045884
 20
86.36273693514124
 30
0.0
 11
-3.115438291139
 21
93.36283350641793
 31
0.0
 70
    32
  1
150x150
 71
     5
 42
-1.0
 73
     0
 74
     0
 75
     0
 53
0.00013888888889
  3
ME10_DIM_13
100
AcDbAlignedDimension
 13
73.50008993170243
 23
69.70000000000005
 33
0.0
 14
-73.49991006829755
 24
69.70000000000005
 34
0.0
 50
0.00007861285681
100
AcDbRotatedDimension
  0
DIMENSION
  5
1BD
330
7A
100
AcDbEntity
  8
1
100
AcDbDimension
280
     0
  2
*D9
 10
-62.49981398278559
 20
-190.1696467640987
 30
0.0
 11
1.99631930780604
 21
-183.169558271967
 31
0.0
 70
    32
  1
<>
 71
     5
 42
-1.0
 73
     0
 74
     0
 75
     0
 53
0.00013888888889
  3
ME10_DIM_14
100
AcDbAlignedDimension
 13
62.50014260127651
 23
-158.5266037984278
 33
0.0
 14
-62.49985739872349
 24
-158.5266037984278
 34
0.0
 50
0.00007861285681
100
AcDbRotatedDimension
  0
DIMENSION
  5
1C8
330
7A
100
AcDbEntity
  8
1
100
AcDbDimension
280
     0
  2
*D10
 10
-80.24969641274733
 20
-213.6299380076512
 30
0.0
 11
-0.46205316480819
 21
-206.6298285347545
 31
0.0
 70
    32
  1
Ø160
 71
     5
 42
-1.0
 73
     0
 74
     0
 75
     0
 53
0.00013888888889
  3
ME10_DIM_15
100
AcDbAlignedDimension
 13
80.25014360127653
 23
-97.0266037984278
 33
0.0
 14
-80.24985639872348
 24
-97.0266037984278
 34
0.0
 50
0.00007861285681
100
AcDbRotatedDimension
  0
ENDBLK
  5
7E
330
7A
100
AcDbEntity
  8
0
100
AcDbBlockEnd
  0
BLOCK
  5
18E
330
186
100
AcDbEntity
  8
0
100
AcDbBlockBegin
  2
*D5
 70
     1
 10
0.0
 20
0.0
 30
0.0
  3
*D5
  1

  0
LINE
  5
187
330
186
100
AcDbEntity
  8
1
  6
Continuous
 62
     4
100
AcDbLine
 10
-160.751659
 20
-107.0266037984278
 30
0.0
 11
-160.751659
 21
-3.00045699999999
 31
0.0
  0
LINE
  5
188
330
186
100
AcDbEntity
  8
1
  6
Continuous
 62
     4
100
AcDbLine
 10
-150.751659
 20
-3.00045699999999
 30
0.0
 11
-162.751659
 21
-3.00045699999999
 31
0.0
  0
LINE
  5
189
330
186
100
AcDbEntity
  8
1
  6
Continuous
 62
     4
100
AcDbLine
 10
-72.24985639872348
 20
-107.0266037984278
 30
0.0
 11
-162.751659
 21
-107.0266037984278
 31
0.0
  0
SOLID
  5
18A
330
186
100
AcDbEntity
  8
1
 62
     4
100
AcDbTrace
 10
-162.0681839758739
 20
-97.0266037984278
 30
0.0
 11
-159.435134024126
 21
-97.0266037984278
 31
0.0
 12
-160.751659
 22
-107.0266037984278
 32
0.0
 13
-160.751659
 23
-107.0266037984278
 33
0.0
  0
SOLID
  5
18B
330
186
100
AcDbEntity
  8
1
 62
     4
100
AcDbTrace
 10
-159.435134024126
 20
-13.00045699999999
 30
0.0
 11
-162.0681839758739
 21
-13.00045699999999
 31
0.0
 12
-160.751659
 22
-3.00045699999999
 32
0.0
 13
-160.751659
 23
-3.00045699999999
 33
0.0
  0
MTEXT
  5
18D
330
186
100
AcDbEntity
  8
1
 62
     1
100
AcDbMText
 10
-162.751659
 20
-66.2883860010749
 30
0.0
 40
10.0
 41
0.0
 46
0.0
 71
     7
 72
     1
  1
103
  7
CONVERTER_11
 11
0.0
 21
1.0
 31
0.0
 73
     1
 44
0.60024009603842
  0
ENDBLK
  5
18F
330
186
100
AcDbEntity
  8
0
100
AcDbBlockEnd
  0
BLOCK
  5
199
330
192
100
AcDbEntity
  8
0
100
AcDbBlockBegin
  2
*D6
 70
     1
 10
0.0
 20
0.0
 30
0.0
  3
*D6
  1

  0
LINE
  5
193
330
192
100
AcDbEntity
  8
1
  6
Continuous
 62
     4
100
AcDbLine
 10
-94.77100015462479
 20
-231.6242469364774
 30
0.0
 11
94.7717708450183
 21
-231.6239868737146
 31
0.0
  0
LINE
  5
194
330
192
100
AcDbEntity
  8
1
  6
Continuous
 62
     4
100
AcDbLine
 10
-94.771301
 20
-12.35769200000001
 30
0.0
 11
-94.77099741051842
 21
-233.6242469364755
 31
0.0
  0
LINE
  5
195
330
192
100
AcDbEntity
  8
1
  6
Continuous
 62
     4
100
AcDbLine
 10
94.77146999999991
 20
-12.35769200000001
 30
0.0
 11
94.77177358912466
 21
-233.6239868737127
 31
0.0
  0
SOLID
  5
196
330
192
100
AcDbEntity
  8
1
 62
     4
100
AcDbTrace
 10
-84.77100196097649
 20
-230.3077082400728
 30
0.0
 11
-84.77099834829191
 21
-232.9407581918182
 31
0.0
 12
-94.77100015462479
 22
-231.6242469364774
 32
0.0
 13
-94.77100015462479
 23
-231.6242469364774
 33
0.0
  0
SOLID
  5
197
330
192
100
AcDbEntity
  8
1
 62
     4
100
AcDbTrace
 10
84.77177265137
 20
-232.9405255701192
 30
0.0
 11
84.77176903868542
 21
-230.3074756183738
 31
0.0
 12
94.7717708450183
 22
-231.6239868737146
 32
0.0
 13
94.7717708450183
 23
-231.6239868737146
 33
0.0
  0
MTEXT
  5
198
330
192
100
AcDbEntity
  8
1
 62
     1
100
AcDbMText
 10
-14.34253362614786
 20
-229.6241452108666
 30
0.0
 40
10.0
 41
0.0
 46
0.0
 71
     7
 72
     1
  1
\C1;%%c\C1;190
  7
CONVERTER_11
 11
0.9999999999970621
 21
2.424068405545307E-6
 31
0.0
 73
     1
 44
0.60024009603842
  0
ENDBLK
  5
19A
330
192
100
AcDbEntity
  8
0
100
AcDbBlockEnd
  0
BLOCK
  5
1A4
330
19D
100
AcDbEntity
  8
0
100
AcDbBlockBegin
  2
*D7
 70
     1
 10
0.0
 20
0.0
 30
0.0
  3
*D7
  1

  0
LINE
  5
19E
330
19D
100
AcDbEntity
  8
1
  6
Continuous
 62
     4
100
AcDbLine
 10
-249.7972005418534
 20
113.6912949837844
 30
0.0
 11
249.7969904572059
 21
113.6919804535857
 31
0.0
  0
LINE
  5
19F
330
19D
100
AcDbEntity
  8
1
  6
Continuous
 62
     4
100
AcDbLine
 10
-249.797051
 20
4.69999999999999
 30
0.0
 11
-249.7972032859598
 21
115.6912949837826
 31
0.0
  0
LINE
  5
1A0
330
19D
100
AcDbEntity
  8
1
  6
Continuous
 62
     4
100
AcDbLine
 10
249.7971399999999
 20
4.69999999999999
 30
0.0
 11
249.7969877130996
 21
115.6919804535839
 31
0.0
  0
SOLID
  5
1A1
330
19D
100
AcDbEntity
  8
1
 62
     4
100
AcDbTrace
 10
-239.7972023482051
 20
115.0078336801891
 30
0.0
 11
-239.7971987355205
 21
112.3747837284436
 31
0.0
 12
-249.7972005418534
 22
113.6912949837844
 32
0.0
 13
-249.7972005418534
 23
113.6912949837844
 33
0.0
  0
SOLID
  5
1A2
330
19D
100
AcDbEntity
  8
1
 62
     4
100
AcDbTrace
 10
239.7969922635576
 20
112.3754417571811
 30
0.0
 11
239.796988650873
 21
115.0084917089266
 31
0.0
 12
249.7969904572059
 22
113.6919804535857
 32
0.0
 13
249.7969904572059
 23
113.6919804535857
 33
0.0
  0
MTEXT
  5
1A3
330
19D
100
AcDbEntity
  8
1
 62
     1
100
AcDbMText
 10
-36.10298031890562
 20
115.6915881836219
 30
0.0
 40
10.0
 41
0.0
 46
0.0
 71
     7
 72
     1
  1
\C1;\C1;500\C1;x500
  7
CONVERTER_11
 11
0.9999999999970621
 21
2.424068405545307E-6
 31
0.0
 73
     1
 44
0.60024009603842
  0
ENDBLK
  5
1A5
330
19D
100
AcDbEntity
  8
0
100
AcDbBlockEnd
  0
BLOCK
  5
1AF
330
1A8
100
AcDbEntity
  8
0
100
AcDbBlockBegin
  2
*D8
 70
     1
 10
0.0
 20
0.0
 30
0.0
  3
*D8
  1

  0
LINE
  5
1A9
330
1A8
100
AcDbEntity
  8
1
  6
Continuous
 62
     4
100
AcDbLine
 10
-73.49993293045884
 20
86.36273693514124
 30
0.0
 11
73.5000670692644
 21
86.36293862695953
 31
0.0
  0
LINE
  5
1AA
330
1A8
100
AcDbEntity
  8
1
  6
Continuous
 62
     4
100
AcDbLine
 10
-73.49991006829755
 20
69.69999999999993
 30
0.0
 11
-73.49993567456521
 21
88.36273693513937
 31
0.0
  0
LINE
  5
1AB
330
1A8
100
AcDbEntity
  8
1
  6
Continuous
 62
     4
100
AcDbLine
 10
73.50008993170243
 20
69.69999999999993
 30
0.0
 11
73.50006432515804
 21
88.36293862695766
 31
0.0
  0
SOLID
  5
1AC
330
1A8
100
AcDbEntity
  8
1
 62
     4
100
AcDbTrace
 10
-63.49993473681054
 20
87.67927563154588
 30
0.0
 11
-63.49993112412596
 21
85.04622567980043
 31
0.0
 12
-73.49993293045884
 22
86.36273693514124
 32
0.0
 13
-73.49993293045884
 23
86.36273693514124
 33
0.0
  0
SOLID
  5
1AD
330
1A8
100
AcDbEntity
  8
1
 62
     4
100
AcDbTrace
 10
63.50006887561611
 20
85.04639993055491
 30
0.0
 11
63.50006526293152
 21
87.67944988230035
 31
0.0
 12
73.5000670692644
 22
86.36293862695953
 32
0.0
 13
73.5000670692644
 23
86.36293862695953
 33
0.0
  0
MTEXT
  5
1AE
330
1A8
100
AcDbEntity
  8
1
 62
     1
100
AcDbMText
 10
-30.11543143084766
 20
88.36279646098662
 30
0.0
 40
10.0
 41
0.0
 46
0.0
 71
     7
 72
     1
  1
150x150
  7
CONVERTER_11
 11
0.9999999999970621
 21
2.424068405545307E-6
 31
0.0
 73
     1
 44
0.60024009603842
  0
ENDBLK
  5
1B0
330
1A8
100
AcDbEntity
  8
0
100
AcDbBlockEnd
  0
BLOCK
  5
1BA
330
1B3
100
AcDbEntity
  8
0
100
AcDbBlockBegin
  2
*D9
 70
     1
 10
0.0
 20
0.0
 30
0.0
  3
*D9
  1

  0
LINE
  5
1B4
330
1B3
100
AcDbEntity
  8
1
  6
Continuous
 62
     4
100
AcDbLine
 10
-62.49981398278559
 20
-190.1696467640987
 30
0.0
 11
62.5001860169791
 21
-190.1694752574505
 31
0.0
  0
LINE
  5
1B5
330
1B3
100
AcDbEntity
  8
1
  6
Continuous
 62
     4
100
AcDbLine
 10
-62.4998573987235
 20
-158.5266037984278
 30
0.0
 11
-62.49981123867921
 21
-192.1696467640969
 31
0.0
  0
LINE
  5
1B6
330
1B3
100
AcDbEntity
  8
1
  6
Continuous
 62
     4
100
AcDbLine
 10
62.5001426012765
 20
-158.5266037984278
 30
0.0
 11
62.50018876108548
 21
-192.1694752574486
 31
0.0
  0
SOLID
  5
1B7
330
1B3
100
AcDbEntity
  8
1
 62
     4
100
AcDbTrace
 10
-52.4998157891373
 20
-188.8531080676941
 30
0.0
 11
-52.49981217645271
 21
-191.4861580194395
 31
0.0
 12
-62.49981398278559
 22
-190.1696467640987
 32
0.0
 13
-62.49981398278559
 23
-190.1696467640987
 33
0.0
  0
SOLID
  5
1B8
330
1B3
100
AcDbEntity
  8
1
 62
     4
100
AcDbTrace
 10
52.5001878233308
 20
-191.4860139538551
 30
0.0
 11
52.50018421064622
 21
-188.8529640021097
 31
0.0
 12
62.5001860169791
 22
-190.1694752574505
 32
0.0
 13
62.5001860169791
 23
-190.1694752574505
 33
0.0
  0
MTEXT
  5
1B9
330
1B3
100
AcDbEntity
  8
1
 62
     1
100
AcDbMText
 10
-13.90367383188031
 20
-188.1695973406576
 30
0.0
 40
10.0
 41
0.0
 46
0.0
 71
     7
 72
     1
  1
\C1;DN\C1;125
  7
CONVERTER_11
 11
0.9999999999970621
 21
2.424068405545307E-6
 31
0.0
 73
     1
 44
0.60024009603842
  0
ENDBLK
  5
1BB
330
1B3
100
AcDbEntity
  8
0
100
AcDbBlockEnd
  0
BLOCK
  5
1C5
330
1BE
100
AcDbEntity
  8
0
100
AcDbBlockBegin
  2
*D10
 70
     1
 10
0.0
 20
0.0
 30
0.0
  3
*D10
  1

  0
LINE
  5
1BF
330
1BE
100
AcDbEntity
  8
1
  6
Continuous
 62
     4
100
AcDbLine
 10
-80.24969641274733
 20
-213.6299380076512
 30
0.0
 11
80.25030358695055
 21
-213.6297177931149
 31
0.0
  0
LINE
  5
1C0
330
1BE
100
AcDbEntity
  8
1
  6
Continuous
 62
     4
100
AcDbLine
 10
-80.24985639872348
 20
-97.0266037984278
 30
0.0
 11
-80.24969366864096
 21
-215.6299380076493
 31
0.0
  0
LINE
  5
1C1
330
1BE
100
AcDbEntity
  8
1
  6
Continuous
 62
     4
100
AcDbLine
 10
80.25014360127653
 20
-97.0266037984278
 30
0.0
 11
80.25030633105692
 21
-215.629717793113
 31
0.0
  0
SOLID
  5
1C2
330
1BE
100
AcDbEntity
  8
1
 62
     4
100
AcDbTrace
 10
-70.24969821909903
 20
-212.3133993112466
 30
0.0
 11
-70.24969460641445
 21
-214.946449262992
 31
0.0
 12
-80.24969641274733
 22
-213.6299380076512
 32
0.0
 13
-80.24969641274733
 23
-213.6299380076512
 33
0.0
  0
SOLID
  5
1C3
330
1BE
100
AcDbEntity
  8
1
 62
     4
100
AcDbTrace
 10
70.25030539330226
 20
-214.9462564895195
 30
0.0
 11
70.25030178061768
 21
-212.3132065377741
 31
0.0
 12
80.25030358695055
 22
-213.6297177931149
 32
0.0
 13
80.25030358695055
 23
-213.6297177931149
 33
0.0
  0
MTEXT
  5
1C4
330
1BE
100
AcDbEntity
  8
1
 62
     1
100
AcDbMText
 10
-13.16204630451393
 20
-211.6298545863501
 30
0.0
 40
10.0
 41
0.0
 46
0.0
 71
     7
 72
     1
  1
\C1;%%c\C1;160
  7
CONVERTER_11
 11
0.9999999999970621
 21
2.424068405545307E-6
 31
0.0
 73
     1
 44
0.60024009603842
  0
ENDBLK
  5
1C6
330
1BE
100
AcDbEntity
  8
0
100
AcDbBlockEnd
  0
ENDSEC
  0
SECTION
  2
ENTITIES
  0
INSERT
  5
7F
330
1F
100
AcDbEntity
  8
0
100
AcDbBlockReference
  2
HL_62BH_2_DN125_Dachablauf
 10
-0.00003164297995
 20
-53.96629576112844
 30
0.0
  0
ENDSEC
  0
SECTION
  2
OBJECTS
  0
DICTIONARY
  5
C
330
0
100
AcDbDictionary
281
     1
  3
ACAD_DETAILVIEWSTYLE
350
1D0
  3
ACAD_GROUP
350
D
  3
ACAD_LAYOUT
350
1A
  3
ACAD_MATERIAL
350
43
  3
ACAD_MLEADERSTYLE
350
5B
  3
ACAD_MLINESTYLE
350
17
  3
ACAD_PLOTSETTINGS
350
19
  3
ACAD_PLOTSTYLENAME
350
E
  3
ACAD_SCALELIST
350
47
  3
ACAD_SECTIONVIEWSTYLE
350
1D1
  3
ACAD_TABLESTYLE
350
59
  3
ACAD_VISUALSTYLE
350
2A
  3
ACDB_RECOMPOSE_DATA
350
1CD
  3
AcDbVariableDictionary
350
1C9
  0
SUN
  5
5D
330
29
100
AcDbSun
 90
        1
290
     0
 63
     7
421
 16777215
 40
1.0
291
     1
 91
  2455826
 92
 54000000
292
     0
 70
     2
 71
   256
280
     1
  0
DICTIONARY
  5
1D0
102
{ACAD_REACTORS
330
C
102
}
330
C
100
AcDbDictionary
281
     1
  0
DICTIONARY
  5
D
102
{ACAD_REACTORS
330
C
102
}
330
C
100
AcDbDictionary
281
     1
  0
DICTIONARY
  5
1A
102
{ACAD_REACTORS
330
C
102
}
330
C
100
AcDbDictionary
281
     1
  3
Layout1
350
1E
  3
Layout2
350
26
  3
Model
350
22
  0
DICTIONARY
  5
43
102
{ACAD_REACTORS
330
C
102
}
330
C
100
AcDbDictionary
281
     1
  3
ByBlock
350
45
  3
ByLayer
350
44
  3
Global
350
46
  0
DICTIONARY
  5
5B
102
{ACAD_REACTORS
330
C
102
}
330
C
100
AcDbDictionary
281
     1
  3
Standard
350
5C
  0
DICTIONARY
  5
17
102
{ACAD_REACTORS
330
C
102
}
330
C
100
AcDbDictionary
281
     1
  3
Standard
350
18
  0
DICTIONARY
  5
19
102
{ACAD_REACTORS
330
C
102
}
330
C
100
AcDbDictionary
281
     1
  0
ACDBDICTIONARYWDFLT
  5
E
102
{ACAD_REACTORS
330
C
102
}
330
C
100
AcDbDictionary
281
     1
  3
Normal
350
F
100
AcDbDictionaryWithDefault
340
F
  0
DICTIONARY
  5
47
102
{ACAD_REACTORS
330
C
102
}
330
C
100
AcDbDictionary
281
     1
  3
A0
350
48
  3
A1
350
49
  3
A2
350
4A
  3
A3
350
4B
  3
A4
350
4C
  3
A5
350
4D
  3
A6
350
4E
  3
A7
350
4F
  3
A8
350
50
  3
A9
350
51
  3
B1
350
52
  3
B2
350
53
  3
B3
350
54
  3
B4
350
55
  3
B5
350
56
  3
B6
350
57
  3
B7
350
58
  0
DICTIONARY
  5
1D1
102
{ACAD_REACTORS
330
C
102
}
330
C
100
AcDbDictionary
281
     1
  0
DICTIONARY
  5
59
102
{ACAD_REACTORS
330
C
102
}
330
C
100
AcDbDictionary
281
     1
  3
Standard
350
5A
  0
DICTIONARY
  5
2A
102
{ACAD_REACTORS
330
C
102
}
330
C
100
AcDbDictionary
281
     1
  3
2dWireframe
350
2F
  3
Basic
350
32
  3
Brighten
350
36
  3
ColorChange
350
3A
  3
Conceptual
350
34
  3
Dim
350
35
  3
EdgeColorOff
350
3D
  3
Facepattern
350
39
  3
Flat
350
2B
  3
FlatWithEdges
350
2C
  3
Gouraud
350
2D
  3
GouraudWithEdges
350
2E
  3
Hidden
350
31
  3
JitterOff
350
3B
  3
Linepattern
350
38
  3
OverhangOff
350
3C
  3
Realistic
350
33
  3
Shaded
350
42
  3
Shaded with edges
350
41
  3
Shades of Gray
350
3E
  3
Sketchy
350
3F
  3
Thicken
350
37
  3
Wireframe
350
30
  3
X-Ray
350
40
  0
XRECORD
  5
1CD
102
{ACAD_REACTORS
330
C
102
}
330
C
100
AcDbXrecord
280
     1
 90
        1
330
5A
  0
DICTIONARY
  5
1C9
102
{ACAD_REACTORS
330
C
102
}
330
C
100
AcDbDictionary
281
     1
  3
CANNOSCALE
350
1CA
  3
CMLEADERSTYLE
350
1CF
  3
CTABLESTYLE
350
1CE
  0
LAYOUT
  5
1E
102
{ACAD_REACTORS
330
1A
102
}
330
1A
100
AcDbPlotSettings
  1

  2
none_device
  4

  6

 40
0.0
 41
0.0
 42
0.0
 43
0.0
 44
0.0
 45
0.0
 46
0.0
 47
0.0
 48
0.0
 49
0.0
140
0.0
141
0.0
142
1.0
143
1.0
 70
   688
 72
     0
 73
     0
 74
     5
  7

 75
    16
 76
     0
 77
     2
 78
   300
147
1.0
148
0.0
149
0.0
100
AcDbLayout
  1
Layout1
 70
     1
 71
     1
 10
0.0
 20
0.0
 11
12.0
 21
9.0
 12
0.0
 22
0.0
 32
0.0
 14
1.00000000000000E+20
 24
1.00000000000000E+20
 34
1.00000000000000E+20
 15
-1.00000000000000E+20
 25
-1.00000000000000E+20
 35
-1.00000000000000E+20
146
0.0
 13
0.0
 23
0.0
 33
0.0
 16
1.0
 26
0.0
 36
0.0
 17
0.0
 27
1.0
 37
0.0
 76
     0
330
1B
  0
LAYOUT
  5
26
102
{ACAD_REACTORS
330
1A
102
}
330
1A
100
AcDbPlotSettings
  1

  2
none_device
  4

  6

 40
0.0
 41
0.0
 42
0.0
 43
0.0
 44
0.0
 45
0.0
 46
0.0
 47
0.0
 48
0.0
 49
0.0
140
0.0
141
0.0
142
1.0
143
1.0
 70
   688
 72
     0
 73
     0
 74
     5
  7

 75
    16
 76
     0
 77
     2
 78
   300
147
1.0
148
0.0
149
0.0
100
AcDbLayout
  1
Layout2
 70
     1
 71
     2
 10
0.0
 20
0.0
 11
0.0
 21
0.0
 12
0.0
 22
0.0
 32
0.0
 14
0.0
 24
0.0
 34
0.0
 15
0.0
 25
0.0
 35
0.0
146
0.0
 13
0.0
 23
0.0
 33
0.0
 16
1.0
 26
0.0
 36
0.0
 17
0.0
 27
1.0
 37
0.0
 76
     0
330
23
  0
LAYOUT
  5
22
102
{ACAD_REACTORS
330
1A
102
}
330
1A
100
AcDbPlotSettings
  1

  2
none_device
  4
Letter_(8.50_x_11.00_Inches)
  6

 40
6.35
 41
6.35
 42
6.35000508
 43
6.35000508
 44
215.9
 45
279.4
 46
0.0
 47
0.0
 48
0.0
 49
0.0
140
0.0
141
0.0
142
1.0
143
1.0
 70
  1712
 72
     0
 73
     0
 74
     0
  7

 75
     0
 76
     0
 77
     2
 78
   300
147
1.0
148
0.0
149
0.0
100
AcDbLayout
  1
Model
 70
     1
 71
     0
 10
0.0
 20
0.0
 11
12.0
 21
9.0
 12
0.0
 22
0.0
 32
0.0
 14
-249.7972032859598
 24
-233.6242469364755
 34
0.0
 15
249.7971399999999
 25
125.69167325091
 35
0.0
146
0.0
 13
0.0
 23
0.0
 33
0.0
 16
1.0
 26
0.0
 36
0.0
 17
0.0
 27
1.0
 37
0.0
 76
     0
330
1F
331
29
  0
MATERIAL
  5
45
102
{ACAD_REACTORS
330
43
102
}
330
43
100
AcDbMaterial
  1
ByBlock
 72
     1
 94
      127
  0
MATERIAL
  5
44
102
{ACAD_REACTORS
330
43
102
}
330
43
100
AcDbMaterial
  1
ByLayer
 72
     1
 94
      127
  0
MATERIAL
  5
46
102
{ACAD_REACTORS
330
43
102
}
330
43
100
AcDbMaterial
  1
Global
 72
     1
 94
      127
  0
MLEADERSTYLE
  5
5C
102
{ACAD_REACTORS
330
5B
102
}
330
5B
100
AcDbMLeaderStyle
179
     2
170
     2
171
     1
172
     0
 90
        2
 40
0.0
 41
0.0
173
     1
 91
-1056964608
340
14
 92
       -2
290
     1
 42
0.09
291
     1
 43
0.36
  3
Standard
341
0
 44
0.18
300

342
11
174
     1
178
     6
175
     1
176
     0
 93
-1056964608
 45
0.18
292
     0
297
     0
 46
0.18
343
0
 94
-1056964608
 47
1.0
 49
1.0
140
1.0
293
     1
141
0.0
294
     1
177
     0
142
1.0
295
     0
296
     0
143
0.125
271
     0
272
     9
273
     9
298
     0
  0
MLINESTYLE
  5
18
102
{ACAD_REACTORS
330
17
102
}
330
17
100
AcDbMlineStyle
  2
Standard
 70
     0
  3

 62
   256
 51
90.0
 52
90.0
 71
     2
 49
0.5
 62
   256
  6
BYLAYER
 49
-0.5
 62
   256
  6
BYLAYER
  0
ACDBPLACEHOLDER
  5
F
102
{ACAD_REACTORS
330
E
102
}
330
E
  0
SCALE
  5
48
102
{ACAD_REACTORS
330
47
102
}
330
47
100
AcDbScale
 70
     0
300
1:1
140
1.0
141
1.0
290
     1
  0
SCALE
  5
49
102
{ACAD_REACTORS
330
47
102
}
330
47
100
AcDbScale
 70
     0
300
1/128" = 1'-0"
140
0.0078125
141
12.0
290
     0
  0
SCALE
  5
4A
102
{ACAD_REACTORS
330
47
102
}
330
47
100
AcDbScale
 70
     0
300
1/64" = 1'-0"
140
0.015625
141
12.0
290
     0
  0
SCALE
  5
4B
102
{ACAD_REACTORS
330
47
102
}
330
47
100
AcDbScale
 70
     0
300
1/32" = 1'-0"
140
0.03125
141
12.0
290
     0
  0
SCALE
  5
4C
102
{ACAD_REACTORS
330
47
102
}
330
47
100
AcDbScale
 70
     0
300
1/16" = 1'-0"
140
0.0625
141
12.0
290
     0
  0
SCALE
  5
4D
102
{ACAD_REACTORS
330
47
102
}
330
47
100
AcDbScale
 70
     0
300
3/32" = 1'-0"
140
0.09375
141
12.0
290
     0
  0
SCALE
  5
4E
102
{ACAD_REACTORS
330
47
102
}
330
47
100
AcDbScale
 70
     0
300
1/8" = 1'-0"
140
0.125
141
12.0
290
     0
  0
SCALE
  5
4F
102
{ACAD_REACTORS
330
47
102
}
330
47
100
AcDbScale
 70
     0
300
3/16" = 1'-0"
140
0.1875
141
12.0
290
     0
  0
SCALE
  5
50
102
{ACAD_REACTORS
330
47
102
}
330
47
100
AcDbScale
 70
     0
300
1/4" = 1'-0"
140
0.25
141
12.0
290
     0
  0
SCALE
  5
51
102
{ACAD_REACTORS
330
47
102
}
330
47
100
AcDbScale
 70
     0
300
3/8" = 1'-0"
140
0.375
141
12.0
290
     0
  0
SCALE
  5
52
102
{ACAD_REACTORS
330
47
102
}
330
47
100
AcDbScale
 70
     0
300
1/2" = 1'-0"
140
0.5
141
12.0
290
     0
  0
SCALE
  5
53
102
{ACAD_REACTORS
330
47
102
}
330
47
100
AcDbScale
 70
     0
300
3/4" = 1'-0"
140
0.75
141
12.0
290
     0
  0
SCALE
  5
54
102
{ACAD_REACTORS
330
47
102
}
330
47
100
AcDbScale
 70
     0
300
1" = 1'-0"
140
1.0
141
12.0
290
     0
  0
SCALE
  5
55
102
{ACAD_REACTORS
330
47
102
}
330
47
100
AcDbScale
 70
     0
300
1-1/2" = 1'-0"
140
1.5
141
12.0
290
     0
  0
SCALE
  5
56
102
{ACAD_REACTORS
330
47
102
}
330
47
100
AcDbScale
 70
     0
300
3" = 1'-0"
140
3.0
141
12.0
290
     0
  0
SCALE
  5
57
102
{ACAD_REACTORS
330
47
102
}
330
47
100
AcDbScale
 70
     0
300
6" = 1'-0"
140
6.0
141
12.0
290
     0
  0
SCALE
  5
58
102
{ACAD_REACTORS
330
47
102
}
330
47
100
AcDbScale
 70
     0
300
1'-0" = 1'-0"
140
12.0
141
12.0
290
     0
  0
TABLESTYLE
  5
5A
102
{ACAD_REACTORS
330
59
102
}
102
{ACAD_XDICTIONARY
360
1CB
102
}
330
59
100
AcDbTableStyle
  3
Standard
 70
     0
 71
     0
 40
0.06
 41
0.06
280
     0
281
     0
  7
Standard
140
0.18
170
     2
 62
     0
 63
   257
283
     0
 90
        4
 91
        0
  1

274
    -2
284
     1
 64
     0
275
    -2
285
     1
 65
     0
276
    -2
286
     1
 66
     0
277
    -2
287
     1
 67
     0
278
    -2
288
     1
 68
     0
279
    -2
289
     1
 69
     0
  7
Standard
140
0.25
170
     5
 62
     0
 63
   257
283
     0
 90
        4
 91
        0
  1

274
    -2
284
     1
 64
     0
275
    -2
285
     1
 65
     0
276
    -2
286
     1
 66
     0
277
    -2
287
     1
 67
     0
278
    -2
288
     1
 68
     0
279
    -2
289
     1
 69
     0
  7
Standard
140
0.18
170
     5
 62
     0
 63
   257
283
     0
 90
        4
 91
        0
  1

274
    -2
284
     1
 64
     0
275
    -2
285
     1
 65
     0
276
    -2
286
     1
 66
     0
277
    -2
287
     1
 67
     0
278
    -2
288
     1
 68
     0
279
    -2
289
     1
 69
     0
  0
VISUALSTYLE
  5
2F
102
{ACAD_REACTORS
330
2A
102
}
330
2A
100
AcDbVisualStyle
  2
2dWireframe
 70
     4
177
     3
291
     0
 70
    58
 90
        0
176
     1
 90
        2
176
     1
 90
        0
176
     1
 90
        0
176
     1
 40
0.6
176
     1
 40
30.0
176
     1
 62
     7
420
 16777215
176
     1
 90
        1
176
     1
 90
        4
176
     1
 62
     7
176
     1
 62
   257
176
     1
 90
        1
176
     1
 90
        1
176
     1
 40
1.0
176
     1
 90
        0
176
     1
 62
   257
176
     1
 40
1.0
176
     1
 90
        1
176
     1
 90
        6
176
     1
 90
        2
176
     1
 62
     7
176
     1
 90
        5
176
     1
 90
        0
176
     1
 90
        0
176
     1
290
     0
176
     1
 90
        1
176
     1
 40
0.0
176
     1
 90
        0
176
     1
290
     1
176
     1
290
     1
176
     1
290
     0
176
     1
290
     0
176
     1
290
     0
176
     1
290
     0
176
     1
290
     0
176
     1
290
     0
176
     1
290
     0
176
     1
 90
       50
176
     1
 40
0.0
176
     1
 40
1.0
176
     1
 90
        0
176
     1
 62
    18
420
        0
176
     1
 90
       50
176
     1
 90
        3
176
     1
 62
     5
420
      255
176
     1
290
     0
176
     1
 90
       50
176
     1
 90
       50
176
     1
 90
       50
176
     1
290
     0
176
     1
 90
       50
176
     1
 62
   256
176
     0
 40
1.0
176
     0
 90
        2
176
     1
  1
strokes_ogs.tif
176
     1
290
     0
176
     1
 40
1.0
176
     1
 40
1.0
176
     1
  0
VISUALSTYLE
  5
32
102
{ACAD_REACTORS
330
2A
102
}
330
2A
100
AcDbVisualStyle
  2
Basic
 70
     7
177
     3
291
     1
 70
    58
 90
        1
176
     1
 90
        0
176
     1
 90
        1
176
     1
 90
        0
176
     1
 40
0.6
176
     1
 40
30.0
176
     1
 62
     7
420
 16777215
176
     1
 90
        0
176
     1
 90
        4
176
     1
 62
     7
176
     1
 62
   257
176
     1
 90
        1
176
     1
 90
        1
176
     1
 40
1.0
176
     1
 90
        8
176
     1
 62
     7
176
     1
 40
1.0
176
     1
 90
        1
176
     1
 90
        6
176
     1
 90
        2
176
     1
 62
     7
176
     1
 90
        5
176
     1
 90
        0
176
     1
 90
        0
176
     1
290
     0
176
     1
 90
        1
176
     1
 40
0.0
176
     1
 90
        0
176
     1
290
     0
176
     1
290
     1
176
     1
290
     1
176
     1
290
     0
176
     1
290
     0
176
     1
290
     0
176
     1
290
     0
176
     1
290
     0
176
     1
290
     0
176
     1
 90
       50
176
     1
 40
0.0
176
     1
 40
1.0
176
     1
 90
        0
176
     1
 62
    18
420
        0
176
     1
 90
       50
176
     1
 90
        3
176
     1
 62
     5
420
      255
176
     1
290
     0
176
     1
 90
       50
176
     1
 90
       50
176
     1
 90
       50
176
     1
290
     0
176
     1
 90
       50
176
     1
 62
   256
176
     0
 40
1.0
176
     0
 90
        2
176
     1
  1
strokes_ogs.tif
176
     1
290
     0
176
     1
 40
1.0
176
     1
 40
1.0
176
     1
  0
VISUALSTYLE
  5
36
102
{ACAD_REACTORS
330
2A
102
}
330
2A
100
AcDbVisualStyle
  2
Brighten
 70
    12
177
     3
291
     1
 70
    58
 90
        2
176
     1
 90
        2
176
     1
 90
        0
176
     1
 90
        0
176
     1
 40
0.6
176
     1
 40
30.0
176
     1
 62
     7
420
 16777215
176
     1
 90
        1
176
     1
 90
        4
176
     1
 62
     7
176
     1
 62
   257
176
     1
 90
        1
176
     1
 90
        1
176
     1
 40
1.0
176
     1
 90
        8
176
     1
 62
     7
176
     1
 40
1.0
176
     1
 90
        1
176
     1
 90
        6
176
     1
 90
        2
176
     1
 62
     7
176
     1
 90
        5
176
     1
 90
        0
176
     1
 90
        0
176
     1
290
     0
176
     1
 90
        1
176
     1
 40
50.0
176
     1
 90
        0
176
     1
290
     0
176
     1
290
     1
176
     1
290
     1
176
     1
290
     0
176
     1
290
     0
176
     1
290
     0
176
     1
290
     0
176
     1
290
     0
176
     1
290
     0
176
     1
 90
       50
176
     1
 40
0.0
176
     1
 40
1.0
176
     1
 90
        0
176
     1
 62
    18
420
        0
176
     1
 90
       50
176
     1
 90
        3
176
     1
 62
     5
420
      255
176
     1
290
     0
176
     1
 90
       50
176
     1
 90
       50
176
     1
 90
       50
176
     1
290
     0
176
     1
 90
       50
176
     1
 62
   256
176
     0
 40
1.0
176
     0
 90
        2
176
     1
  1
strokes_ogs.tif
176
     1
290
     0
176
     1
 40
1.0
176
     1
 40
1.0
176
     1
  0
VISUALSTYLE
  5
3A
102
{ACAD_REACTORS
330
2A
102
}
330
2A
100
AcDbVisualStyle
  2
ColorChange
 70
    16
177
     3
291
     1
 70
    58
 90
        2
176
     1
 90
        2
176
     1
 90
        3
176
     1
 90
        0
176
     1
 40
0.6
176
     1
 40
30.0
176
     1
 62
     8
420
  8421504
176
     1
 90
        1
176
     1
 90
        4
176
     1
 62
     7
176
     1
 62
   257
176
     1
 90
        1
176
     1
 90
        1
176
     1
 40
1.0
176
     1
 90
        8
176
     1
 62
     8
420
  8421504
176
     1
 40
1.0
176
     1
 90
        1
176
     1
 90
        6
176
     1
 90
        2
176
     1
 62
     7
176
     1
 90
        5
176
     1
 90
        0
176
     1
 90
        0
176
     1
290
     0
176
     1
 90
        1
176
     1
 40
0.0
176
     1
 90
        0
176
     1
290
     0
176
     1
290
     1
176
     1
290
     1
176
     1
290
     0
176
     1
290
     0
176
     1
290
     0
176
     1
290
     0
176
     1
290
     0
176
     1
290
     0
176
     1
 90
       50
176
     1
 40
0.0
176
     1
 40
1.0
176
     1
 90
        0
176
     1
 62
    18
420
        0
176
     1
 90
       50
176
     1
 90
        3
176
     1
 62
     5
420
      255
176
     1
290
     0
176
     1
 90
       50
176
     1
 90
       50
176
     1
 90
       50
176
     1
290
     0
176
     1
 90
       50
176
     1
 62
   256
176
     0
 40
1.0
176
     0
 90
        2
176
     1
  1
strokes_ogs.tif
176
     1
290
     0
176
     1
 40
1.0
176
     1
 40
1.0
176
     1
  0
VISUALSTYLE
  5
34
102
{ACAD_REACTORS
330
2A
102
}
330
2A
100
AcDbVisualStyle
  2
Conceptual
 70
     9
177
     3
291
     0
 70
    58
 90
        3
176
     1
 90
        2
176
     1
 90
        0
176
     1
 90
        0
176
     1
 40
0.6
176
     1
 40
30.0
176
     1
 62
     7
420
 16777215
176
     1
 90
        2
176
     1
 90
        2
176
     1
 62
     7
176
     1
 62
   257
176
     1
 90
        1
176
     1
 90
        1
176
     1
 40
179.0
176
     1
 90
        8
176
     1
 62
     7
176
     1
 40
1.0
176
     1
 90
        1
176
     1
 90
        6
176
     1
 90
        2
176
     1
 62
     7
176
     1
 90
        3
176
     1
 90
        0
176
     1
 90
        0
176
     1
290
     0
176
     1
 90
        1
176
     1
 40
0.0
176
     1
 90
        0
176
     1
290
     0
176
     1
290
     1
176
     1
290
     1
176
     1
290
     0
176
     1
290
     0
176
     1
290
     0
176
     1
290
     0
176
     1
290
     0
176
     1
290
     0
176
     1
 90
       50
176
     1
 40
0.0
176
     1
 40
1.0
176
     1
 90
        0
176
     1
 62
    18
420
        0
176
     1
 90
       50
176
     1
 90
        3
176
     1
 62
     5
420
      255
176
     1
290
     0
176
     1
 90
       50
176
     1
 90
       50
176
     1
 90
       50
176
     1
290
     0
176
     1
 90
       50
176
     1
 62
   256
176
     0
 40
1.0
176
     0
 90
        2
176
     1
  1
strokes_ogs.tif
176
     1
290
     0
176
     1
 40
1.0
176
     1
 40
1.0
176
     1
  0
VISUALSTYLE
  5
35
102
{ACAD_REACTORS
330
2A
102
}
330
2A
100
AcDbVisualStyle
  2
Dim
 70
    11
177
     3
291
     1
 70
    58
 90
        2
176
     1
 90
        2
176
     1
 90
        0
176
     1
 90
        0
176
     1
 40
0.6
176
     1
 40
30.0
176
     1
 62
     7
420
 16777215
176
     1
 90
        1
176
     1
 90
        4
176
     1
 62
     7
176
     1
 62
   257
176
     1
 90
        1
176
     1
 90
        1
176
     1
 40
1.0
176
     1
 90
        8
176
     1
 62
     7
176
     1
 40
1.0
176
     1
 90
        1
176
     1
 90
        6
176
     1
 90
        2
176
     1
 62
     7
176
     1
 90
        5
176
     1
 90
        0
176
     1
 90
        0
176
     1
290
     0
176
     1
 90
        1
176
     1
 40
-50.0
176
     1
 90
        0
176
     1
290
     0
176
     1
290
     1
176
     1
290
     1
176
     1
290
     0
176
     1
290
     0
176
     1
290
     0
176
     1
290
     0
176
     1
290
     0
176
     1
290
     0
176
     1
 90
       50
176
     1
 40
0.0
176
     1
 40
1.0
176
     1
 90
        0
176
     1
 62
    18
420
        0
176
     1
 90
       50
176
     1
 90
        3
176
     1
 62
     5
420
      255
176
     1
290
     0
176
     1
 90
       50
176
     1
 90
       50
176
     1
 90
       50
176
     1
290
     0
176
     1
 90
       50
176
     1
 62
   256
176
     0
 40
1.0
176
     0
 90
        2
176
     1
  1
strokes_ogs.tif
176
     1
290
     0
176
     1
 40
1.0
176
     1
 40
1.0
176
     1
  0
VISUALSTYLE
  5
3D
102
{ACAD_REACTORS
330
2A
102
}
330
2A
100
AcDbVisualStyle
  2
EdgeColorOff
 70
    22
177
     3
291
     1
 70
    58
 90
        2
176
     0
 90
        2
176
     0
 90
        0
176
     0
 90
        0
176
     0
 40
0.6
176
     0
 40
30.0
176
     0
 62
     7
420
 16777215
176
     0
 90
        1
176
     0
 90
        4
176
     0
 62
     7
176
     0
 62
   257
176
     0
 90
        1
176
     0
 90
        1
176
     0
 40
1.0
176
     0
 90
        8
176
     2
 62
     7
176
     0
 40
1.0
176
     0
 90
        1
176
     0
 90
        6
176
     0
 90
        2
176
     0
 62
     7
176
     0
 90
        5
176
     0
 90
        0
176
     0
 90
        0
176
     0
290
     0
176
     0
 90
        1
176
     0
 40
0.0
176
     0
 90
        0
176
     0
290
     0
176
     0
290
     1
176
     0
290
     1
176
     0
290
     0
176
     0
290
     0
176
     0
290
     0
176
     0
290
     0
176
     0
290
     0
176
     0
290
     0
176
     0
 90
       50
176
     0
 40
0.0
176
     0
 40
1.0
176
     0
 90
        0
176
     0
 62
    18
420
        0
176
     0
 90
       50
176
     0
 90
        3
176
     0
 62
     5
420
      255
176
     0
290
     0
176
     0
 90
       50
176
     0
 90
       50
176
     0
 90
       50
176
     0
290
     0
176
     0
 90
       50
176
     0
 62
   256
176
     0
 40
1.0
176
     0
 90
        2
176
     0
  1
strokes_ogs.tif
176
     0
290
     0
176
     0
 40
1.0
176
     0
 40
1.0
176
     0
  0
VISUALSTYLE
  5
39
102
{ACAD_REACTORS
330
2A
102
}
330
2A
100
AcDbVisualStyle
  2
Facepattern
 70
    15
177
     3
291
     1
 70
    58
 90
        2
176
     1
 90
        2
176
     1
 90
        0
176
     1
 90
        0
176
     1
 40
0.6
176
     1
 40
30.0
176
     1
 62
     7
420
 16777215
176
     1
 90
        1
176
     1
 90
        4
176
     1
 62
     7
176
     1
 62
   257
176
     1
 90
        1
176
     1
 90
        1
176
     1
 40
1.0
176
     1
 90
        8
176
     1
 62
     7
176
     1
 40
1.0
176
     1
 90
        1
176
     1
 90
        6
176
     1
 90
        2
176
     1
 62
     7
176
     1
 90
        5
176
     1
 90
        0
176
     1
 90
        0
176
     1
290
     0
176
     1
 90
        1
176
     1
 40
0.0
176
     1
 90
        0
176
     1
290
     0
176
     1
290
     1
176
     1
290
     1
176
     1
290
     0
176
     1
290
     0
176
     1
290
     0
176
     1
290
     0
176
     1
290
     0
176
     1
290
     0
176
     1
 90
       50
176
     1
 40
0.0
176
     1
 40
1.0
176
     1
 90
        0
176
     1
 62
    18
420
        0
176
     1
 90
       50
176
     1
 90
        3
176
     1
 62
     5
420
      255
176
     1
290
     0
176
     1
 90
       50
176
     1
 90
       50
176
     1
 90
       50
176
     1
290
     0
176
     1
 90
       50
176
     1
 62
   256
176
     0
 40
1.0
176
     0
 90
        2
176
     1
  1
strokes_ogs.tif
176
     1
290
     0
176
     1
 40
1.0
176
     1
 40
1.0
176
     1
  0
VISUALSTYLE
  5
2B
102
{ACAD_REACTORS
330
2A
102
}
330
2A
100
AcDbVisualStyle
  2
Flat
 70
     0
177
     3
291
     1
 70
    58
 90
        2
176
     1
 90
        1
176
     1
 90
        1
176
     1
 90
        2
176
     1
 40
0.6
176
     1
 40
30.0
176
     1
 62
     7
420
 16777215
176
     1
 90
        0
176
     1
 90
        0
176
     1
 62
     7
176
     1
 62
   257
176
     1
 90
        1
176
     1
 90
        1
176
     1
 40
1.0
176
     1
 90
        8
176
     1
 62
     7
176
     1
 40
1.0
176
     1
 90
        1
176
     1
 90
        6
176
     1
 90
        2
176
     1
 62
     7
176
     1
 90
        5
176
     1
 90
        0
176
     1
 90
        0
176
     1
290
     0
176
     1
 90
       13
176
     1
 40
0.0
176
     1
 90
        0
176
     1
290
     0
176
     1
290
     1
176
     1
290
     1
176
     1
290
     0
176
     1
290
     0
176
     1
290
     0
176
     1
290
     0
176
     1
290
     0
176
     1
290
     0
176
     1
 90
       50
176
     1
 40
0.0
176
     1
 40
1.0
176
     1
 90
        0
176
     1
 62
    18
420
        0
176
     1
 90
       50
176
     1
 90
        3
176
     1
 62
     5
420
      255
176
     1
290
     0
176
     1
 90
       50
176
     1
 90
       50
176
     1
 90
       50
176
     1
290
     0
176
     1
 90
       50
176
     1
 62
   256
176
     0
 40
1.0
176
     0
 90
        2
176
     1
  1
strokes_ogs.tif
176
     1
290
     0
176
     1
 40
1.0
176
     1
 40
1.0
176
     1
  0
VISUALSTYLE
  5
2C
102
{ACAD_REACTORS
330
2A
102
}
330
2A
100
AcDbVisualStyle
  2
FlatWithEdges
 70
     1
177
     3
291
     1
 70
    58
 90
        2
176
     1
 90
        1
176
     1
 90
        1
176
     1
 90
        2
176
     1
 40
0.6
176
     1
 40
30.0
176
     1
 62
     7
420
 16777215
176
     1
 90
        1
176
     1
 90
        0
176
     1
 62
     7
176
     1
 62
   257
176
     1
 90
        1
176
     1
 90
        1
176
     1
 40
1.0
176
     1
 90
        0
176
     1
 62
   257
176
     1
 40
1.0
176
     1
 90
        1
176
     1
 90
        6
176
     1
 90
        2
176
     1
 62
     7
176
     1
 90
        5
176
     1
 90
        0
176
     1
 90
        0
176
     1
290
     0
176
     1
 90
       13
176
     1
 40
0.0
176
     1
 90
        0
176
     1
290
     0
176
     1
290
     1
176
     1
290
     1
176
     1
290
     0
176
     1
290
     0
176
     1
290
     0
176
     1
290
     0
176
     1
290
     0
176
     1
290
     0
176
     1
 90
       50
176
     1
 40
0.0
176
     1
 40
1.0
176
     1
 90
        0
176
     1
 62
    18
420
        0
176
     1
 90
       50
176
     1
 90
        3
176
     1
 62
     5
420
      255
176
     1
290
     0
176
     1
 90
       50
176
     1
 90
       50
176
     1
 90
       50
176
     1
290
     0
176
     1
 90
       50
176
     1
 62
   256
176
     0
 40
1.0
176
     0
 90
        2
176
     1
  1
strokes_ogs.tif
176
     1
290
     0
176
     1
 40
1.0
176
     1
 40
1.0
176
     1
  0
VISUALSTYLE
  5
2D
102
{ACAD_REACTORS
330
2A
102
}
330
2A
100
AcDbVisualStyle
  2
Gouraud
 70
     2
177
     3
291
     1
 70
    58
 90
        2
176
     1
 90
        2
176
     1
 90
        1
176
     1
 90
        2
176
     1
 40
0.6
176
     1
 40
30.0
176
     1
 62
     7
420
 16777215
176
     1
 90
        0
176
     1
 90
        0
176
     1
 62
     7
176
     1
 62
   257
176
     1
 90
        1
176
     1
 90
        1
176
     1
 40
1.0
176
     1
 90
        0
176
     1
 62
     7
176
     1
 40
1.0
176
     1
 90
        1
176
     1
 90
        6
176
     1
 90
        2
176
     1
 62
     7
176
     1
 90
        5
176
     1
 90
        0
176
     1
 90
        0
176
     1
290
     0
176
     1
 90
       13
176
     1
 40
0.0
176
     1
 90
        0
176
     1
290
     0
176
     1
290
     1
176
     1
290
     1
176
     1
290
     0
176
     1
290
     0
176
     1
290
     0
176
     1
290
     0
176
     1
290
     0
176
     1
290
     0
176
     1
 90
       50
176
     1
 40
0.0
176
     1
 40
1.0
176
     1
 90
        0
176
     1
 62
    18
420
        0
176
     1
 90
       50
176
     1
 90
        3
176
     1
 62
     5
420
      255
176
     1
290
     0
176
     1
 90
       50
176
     1
 90
       50
176
     1
 90
       50
176
     1
290
     0
176
     1
 90
       50
176
     1
 62
   256
176
     0
 40
1.0
176
     0
 90
        2
176
     1
  1
strokes_ogs.tif
176
     1
290
     0
176
     1
 40
1.0
176
     1
 40
1.0
176
     1
  0
VISUALSTYLE
  5
2E
102
{ACAD_REACTORS
330
2A
102
}
330
2A
100
AcDbVisualStyle
  2
GouraudWithEdges
 70
     3
177
     3
291
     1
 70
    58
 90
        2
176
     1
 90
        2
176
     1
 90
        1
176
     1
 90
        2
176
     1
 40
0.6
176
     1
 40
30.0
176
     1
 62
     7
420
 16777215
176
     1
 90
        1
176
     1
 90
        0
176
     1
 62
     7
176
     1
 62
   257
176
     1
 90
        1
176
     1
 90
        1
176
     1
 40
1.0
176
     1
 90
        0
176
     1
 62
   257
176
     1
 40
1.0
176
     1
 90
        1
176
     1
 90
        6
176
     1
 90
        2
176
     1
 62
     7
176
     1
 90
        5
176
     1
 90
        0
176
     1
 90
        0
176
     1
290
     0
176
     1
 90
       13
176
     1
 40
0.0
176
     1
 90
        0
176
     1
290
     0
176
     1
290
     1
176
     1
290
     1
176
     1
290
     0
176
     1
290
     0
176
     1
290
     0
176
     1
290
     0
176
     1
290
     0
176
     1
290
     0
176
     1
 90
       50
176
     1
 40
0.0
176
     1
 40
1.0
176
     1
 90
        0
176
     1
 62
    18
420
        0
176
     1
 90
       50
176
     1
 90
        3
176
     1
 62
     5
420
      255
176
     1
290
     0
176
     1
 90
       50
176
     1
 90
       50
176
     1
 90
       50
176
     1
290
     0
176
     1
 90
       50
176
     1
 62
   256
176
     0
 40
1.0
176
     0
 90
        2
176
     1
  1
strokes_ogs.tif
176
     1
290
     0
176
     1
 40
1.0
176
     1
 40
1.0
176
     1
  0
VISUALSTYLE
  5
31
102
{ACAD_REACTORS
330
2A
102
}
330
2A
100
AcDbVisualStyle
  2
Hidden
 70
     6
177
     3
291
     0
 70
    58
 90
        1
176
     1
 90
        2
176
     1
 90
        2
176
     1
 90
        0
176
     1
 40
0.6
176
     1
 40
30.0
176
     1
 62
     7
420
 16777215
176
     1
 90
        2
176
     1
 90
        2
176
     1
 62
     7
176
     1
 62
   257
176
     1
 90
        2
176
     1
 90
        1
176
     1
 40
40.0
176
     1
 90
        0
176
     1
 62
   257
176
     1
 40
1.0
176
     1
 90
        1
176
     1
 90
        6
176
     1
 90
        2
176
     1
 62
     7
176
     1
 90
        3
176
     1
 90
        0
176
     1
 90
        0
176
     1
290
     0
176
     1
 90
        1
176
     1
 40
0.0
176
     1
 90
        0
176
     1
290
     0
176
     1
290
     1
176
     1
290
     1
176
     1
290
     0
176
     1
290
     0
176
     1
290
     0
176
     1
290
     0
176
     1
290
     0
176
     1
290
     0
176
     1
 90
       50
176
     1
 40
0.0
176
     1
 40
1.0
176
     1
 90
        0
176
     1
 62
    18
420
        0
176
     1
 90
       50
176
     1
 90
        3
176
     1
 62
     5
420
      255
176
     1
290
     0
176
     1
 90
       50
176
     1
 90
       50
176
     1
 90
       50
176
     1
290
     0
176
     1
 90
       50
176
     1
 62
   256
176
     0
 40
1.0
176
     0
 90
        2
176
     1
  1
strokes_ogs.tif
176
     1
290
     0
176
     1
 40
1.0
176
     1
 40
1.0
176
     1
  0
VISUALSTYLE
  5
3B
102
{ACAD_REACTORS
330
2A
102
}
330
2A
100
AcDbVisualStyle
  2
JitterOff
 70
    20
177
     3
291
     1
 70
    58
 90
        2
176
     0
 90
        2
176
     0
 90
        0
176
     0
 90
        0
176
     0
 40
0.6
176
     0
 40
30.0
176
     0
 62
     7
420
 16777215
176
     0
 90
        1
176
     0
 90
        4
176
     0
 62
     7
176
     0
 62
   257
176
     0
 90
        1
176
     0
 90
        1
176
     0
 40
1.0
176
     0
 90
       10
176
     2
 62
     7
176
     0
 40
1.0
176
     0
 90
        1
176
     0
 90
        6
176
     0
 90
        2
176
     0
 62
     7
176
     0
 90
        5
176
     0
 90
        0
176
     0
 90
        0
176
     0
290
     0
176
     0
 90
        1
176
     0
 40
0.0
176
     0
 90
        0
176
     0
290
     0
176
     0
290
     1
176
     0
290
     1
176
     0
290
     0
176
     0
290
     0
176
     0
290
     0
176
     0
290
     0
176
     0
290
     0
176
     0
290
     0
176
     0
 90
       50
176
     0
 40
0.0
176
     0
 40
1.0
176
     0
 90
        0
176
     0
 62
    18
420
        0
176
     0
 90
       50
176
     0
 90
        3
176
     0
 62
     5
420
      255
176
     0
290
     0
176
     0
 90
       50
176
     0
 90
       50
176
     0
 90
       50
176
     0
290
     0
176
     0
 90
       50
176
     0
 62
   256
176
     0
 40
1.0
176
     0
 90
        2
176
     0
  1
strokes_ogs.tif
176
     0
290
     0
176
     0
 40
1.0
176
     0
 40
1.0
176
     0
  0
VISUALSTYLE
  5
38
102
{ACAD_REACTORS
330
2A
102
}
330
2A
100
AcDbVisualStyle
  2
Linepattern
 70
    14
177
     3
291
     1
 70
    58
 90
        2
176
     1
 90
        2
176
     1
 90
        0
176
     1
 90
        0
176
     1
 40
0.6
176
     1
 40
30.0
176
     1
 62
     7
420
 16777215
176
     1
 90
        1
176
     1
 90
        4
176
     1
 62
     7
176
     1
 62
   257
176
     1
 90
        7
176
     1
 90
        7
176
     1
 40
1.0
176
     1
 90
        8
176
     1
 62
     7
176
     1
 40
1.0
176
     1
 90
        1
176
     1
 90
        6
176
     1
 90
        2
176
     1
 62
     7
176
     1
 90
        5
176
     1
 90
        0
176
     1
 90
        0
176
     1
290
     0
176
     1
 90
        1
176
     1
 40
0.0
176
     1
 90
        0
176
     1
290
     0
176
     1
290
     1
176
     1
290
     1
176
     1
290
     0
176
     1
290
     0
176
     1
290
     0
176
     1
290
     0
176
     1
290
     0
176
     1
290
     0
176
     1
 90
       50
176
     1
 40
0.0
176
     1
 40
1.0
176
     1
 90
        0
176
     1
 62
    18
420
        0
176
     1
 90
       50
176
     1
 90
        3
176
     1
 62
     5
420
      255
176
     1
290
     0
176
     1
 90
       50
176
     1
 90
       50
176
     1
 90
       50
176
     1
290
     0
176
     1
 90
       50
176
     1
 62
   256
176
     0
 40
1.0
176
     0
 90
        2
176
     1
  1
strokes_ogs.tif
176
     1
290
     0
176
     1
 40
1.0
176
     1
 40
1.0
176
     1
  0
VISUALSTYLE
  5
3C
102
{ACAD_REACTORS
330
2A
102
}
330
2A
100
AcDbVisualStyle
  2
OverhangOff
 70
    21
177
     3
291
     1
 70
    58
 90
        2
176
     0
 90
        2
176
     0
 90
        0
176
     0
 90
        0
176
     0
 40
0.6
176
     0
 40
30.0
176
     0
 62
     7
420
 16777215
176
     0
 90
        1
176
     0
 90
        4
176
     0
 62
     7
176
     0
 62
   257
176
     0
 90
        1
176
     0
 90
        1
176
     0
 40
1.0
176
     0
 90
        9
176
     2
 62
     7
176
     0
 40
1.0
176
     0
 90
        1
176
     0
 90
        6
176
     0
 90
        2
176
     0
 62
     7
176
     0
 90
        5
176
     0
 90
        0
176
     0
 90
        0
176
     0
290
     0
176
     0
 90
        1
176
     0
 40
0.0
176
     0
 90
        0
176
     0
290
     0
176
     0
290
     1
176
     0
290
     1
176
     0
290
     0
176
     0
290
     0
176
     0
290
     0
176
     0
290
     0
176
     0
290
     0
176
     0
290
     0
176
     0
 90
       50
176
     0
 40
0.0
176
     0
 40
1.0
176
     0
 90
        0
176
     0
 62
    18
420
        0
176
     0
 90
       50
176
     0
 90
        3
176
     0
 62
     5
420
      255
176
     0
290
     0
176
     0
 90
       50
176
     0
 90
       50
176
     0
 90
       50
176
     0
290
     0
176
     0
 90
       50
176
     0
 62
   256
176
     0
 40
1.0
176
     0
 90
        2
176
     0
  1
strokes_ogs.tif
176
     0
290
     0
176
     0
 40
1.0
176
     0
 40
1.0
176
     0
  0
VISUALSTYLE
  5
33
102
{ACAD_REACTORS
330
2A
102
}
330
2A
100
AcDbVisualStyle
  2
Realistic
 70
     8
177
     3
291
     0
 70
    58
 90
        2
176
     1
 90
        3
176
     1
 90
        0
176
     1
 90
        2
176
     1
 40
0.6
176
     1
 40
30.0
176
     1
 62
     7
420
 16777215
176
     1
 90
        0
176
     1
 90
        0
176
     1
 62
     7
176
     1
 62
   257
176
     1
 90
        1
176
     1
 90
        1
176
     1
 40
1.0
176
     1
 90
        8
176
     1
 62
   257
176
     1
 40
1.0
176
     1
 90
        1
176
     1
 90
        6
176
     1
 90
        2
176
     1
 62
     7
176
     1
 90
        3
176
     1
 90
        0
176
     1
 90
        0
176
     1
290
     0
176
     1
 90
       13
176
     1
 40
0.0
176
     1
 90
        0
176
     1
290
     0
176
     1
290
     1
176
     1
290
     1
176
     1
290
     0
176
     1
290
     0
176
     1
290
     0
176
     1
290
     0
176
     1
290
     0
176
     1
290
     0
176
     1
 90
       50
176
     1
 40
0.0
176
     1
 40
1.0
176
     1
 90
        0
176
     1
 62
    18
420
        0
176
     1
 90
       50
176
     1
 90
        3
176
     1
 62
     5
420
      255
176
     1
290
     0
176
     1
 90
       50
176
     1
 90
       50
176
     1
 90
       50
176
     1
290
     0
176
     1
 90
       50
176
     1
 62
   256
176
     0
 40
1.0
176
     0
 90
        2
176
     1
  1
strokes_ogs.tif
176
     1
290
     0
176
     1
 40
1.0
176
     1
 40
1.0
176
     1
  0
VISUALSTYLE
  5
42
102
{ACAD_REACTORS
330
2A
102
}
330
2A
100
AcDbVisualStyle
  2
Shaded
 70
    27
177
     3
291
     0
 70
    58
 90
        2
176
     1
 90
        2
176
     1
 90
        1
176
     1
 90
        2
176
     1
 40
0.6
176
     1
 40
30.0
176
     1
 62
     7
420
 16777215
176
     1
 90
        0
176
     1
 90
        4
176
     1
 62
     7
176
     1
 62
   257
176
     1
 90
        1
176
     1
 90
        1
176
     1
 40
1.0
176
     1
 90
        8
176
     1
 62
   257
176
     1
 40
1.0
176
     1
 90
        1
176
     1
 90
        6
176
     1
 90
        2
176
     1
 62
     8
420
  7895160
176
     1
 90
        3
176
     1
 90
        0
176
     1
 90
        0
176
     1
290
     0
176
     1
 90
        5
176
     1
 40
0.0
176
     1
 90
        0
176
     1
290
     0
176
     1
290
     1
176
     1
290
     1
176
     1
290
     0
176
     1
290
     0
176
     1
290
     0
176
     1
290
     0
176
     1
290
     0
176
     1
290
     0
176
     1
 90
       50
176
     1
 40
0.0
176
     1
 40
1.0
176
     1
 90
        0
176
     1
 62
    18
420
        0
176
     1
 90
       50
176
     1
 90
        3
176
     1
 62
     5
420
      255
176
     1
290
     0
176
     1
 90
       50
176
     1
 90
       50
176
     1
 90
       50
176
     1
290
     0
176
     1
 90
       50
176
     1
 62
   256
176
     0
 40
1.0
176
     0
 90
        2
176
     1
  1
strokes_ogs.tif
176
     1
290
     0
176
     1
 40
1.0
176
     1
 40
1.0
176
     1
  0
VISUALSTYLE
  5
41
102
{ACAD_REACTORS
330
2A
102
}
330
2A
100
AcDbVisualStyle
  2
Shaded with edges
 70
    26
177
     3
291
     0
 70
    58
 90
        2
176
     1
 90
        2
176
     1
 90
        1
176
     1
 90
        2
176
     1
 40
0.6
176
     1
 40
30.0
176
     1
 62
     7
420
 16777215
176
     1
 90
        1
176
     1
 90
       10
176
     1
 62
     7
176
     1
 62
   257
176
     1
 90
        2
176
     1
 90
        1
176
     1
 40
1.0
176
     1
 90
        8
176
     1
 62
   257
176
     1
 40
1.0
176
     1
 90
        1
176
     1
 90
        6
176
     1
 90
        2
176
     1
 62
     7
176
     1
 90
        3
176
     1
 90
        0
176
     1
 90
        0
176
     1
290
     0
176
     1
 90
        5
176
     1
 40
0.0
176
     1
 90
        0
176
     1
290
     0
176
     1
290
     1
176
     1
290
     1
176
     1
290
     0
176
     1
290
     0
176
     1
290
     0
176
     1
290
     0
176
     1
290
     0
176
     1
290
     0
176
     1
 90
       50
176
     1
 40
0.0
176
     1
 40
1.0
176
     1
 90
        0
176
     1
 62
    18
420
        0
176
     1
 90
       50
176
     1
 90
        3
176
     1
 62
     5
420
      255
176
     1
290
     0
176
     1
 90
       50
176
     1
 90
       50
176
     1
 90
       50
176
     1
290
     0
176
     1
 90
       50
176
     1
 62
   256
176
     0
 40
1.0
176
     0
 90
        2
176
     1
  1
strokes_ogs.tif
176
     1
290
     0
176
     1
 40
1.0
176
     1
 40
1.0
176
     1
  0
VISUALSTYLE
  5
3E
102
{ACAD_REACTORS
330
2A
102
}
330
2A
100
AcDbVisualStyle
  2
Shades of Gray
 70
    23
177
     3
291
     0
 70
    58
 90
        2
176
     1
 90
        2
176
     1
 90
        3
176
     1
 90
        0
176
     1
 40
0.6
176
     1
 40
30.0
176
     1
 62
     7
420
 16777215
176
     1
 90
        2
176
     1
 90
        2
176
     1
 62
     7
176
     1
 62
     7
176
     1
 90
        1
176
     1
 90
        1
176
     1
 40
40.0
176
     1
 90
        8
176
     1
 62
     7
176
     1
 40
1.0
176
     1
 90
        1
176
     1
 90
        6
176
     1
 90
        2
176
     1
 62
     7
176
     1
 90
        3
176
     1
 90
        0
176
     1
 90
        0
176
     1
290
     0
176
     1
 90
        1
176
     1
 40
0.0
176
     1
 90
        0
176
     1
290
     0
176
     1
290
     1
176
     1
290
     1
176
     1
290
     0
176
     1
290
     0
176
     1
290
     0
176
     1
290
     0
176
     1
290
     0
176
     1
290
     0
176
     1
 90
       50
176
     1
 40
0.0
176
     1
 40
1.0
176
     1
 90
        0
176
     1
 62
    18
420
        0
176
     1
 90
       50
176
     1
 90
        3
176
     1
 62
     5
420
      255
176
     1
290
     0
176
     1
 90
       50
176
     1
 90
       50
176
     1
 90
       50
176
     1
290
     0
176
     1
 90
       50
176
     1
 62
   256
176
     0
 40
1.0
176
     0
 90
        2
176
     1
  1
strokes_ogs.tif
176
     1
290
     0
176
     1
 40
1.0
176
     1
 40
1.0
176
     1
  0
VISUALSTYLE
  5
3F
102
{ACAD_REACTORS
330
2A
102
}
330
2A
100
AcDbVisualStyle
  2
Sketchy
 70
    24
177
     3
291
     0
 70
    58
 90
        1
176
     1
 90
        2
176
     1
 90
        2
176
     1
 90
        0
176
     1
 40
0.6
176
     1
 40
30.0
176
     1
 62
     7
420
 16777215
176
     1
 90
        2
176
     1
 90
        2
176
     1
 62
     7
176
     1
 62
     7
176
     1
 90
        1
176
     1
 90
        1
176
     1
 40
40.0
176
     1
 90
       11
176
     1
 62
     7
176
     1
 40
1.0
176
     1
 90
        1
176
     1
 90
        6
176
     1
 90
        2
176
     1
 62
     7
176
     1
 90
        6
176
     1
 90
        0
176
     1
 90
        0
176
     1
290
     0
176
     1
 90
        1
176
     1
 40
0.0
176
     1
 90
        0
176
     1
290
     0
176
     1
290
     1
176
     1
290
     1
176
     1
290
     0
176
     1
290
     0
176
     1
290
     0
176
     1
290
     0
176
     1
290
     0
176
     1
290
     0
176
     1
 90
       50
176
     1
 40
0.0
176
     1
 40
1.0
176
     1
 90
        0
176
     1
 62
    18
420
        0
176
     1
 90
       50
176
     1
 90
        3
176
     1
 62
     5
420
      255
176
     1
290
     0
176
     1
 90
       50
176
     1
 90
       50
176
     1
 90
       50
176
     1
290
     0
176
     1
 90
       50
176
     1
 62
   256
176
     0
 40
1.0
176
     0
 90
        2
176
     1
  1
strokes_ogs.tif
176
     1
290
     0
176
     1
 40
1.0
176
     1
 40
1.0
176
     1
  0
VISUALSTYLE
  5
37
102
{ACAD_REACTORS
330
2A
102
}
330
2A
100
AcDbVisualStyle
  2
Thicken
 70
    13
177
     3
291
     1
 70
    58
 90
        2
176
     1
 90
        2
176
     1
 90
        0
176
     1
 90
        0
176
     1
 40
0.6
176
     1
 40
30.0
176
     1
 62
     7
420
 16777215
176
     1
 90
        1
176
     1
 90
        4
176
     1
 62
     7
176
     1
 62
   257
176
     1
 90
        1
176
     1
 90
        1
176
     1
 40
1.0
176
     1
 90
       12
176
     1
 62
     7
176
     1
 40
1.0
176
     1
 90
        1
176
     1
 90
        6
176
     1
 90
        2
176
     1
 62
     7
176
     1
 90
        5
176
     1
 90
        0
176
     1
 90
        0
176
     1
290
     0
176
     1
 90
        1
176
     1
 40
0.0
176
     1
 90
        0
176
     1
290
     0
176
     1
290
     1
176
     1
290
     1
176
     1
290
     0
176
     1
290
     0
176
     1
290
     0
176
     1
290
     0
176
     1
290
     0
176
     1
290
     0
176
     1
 90
       50
176
     1
 40
0.0
176
     1
 40
1.0
176
     1
 90
        0
176
     1
 62
    18
420
        0
176
     1
 90
       50
176
     1
 90
        3
176
     1
 62
     5
420
      255
176
     1
290
     0
176
     1
 90
       50
176
     1
 90
       50
176
     1
 90
       50
176
     1
290
     0
176
     1
 90
       50
176
     1
 62
   256
176
     0
 40
1.0
176
     0
 90
        2
176
     1
  1
strokes_ogs.tif
176
     1
290
     0
176
     1
 40
1.0
176
     1
 40
1.0
176
     1
  0
VISUALSTYLE
  5
30
102
{ACAD_REACTORS
330
2A
102
}
330
2A
100
AcDbVisualStyle
  2
Wireframe
 70
     5
177
     3
291
     0
 70
    58
 90
        0
176
     1
 90
        2
176
     1
 90
        0
176
     1
 90
        0
176
     1
 40
0.6
176
     1
 40
30.0
176
     1
 62
     7
420
 16777215
176
     1
 90
        1
176
     1
 90
        4
176
     1
 62
     7
176
     1
 62
   257
176
     1
 90
        1
176
     1
 90
        1
176
     1
 40
1.0
176
     1
 90
        0
176
     1
 62
   257
176
     1
 40
1.0
176
     1
 90
        1
176
     1
 90
        6
176
     1
 90
        2
176
     1
 62
     7
176
     1
 90
        3
176
     1
 90
        0
176
     1
 90
        0
176
     1
290
     0
176
     1
 90
        1
176
     1
 40
0.0
176
     1
 90
        0
176
     1
290
     0
176
     1
290
     1
176
     1
290
     1
176
     1
290
     0
176
     1
290
     0
176
     1
290
     0
176
     1
290
     0
176
     1
290
     0
176
     1
290
     0
176
     1
 90
       50
176
     1
 40
0.0
176
     1
 40
1.0
176
     1
 90
        0
176
     1
 62
    18
420
        0
176
     1
 90
       50
176
     1
 90
        3
176
     1
 62
     5
420
      255
176
     1
290
     0
176
     1
 90
       50
176
     1
 90
       50
176
     1
 90
       50
176
     1
290
     0
176
     1
 90
       50
176
     1
 62
   256
176
     0
 40
1.0
176
     0
 90
        2
176
     1
  1
strokes_ogs.tif
176
     1
290
     0
176
     1
 40
1.0
176
     1
 40
1.0
176
     1
  0
VISUALSTYLE
  5
40
102
{ACAD_REACTORS
330
2A
102
}
330
2A
100
AcDbVisualStyle
  2
X-Ray
 70
    25
177
     3
291
     0
 70
    58
 90
        2
176
     1
 90
        2
176
     1
 90
        1
176
     1
 90
        1
176
     1
 40
0.5
176
     1
 40
30.0
176
     1
 62
     7
420
 16777215
176
     1
 90
        1
176
     1
 90
        0
176
     1
 62
     7
176
     1
 62
   257
176
     1
 90
        1
176
     1
 90
        1
176
     1
 40
1.0
176
     1
 90
        8
176
     1
 62
     7
176
     1
 40
1.0
176
     1
 90
        1
176
     1
 90
        6
176
     1
 90
        2
176
     1
 62
     7
176
     1
 90
        3
176
     1
 90
        0
176
     1
 90
        0
176
     1
290
     0
176
     1
 90
       13
176
     1
 40
0.0
176
     1
 90
        0
176
     1
290
     0
176
     1
290
     1
176
     1
290
     1
176
     1
290
     0
176
     1
290
     0
176
     1
290
     0
176
     1
290
     0
176
     1
290
     0
176
     1
290
     0
176
     1
 90
       50
176
     1
 40
0.0
176
     1
 40
1.0
176
     1
 90
        0
176
     1
 62
    18
420
        0
176
     1
 90
       50
176
     1
 90
        3
176
     1
 62
     5
420
      255
176
     1
290
     0
176
     1
 90
       50
176
     1
 90
       50
176
     1
 90
       50
176
     1
290
     0
176
     1
 90
       50
176
     1
 62
   256
176
     0
 40
1.0
176
     0
 90
        2
176
     1
  1
strokes_ogs.tif
176
     1
290
     0
176
     1
 40
1.0
176
     1
 40
1.0
176
     1
  0
DICTIONARYVAR
  5
1CA
102
{ACAD_REACTORS
330
1C9
102
}
330
1C9
100
DictionaryVariables
280
     0
  1
1:1
  0
DICTIONARYVAR
  5
1CF
102
{ACAD_REACTORS
330
1C9
102
}
330
1C9
100
DictionaryVariables
280
     0
  1
Standard
  0
DICTIONARYVAR
  5
1CE
102
{ACAD_REACTORS
330
1C9
102
}
330
1C9
100
DictionaryVariables
280
     0
  1
Standard
  0
DICTIONARY
  5
1CB
330
5A
100
AcDbDictionary
280
     1
281
     1
  3
ACAD_ROUNDTRIP_2008_TABLESTYLE_CELLSTYLEMAP
360
1CC
  0
CELLSTYLEMAP
  5
1CC
102
{ACAD_REACTORS
330
1CB
102
}
330
1CB
100
AcDbCellStyleMap
 90
        3
300
CELLSTYLE
  1
TABLEFORMAT_BEGIN
 90
        5
170
     1
 91
        0
 92
    32768
 62
   257
 93
        1
300
CONTENTFORMAT
  1
CONTENTFORMAT_BEGIN
 90
        0
 91
        0
 92
        4
 93
        0
300

 40
0.0
140
1.0
 94
        5
 62
     0
340
11
144
0.25
309
CONTENTFORMAT_END
171
     1
301
MARGIN
  1
CELLMARGIN_BEGIN
 40
0.06
 40
0.06
 40
0.06
 40
0.06
 40
0.06
 40
0.06
309
CELLMARGIN_END
 94
        6
 95
        1
302
GRIDFORMAT
  1
GRIDFORMAT_BEGIN
 90
        0
 91
        1
 62
     0
 92
       -2
340
14
 93
        0
 40
0.045
309
GRIDFORMAT_END
 95
        2
302
GRIDFORMAT
  1
GRIDFORMAT_BEGIN
 90
        0
 91
        1
 62
     0
 92
       -2
340
14
 93
        0
 40
0.045
309
GRIDFORMAT_END
 95
        4
302
GRIDFORMAT
  1
GRIDFORMAT_BEGIN
 90
        0
 91
        1
 62
     0
 92
       -2
340
14
 93
        0
 40
0.045
309
GRIDFORMAT_END
 95
        8
302
GRIDFORMAT
  1
GRIDFORMAT_BEGIN
 90
        0
 91
        1
 62
     0
 92
       -2
340
14
 93
        0
 40
0.045
309
GRIDFORMAT_END
 95
       16
302
GRIDFORMAT
  1
GRIDFORMAT_BEGIN
 90
        0
 91
        1
 62
     0
 92
       -2
340
14
 93
        0
 40
0.045
309
GRIDFORMAT_END
 95
       32
302
GRIDFORMAT
  1
GRIDFORMAT_BEGIN
 90
        0
 91
        1
 62
     0
 92
       -2
340
14
 93
        0
 40
0.045
309
GRIDFORMAT_END
309
TABLEFORMAT_END
  1
CELLSTYLE_BEGIN
 90
        1
 91
        1
300
_TITLE
309
CELLSTYLE_END
300
CELLSTYLE
  1
TABLEFORMAT_BEGIN
 90
        5
170
     1
 91
        0
 92
        0
 62
   257
 93
        1
300
CONTENTFORMAT
  1
CONTENTFORMAT_BEGIN
 90
        0
 91
        0
 92
        4
 93
        0
300

 40
0.0
140
1.0
 94
        5
 62
     0
340
11
144
0.18
309
CONTENTFORMAT_END
171
     1
301
MARGIN
  1
CELLMARGIN_BEGIN
 40
0.06
 40
0.06
 40
0.06
 40
0.06
 40
0.06
 40
0.06
309
CELLMARGIN_END
 94
        6
 95
        1
302
GRIDFORMAT
  1
GRIDFORMAT_BEGIN
 90
        0
 91
        1
 62
     0
 92
       -2
340
14
 93
        0
 40
0.045
309
GRIDFORMAT_END
 95
        2
302
GRIDFORMAT
  1
GRIDFORMAT_BEGIN
 90
        0
 91
        1
 62
     0
 92
       -2
340
14
 93
        0
 40
0.045
309
GRIDFORMAT_END
 95
        4
302
GRIDFORMAT
  1
GRIDFORMAT_BEGIN
 90
        0
 91
        1
 62
     0
 92
       -2
340
14
 93
        0
 40
0.045
309
GRIDFORMAT_END
 95
        8
302
GRIDFORMAT
  1
GRIDFORMAT_BEGIN
 90
        0
 91
        1
 62
     0
 92
       -2
340
14
 93
        0
 40
0.045
309
GRIDFORMAT_END
 95
       16
302
GRIDFORMAT
  1
GRIDFORMAT_BEGIN
 90
        0
 91
        1
 62
     0
 92
       -2
340
14
 93
        0
 40
0.045
309
GRIDFORMAT_END
 95
       32
302
GRIDFORMAT
  1
GRIDFORMAT_BEGIN
 90
        0
 91
        1
 62
     0
 92
       -2
340
14
 93
        0
 40
0.045
309
GRIDFORMAT_END
309
TABLEFORMAT_END
  1
CELLSTYLE_BEGIN
 90
        2
 91
        1
300
_HEADER
309
CELLSTYLE_END
300
CELLSTYLE
  1
TABLEFORMAT_BEGIN
 90
        5
170
     1
 91
        0
 92
        0
 62
   257
 93
        1
300
CONTENTFORMAT
  1
CONTENTFORMAT_BEGIN
 90
        0
 91
        0
 92
        4
 93
        0
300

 40
0.0
140
1.0
 94
        2
 62
     0
340
11
144
0.18
309
CONTENTFORMAT_END
171
     1
301
MARGIN
  1
CELLMARGIN_BEGIN
 40
0.06
 40
0.06
 40
0.06
 40
0.06
 40
0.06
 40
0.06
309
CELLMARGIN_END
 94
        6
 95
        1
302
GRIDFORMAT
  1
GRIDFORMAT_BEGIN
 90
        0
 91
        1
 62
     0
 92
       -2
340
14
 93
        0
 40
0.045
309
GRIDFORMAT_END
 95
        2
302
GRIDFORMAT
  1
GRIDFORMAT_BEGIN
 90
        0
 91
        1
 62
     0
 92
       -2
340
14
 93
        0
 40
0.045
309
GRIDFORMAT_END
 95
        4
302
GRIDFORMAT
  1
GRIDFORMAT_BEGIN
 90
        0
 91
        1
 62
     0
 92
       -2
340
14
 93
        0
 40
0.045
309
GRIDFORMAT_END
 95
        8
302
GRIDFORMAT
  1
GRIDFORMAT_BEGIN
 90
        0
 91
        1
 62
     0
 92
       -2
340
14
 93
        0
 40
0.045
309
GRIDFORMAT_END
 95
       16
302
GRIDFORMAT
  1
GRIDFORMAT_BEGIN
 90
        0
 91
        1
 62
     0
 92
       -2
340
14
 93
        0
 40
0.045
309
GRIDFORMAT_END
 95
       32
302
GRIDFORMAT
  1
GRIDFORMAT_BEGIN
 90
        0
 91
        1
 62
     0
 92
       -2
340
14
 93
        0
 40
0.045
309
GRIDFORMAT_END
309
TABLEFORMAT_END
  1
CELLSTYLE_BEGIN
 90
        3
 91
        2
300
_DATA
309
CELLSTYLE_END
  0
ENDSEC
  0
EOF
