  0
SECTION
  2
HEADER
  9
$ACADVER
  1
AC1032
  9
$ACADMAINTVER
 90
       55
  9
$DWGCODEPAGE
  3
ANSI_1252
  9
$LASTSAVEDBY
  1
SYSTEM
  9
$REQUIREDVERSIONS
160
                 0
  9
$INSBASE
 10
0.0
 20
0.0
 30
0.0
  9
$EXTMIN
 10
-283.3909655629532
 20
-220.2322775774066
 30
0.0
  9
$EXTMAX
 10
249.7971337247333
 20
125.69167325091
 30
0.0
  9
$LIMMIN
 10
0.0
 20
0.0
  9
$LIMMAX
 10
12.0
 20
9.0
  9
$ORTHOMODE
 70
     0
  9
$REGENMODE
 70
     1
  9
$FILLMODE
 70
     1
  9
$QTEXTMODE
 70
     0
  9
$MIRRTEXT
 70
     1
  9
$LTSCALE
 40
1.0
  9
$ATTMODE
 70
     1
  9
$TEXTSIZE
 40
0.2
  9
$TRACEWID
 40
0.05
  9
$TEXTSTYLE
  7
Standard
  9
$CLAYER
  8
0
  9
$CELTYPE
  6
ByLayer
  9
$CECOLOR
 62
   256
  9
$CELTSCALE
 40
1.0
  9
$DISPSILH
 70
     0
  9
$DIMSCALE
 40
1.0
  9
$DIMASZ
 40
0.18
  9
$DIMEXO
 40
0.0625
  9
$DIMDLI
 40
0.38
  9
$DIMRND
 40
0.0
  9
$DIMDLE
 40
0.0
  9
$DIMEXE
 40
0.18
  9
$DIMTP
 40
0.0
  9
$DIMTM
 40
0.0
  9
$DIMTXT
 40
0.18
  9
$DIMCEN
 40
0.09
  9
$DIMTSZ
 40
0.0
  9
$DIMTOL
 70
     0
  9
$DIMLIM
 70
     0
  9
$DIMTIH
 70
     1
  9
$DIMTOH
 70
     1
  9
$DIMSE1
 70
     0
  9
$DIMSE2
 70
     0
  9
$DIMTAD
 70
     0
  9
$DIMZIN
 70
     0
  9
$DIMBLK
  1

  9
$DIMASO
 70
     1
  9
$DIMSHO
 70
     1
  9
$DIMPOST
  1

  9
$DIMAPOST
  1

  9
$DIMALT
 70
     0
  9
$DIMALTD
 70
     2
  9
$DIMALTF
 40
25.4
  9
$DIMLFAC
 40
1.0
  9
$DIMTOFL
 70
     0
  9
$DIMTVP
 40
0.0
  9
$DIMTIX
 70
     0
  9
$DIMSOXD
 70
     0
  9
$DIMSAH
 70
     0
  9
$DIMBLK1
  1

  9
$DIMBLK2
  1

  9
$DIMSTYLE
  2
Standard
  9
$DIMCLRD
 70
     0
  9
$DIMCLRE
 70
     0
  9
$DIMCLRT
 70
     0
  9
$DIMTFAC
 40
1.0
  9
$DIMGAP
 40
0.09
  9
$DIMJUST
 70
     0
  9
$DIMSD1
 70
     0
  9
$DIMSD2
 70
     0
  9
$DIMTOLJ
 70
     1
  9
$DIMTZIN
 70
     0
  9
$DIMALTZ
 70
     0
  9
$DIMALTTZ
 70
     0
  9
$DIMUPT
 70
     0
  9
$DIMDEC
 70
     4
  9
$DIMTDEC
 70
     4
  9
$DIMALTU
 70
     2
  9
$DIMALTTD
 70
     2
  9
$DIMTXSTY
  7
Standard
  9
$DIMAUNIT
 70
     0
  9
$DIMADEC
 70
     0
  9
$DIMALTRND
 40
0.0
  9
$DIMAZIN
 70
     0
  9
$DIMDSEP
 70
    46
  9
$DIMATFIT
 70
     3
  9
$DIMFRAC
 70
     0
  9
$DIMLDRBLK
  1

  9
$DIMLUNIT
 70
     2
  9
$DIMLWD
 70
    -2
  9
$DIMLWE
 70
    -2
  9
$DIMTMOVE
 70
     0
  9
$DIMFXL
 40
1.0
  9
$DIMFXLON
 70
     0
  9
$DIMJOGANG
 40
0.78539816339745
  9
$DIMTFILL
 70
     0
  9
$DIMTFILLCLR
 70
     0
  9
$DIMARCSYM
 70
     0
  9
$DIMLTYPE
  6

  9
$DIMLTEX1
  6

  9
$DIMLTEX2
  6

  9
$DIMTXTDIRECTION
 70
     0
  9
$LUNITS
 70
     2
  9
$LUPREC
 70
     4
  9
$SKETCHINC
 40
0.1
  9
$FILLETRAD
 40
0.0
  9
$AUNITS
 70
     0
  9
$AUPREC
 70
     0
  9
$MENU
  1
.
  9
$ELEVATION
 40
0.0
  9
$PELEVATION
 40
0.0
  9
$THICKNESS
 40
0.0
  9
$LIMCHECK
 70
     0
  9
$CHAMFERA
 40
0.0
  9
$CHAMFERB
 40
0.0
  9
$CHAMFERC
 40
0.0
  9
$CHAMFERD
 40
0.0
  9
$SKPOLY
 70
     0
  9
$TDCREATE
 40
2460480.336126945
  9
$TDUCREATE
 40
2460480.252793611
  9
$TDUPDATE
 40
2460480.336127026
  9
$TDUUPDATE
 40
2460480.252793692
  9
$TDINDWG
 40
0.0000000116
  9
$TDUSRTIMER
 40
0.0000000116
  9
$USRTIMER
 70
     1
  9
$ANGBASE
 50
0.0
  9
$ANGDIR
 70
     0
  9
$PDMODE
 70
     0
  9
$PDSIZE
 40
0.0
  9
$PLINEWID
 40
0.0
  9
$SPLFRAME
 70
     0
  9
$SPLINETYPE
 70
     6
  9
$SPLINESEGS
 70
     8
  9
$HANDSEED
  5
1D3
  9
$SURFTAB1
 70
     6
  9
$SURFTAB2
 70
     6
  9
$SURFTYPE
 70
     6
  9
$SURFU
 70
     6
  9
$SURFV
 70
     6
  9
$UCSBASE
  2

  9
$UCSNAME
  2

  9
$UCSORG
 10
0.0
 20
0.0
 30
0.0
  9
$UCSXDIR
 10
1.0
 20
0.0
 30
0.0
  9
$UCSYDIR
 10
0.0
 20
1.0
 30
0.0
  9
$UCSORTHOREF
  2

  9
$UCSORTHOVIEW
 70
     0
  9
$UCSORGTOP
 10
0.0
 20
0.0
 30
0.0
  9
$UCSORGBOTTOM
 10
0.0
 20
0.0
 30
0.0
  9
$UCSORGLEFT
 10
0.0
 20
0.0
 30
0.0
  9
$UCSORGRIGHT
 10
0.0
 20
0.0
 30
0.0
  9
$UCSORGFRONT
 10
0.0
 20
0.0
 30
0.0
  9
$UCSORGBACK
 10
0.0
 20
0.0
 30
0.0
  9
$PUCSBASE
  2

  9
$PUCSNAME
  2

  9
$PUCSORG
 10
0.0
 20
0.0
 30
0.0
  9
$PUCSXDIR
 10
1.0
 20
0.0
 30
0.0
  9
$PUCSYDIR
 10
0.0
 20
1.0
 30
0.0
  9
$PUCSORTHOREF
  2

  9
$PUCSORTHOVIEW
 70
     0
  9
$PUCSORGTOP
 10
0.0
 20
0.0
 30
0.0
  9
$PUCSORGBOTTOM
 10
0.0
 20
0.0
 30
0.0
  9
$PUCSORGLEFT
 10
0.0
 20
0.0
 30
0.0
  9
$PUCSORGRIGHT
 10
0.0
 20
0.0
 30
0.0
  9
$PUCSORGFRONT
 10
0.0
 20
0.0
 30
0.0
  9
$PUCSORGBACK
 10
0.0
 20
0.0
 30
0.0
  9
$USERI1
 70
     0
  9
$USERI2
 70
     0
  9
$USERI3
 70
     0
  9
$USERI4
 70
     0
  9
$USERI5
 70
     0
  9
$USERR1
 40
20.7
  9
$USERR2
 40
0.0
  9
$USERR3
 40
0.0
  9
$USERR4
 40
0.0
  9
$USERR5
 40
0.0
  9
$WORLDVIEW
 70
     1
  9
$SHADEDGE
 70
     3
  9
$SHADEDIF
 70
    70
  9
$TILEMODE
 70
     1
  9
$MAXACTVP
 70
    64
  9
$PINSBASE
 10
0.0
 20
0.0
 30
0.0
  9
$PLIMCHECK
 70
     0
  9
$PEXTMIN
 10
1.00000000000000E+20
 20
1.00000000000000E+20
 30
1.00000000000000E+20
  9
$PEXTMAX
 10
-1.00000000000000E+20
 20
-1.00000000000000E+20
 30
-1.00000000000000E+20
  9
$PLIMMIN
 10
0.0
 20
0.0
  9
$PLIMMAX
 10
12.0
 20
9.0
  9
$UNITMODE
 70
     0
  9
$VISRETAIN
 70
     1
  9
$PLINEGEN
 70
     0
  9
$PSLTSCALE
 70
     1
  9
$TREEDEPTH
 70
  3020
  9
$CMLSTYLE
  2
Standard
  9
$CMLJUST
 70
     0
  9
$CMLSCALE
 40
1.0
  9
$PROXYGRAPHICS
 70
     1
  9
$MEASUREMENT
 70
     1
  9
$CELWEIGHT
370
    -1
  9
$ENDCAPS
280
     0
  9
$JOINSTYLE
280
     0
  9
$LWDISPLAY
290
     0
  9
$INSUNITS
 70
     4
  9
$HYPERLINKBASE
  1

  9
$STYLESHEET
  1

  9
$XEDIT
290
     1
  9
$CEPSNTYPE
380
     0
  9
$PSTYLEMODE
290
     1
  9
$FINGERPRINTGUID
  2
{d14fd342-bda1-4f97-93c4-1d3a5d422685}
  9
$VERSIONGUID
  2
{FAEB1C32-E019-11D5-929B-00C0DF256EC4}
  9
$EXTNAMES
290
     1
  9
$PSVPSCALE
 40
0.0
  9
$OLESTARTUP
290
     0
  9
$SORTENTS
280
   127
  9
$INDEXCTL
280
     0
  9
$HIDETEXT
280
     1
  9
$XCLIPFRAME
280
     2
  9
$HALOGAP
280
     0
  9
$OBSCOLOR
 70
   257
  9
$OBSLTYPE
280
     0
  9
$INTERSECTIONDISPLAY
280
     0
  9
$INTERSECTIONCOLOR
 70
   257
  9
$DIMASSOC
280
     2
  9
$PROJECTNAME
  1

  9
$CAMERADISPLAY
290
     0
  9
$LENSLENGTH
 40
50.0
  9
$CAMERAHEIGHT
 40
0.0
  9
$STEPSPERSEC
 40
2.0
  9
$STEPSIZE
 40
6.0
  9
$3DDWFPREC
 40
2.0
  9
$PSOLWIDTH
 40
0.25
  9
$PSOLHEIGHT
 40
4.0
  9
$LOFTANG1
 40
1.5707963267949
  9
$LOFTANG2
 40
1.5707963267949
  9
$LOFTMAG1
 40
0.0
  9
$LOFTMAG2
 40
0.0
  9
$LOFTPARAM
 70
     7
  9
$LOFTNORMALS
280
     1
  9
$LATITUDE
 40
37.795
  9
$LONGITUDE
 40
-122.394
  9
$NORTHDIRECTION
 40
0.0
  9
$TIMEZONE
 70
 -8000
  9
$LIGHTGLYPHDISPLAY
280
     1
  9
$TILEMODELIGHTSYNCH
280
     1
  9
$CMATERIAL
347
44
  9
$SOLIDHIST
280
     0
  9
$SHOWHIST
280
     1
  9
$DWFFRAME
280
     2
  9
$DGNFRAME
280
     2
  9
$REALWORLDSCALE
290
     1
  9
$INTERFERECOLOR
 62
   256
  9
$CSHADOW
280
     0
  9
$SHADOWPLANELOCATION
 40
0.0
  0
ENDSEC
  0
SECTION
  2
CLASSES
  0
CLASS
  1
ACDBDICTIONARYWDFLT
  2
AcDbDictionaryWithDefault
  3
ObjectDBX Classes
 90
        0
 91
        3
280
     0
281
     0
  0
CLASS
  1
VISUALSTYLE
  2
AcDbVisualStyle
  3
ObjectDBX Classes
 90
     4095
 91
        3
280
     0
281
     0
  0
CLASS
  1
MATERIAL
  2
AcDbMaterial
  3
ObjectDBX Classes
 90
     1153
 91
        3
280
     0
281
     0
  0
CLASS
  1
SCALE
  2
AcDbScale
  3
ObjectDBX Classes
 90
     1153
 91
        3
280
     0
281
     0
  0
CLASS
  1
TABLESTYLE
  2
AcDbTableStyle
  3
ObjectDBX Classes
 90
     4095
 91
        3
280
     0
281
     0
  0
CLASS
  1
MLEADERSTYLE
  2
AcDbMLeaderStyle
  3
ACDB_MLEADERSTYLE_CLASS
 90
     4095
 91
        3
280
     0
281
     0
  0
CLASS
  1
SUN
  2
AcDbSun
  3
SCENEOE
 90
     1153
 91
        3
280
     0
281
     0
  0
CLASS
  1
DICTIONARYVAR
  2
AcDbDictionaryVar
  3
ObjectDBX Classes
 90
        0
 91
        3
280
     0
281
     0
  0
CLASS
  1
CELLSTYLEMAP
  2
AcDbCellStyleMap
  3
ObjectDBX Classes
 90
     1152
 91
        3
280
     0
281
     0
  0
ENDSEC
  0
SECTION
  2
TABLES
  0
TABLE
  2
VPORT
  5
8
330
0
100
AcDbSymbolTable
 70
     1
  0
VPORT
  5
29
330
8
100
AcDbSymbolTableRecord
100
AcDbViewportTableRecord
  2
*Active
 70
     0
 10
0.0
 20
0.0
 11
1.0
 21
1.0
 12
-16.79691591910996
 22
-47.2703021632483
 13
0.0
 23
0.0
 14
0.5
 24
0.5
 15
0.5
 25
0.5
 16
0.0
 26
0.0
 36
1.0
 17
0.0
 27
0.0
 37
0.0
 40
380.5163459111483
 41
1.60267857142857
 42
50.0
 43
0.0
 44
0.0
 50
0.0
 51
0.0
 71
     0
 72
   100
 73
     1
 74
     3
 75
     0
 76
     0
 77
     0
 78
     0
281
     0
 65
     1
110
0.0
120
0.0
130
0.0
111
1.0
121
0.0
131
0.0
112
0.0
122
1.0
132
0.0
 79
     0
146
0.0
348
2F
 60
     3
 61
     5
292
     1
282
     1
141
0.0
142
0.0
 63
   250
361
5D
  0
ENDTAB
  0
TABLE
  2
LTYPE
  5
5
330
0
100
AcDbSymbolTable
 70
     9
  0
LTYPE
  5
14
330
5
100
AcDbSymbolTableRecord
100
AcDbLinetypeTableRecord
  2
ByBlock
 70
     0
  3

 72
    65
 73
     0
 40
0.0
  0
LTYPE
  5
15
330
5
100
AcDbSymbolTableRecord
100
AcDbLinetypeTableRecord
  2
ByLayer
 70
     0
  3

 72
    65
 73
     0
 40
0.0
  0
LTYPE
  5
16
330
5
100
AcDbSymbolTableRecord
100
AcDbLinetypeTableRecord
  2
Continuous
 70
     0
  3
Solid line
 72
    65
 73
     0
 40
0.0
  0
LTYPE
  5
5E
330
5
100
AcDbSymbolTableRecord
100
AcDbLinetypeTableRecord
  2
DASHED
 70
     0
  3
Dashed
 72
    65
 73
     2
 40
15.0
 49
7.0
 74
     0
 49
-8.0
 74
     0
  0
LTYPE
  5
5F
330
5
100
AcDbSymbolTableRecord
100
AcDbLinetypeTableRecord
  2
DOTTED
 70
     0
  3
Dotted
 72
    65
 73
     2
 40
1.0
 49
0.0
 74
     0
 49
-1.0
 74
     0
  0
LTYPE
  5
60
330
5
100
AcDbSymbolTableRecord
100
AcDbLinetypeTableRecord
  2
DOT_CENTER
 70
     0
  3
Dot_Center
 72
    65
 73
     4
 40
14.0
 49
12.0
 74
     0
 49
-1.0
 74
     0
 49
0.0
 74
     0
 49
-1.0
 74
     0
  0
LTYPE
  5
61
330
5
100
AcDbSymbolTableRecord
100
AcDbLinetypeTableRecord
  2
LONG_DASHED
 70
     0
  3
Long_Dashed
 72
    65
 73
     2
 40
15.0
 49
10.0
 74
     0
 49
-5.0
 74
     0
  0
LTYPE
  5
62
330
5
100
AcDbSymbolTableRecord
100
AcDbLinetypeTableRecord
  2
DASH_CENTER
 70
     0
  3
Dash_Center
 72
    65
 73
     4
 40
14.0
 49
11.0
 74
     0
 49
-1.0
 74
     0
 49
1.0
 74
     0
 49
-1.0
 74
     0
  0
LTYPE
  5
63
330
5
100
AcDbSymbolTableRecord
100
AcDbLinetypeTableRecord
  2
PHANTOM
 70
     0
  3
Phantom
 72
    65
 73
     6
 40
13.0
 49
10.0
 74
     0
 49
-1.0
 74
     0
 49
0.0
 74
     0
 49
-1.0
 74
     0
 49
0.0
 74
     0
 49
-1.0
 74
     0
  0
LTYPE
  5
64
330
5
100
AcDbSymbolTableRecord
100
AcDbLinetypeTableRecord
  2
CENTER_DASH_DASH
 70
     0
  3
Center_Dash_Dash
 72
    65
 73
     6
 40
14.0
 49
9.0
 74
     0
 49
-1.0
 74
     0
 49
1.0
 74
     0
 49
-1.0
 74
     0
 49
1.0
 74
     0
 49
-1.0
 74
     0
  0
LTYPE
  5
65
330
5
100
AcDbSymbolTableRecord
100
AcDbLinetypeTableRecord
  2
DASHDOT
 70
     0
  3
DASHDOT
 72
    65
 73
     4
 40
16.0
 49
10.0
 74
     0
 49
-3.0
 74
     0
 49
0.0
 74
     0
 49
-3.0
 74
     0
  0
ENDTAB
  0
TABLE
  2
LAYER
  5
2
330
0
100
AcDbSymbolTable
 70
     9
  0
LAYER
  5
10
330
2
100
AcDbSymbolTableRecord
100
AcDbLayerTableRecord
  2
0
 70
     0
 62
     7
  6
Continuous
370
    -3
390
F
347
46
348
0
  0
LAYER
  5
66
330
2
100
AcDbSymbolTableRecord
100
AcDbLayerTableRecord
  2
1
 70
     0
 62
     7
  6
Continuous
370
    -3
390
F
347
46
348
0
  0
LAYER
  5
67
330
2
100
AcDbSymbolTableRecord
100
AcDbLayerTableRecord
  2
LC-002-002-----0
 70
     0
 62
     7
  6
Continuous
370
    -3
390
F
347
46
348
0
  0
LAYER
  5
68
330
2
100
AcDbSymbolTableRecord
100
AcDbLayerTableRecord
  2
LC-003-001-----0
 70
     0
 62
     7
  6
Continuous
370
    -3
390
F
347
46
348
0
  0
LAYER
  5
69
330
2
100
AcDbSymbolTableRecord
100
AcDbLayerTableRecord
  2
LC-003-002-----0
 70
     0
 62
     7
  6
Continuous
370
    -3
390
F
347
46
348
0
  0
LAYER
  5
6A
330
2
100
AcDbSymbolTableRecord
100
AcDbLayerTableRecord
  2
LC-004-001-RND-0
 70
     0
 62
     7
  6
Continuous
370
    -3
390
F
347
46
348
0
  0
LAYER
  5
6B
330
2
100
AcDbSymbolTableRecord
100
AcDbLayerTableRecord
  2
LC-005-002-RND-0
 70
     0
 62
     7
  6
Continuous
370
    -3
390
F
347
46
348
0
  0
LAYER
  5
6C
330
2
100
AcDbSymbolTableRecord
100
AcDbLayerTableRecord
  2
LC-008-003-----0
 70
     0
 62
     7
  6
Continuous
370
    -3
390
F
347
46
348
0
  0
LAYER
  5
6D
330
2
100
AcDbSymbolTableRecord
100
AcDbLayerTableRecord
  2
LC-009-002-RND-0
 70
     0
 62
     7
  6
Continuous
370
    -3
390
F
347
46
348
0
  0
ENDTAB
  0
TABLE
  2
STYLE
  5
3
330
0
100
AcDbSymbolTable
 70
     2
  0
STYLE
  5
11
330
3
100
AcDbSymbolTableRecord
100
AcDbTextStyleTableRecord
  2
Standard
 70
     0
 40
0.0
 41
1.0
 50
0.0
 71
     0
 42
0.2
  3
txt
  4

  0
STYLE
  5
18D
330
3
100
AcDbSymbolTableRecord
100
AcDbTextStyleTableRecord
  2
CONVERTER_11
 70
     0
 40
0.0
 41
0.9
 50
0.0
 71
     0
 42
0.2
  3
txt.shx
  4

  0
ENDTAB
  0
TABLE
  2
VIEW
  5
6
330
0
100
AcDbSymbolTable
 70
     0
  0
ENDTAB
  0
TABLE
  2
UCS
  5
7
330
0
100
AcDbSymbolTable
 70
     0
  0
ENDTAB
  0
TABLE
  2
APPID
  5
9
330
0
100
AcDbSymbolTable
 70
     1
  0
APPID
  5
12
330
9
100
AcDbSymbolTableRecord
100
AcDbRegAppTableRecord
  2
ACAD
 70
     0
  0
ENDTAB
  0
TABLE
  2
DIMSTYLE
  5
A
330
0
100
AcDbSymbolTable
 70
     7
100
AcDbDimStyleTable
  0
DIMSTYLE
105
27
330
A
100
AcDbSymbolTableRecord
100
AcDbDimStyleTableRecord
  2
Standard
 70
     0
178
     0
340
11
  0
DIMSTYLE
105
191
102
{ACAD_REACTORS
330
192
102
}
330
A
100
AcDbSymbolTableRecord
100
AcDbDimStyleTableRecord
  2
ME10_DIM_10
 70
     0
 41
10.0
 42
0.0
 44
2.0
 73
     0
 74
     0
 77
     1
 78
     8
140
10.0
147
2.0
172
     1
173
     1
174
     1
175
     1
176
     4
177
     4
271
     2
178
     1
271
     2
340
18D
  0
DIMSTYLE
105
19C
102
{ACAD_REACTORS
330
19D
102
}
330
A
100
AcDbSymbolTableRecord
100
AcDbDimStyleTableRecord
  2
ME10_DIM_11
 70
     0
 41
10.0
 42
0.0
 44
2.0
 73
     0
 74
     0
 77
     1
 78
     8
140
10.0
147
2.0
172
     1
173
     1
174
     1
175
     1
176
     4
177
     4
271
     2
178
     1
271
     2
340
18D
  0
DIMSTYLE
105
1A7
102
{ACAD_REACTORS
330
1A8
102
}
330
A
100
AcDbSymbolTableRecord
100
AcDbDimStyleTableRecord
  2
ME10_DIM_12
 70
     0
 41
10.0
 42
0.0
 44
2.0
 73
     0
 74
     0
 77
     1
 78
     8
140
10.0
147
2.0
172
     1
173
     1
174
     1
175
     1
176
     4
177
     4
271
     2
178
     1
271
     2
340
18D
  0
DIMSTYLE
105
1B2
102
{ACAD_REACTORS
330
1B3
102
}
330
A
100
AcDbSymbolTableRecord
100
AcDbDimStyleTableRecord
  2
ME10_DIM_13
 70
     0
  3
<>x500
 41
10.0
 42
0.0
 44
2.0
 73
     0
 74
     0
 77
     1
 78
     8
140
10.0
147
2.0
172
     1
173
     1
174
     1
175
     1
176
     4
177
     4
271
     2
178
     1
271
     2
340
18D
  0
DIMSTYLE
105
1BD
102
{ACAD_REACTORS
330
1BE
102
}
330
A
100
AcDbSymbolTableRecord
100
AcDbDimStyleTableRecord
  2
ME10_DIM_14
 70
     0
  3
Ø<>
 41
10.0
 42
0.0
 44
2.0
 73
     0
 74
     0
 77
     1
 78
     8
140
10.0
147
2.0
172
     1
173
     1
174
     1
175
     1
176
     4
177
     4
271
     2
178
     1
271
     2
340
18D
  0
DIMSTYLE
105
1C8
102
{ACAD_REACTORS
330
1C9
102
}
330
A
100
AcDbSymbolTableRecord
100
AcDbDimStyleTableRecord
  2
ME10_DIM_15
 70
     0
  3
DN<>
 41
10.0
 42
0.0
 44
2.0
 73
     0
 74
     0
 77
     1
 78
     8
140
10.0
147
2.0
172
     1
173
     1
174
     1
175
     1
176
     4
177
     4
271
     2
178
     1
271
     2
340
18D
  0
ENDTAB
  0
TABLE
  2
BLOCK_RECORD
  5
1
330
0
100
AcDbSymbolTable
 70
    11
  0
BLOCK_RECORD
  5
1F
330
1
100
AcDbSymbolTableRecord
100
AcDbBlockTableRecord
  2
*Model_Space
340
22
 70
     0
280
     1
281
     0
  0
BLOCK_RECORD
  5
1B
330
1
100
AcDbSymbolTableRecord
100
AcDbBlockTableRecord
  2
*Paper_Space
340
1E
 70
     0
280
     1
281
     0
  0
BLOCK_RECORD
  5
23
330
1
100
AcDbSymbolTableRecord
100
AcDbBlockTableRecord
  2
*Paper_Space0
340
26
 70
     0
280
     1
281
     0
  0
BLOCK_RECORD
  5
6E
330
1
100
AcDbSymbolTableRecord
100
AcDbBlockTableRecord
  2
062B_2E_Aufsatzrahmen
340
0
102
{BLKREFS
331
72
102
}
 70
     0
280
     1
281
     0
  0
BLOCK_RECORD
  5
71
330
1
100
AcDbSymbolTableRecord
100
AcDbBlockTableRecord
  2
HL_66_0_Aufsatzrahmen
340
0
102
{BLKREFS
331
79
102
}
 70
     0
280
     1
281
     0
  0
BLOCK_RECORD
  5
75
330
1
100
AcDbSymbolTableRecord
100
AcDbBlockTableRecord
  2
TOP
340
0
102
{BLKREFS
331
7A
102
}
 70
     0
280
     1
281
     0
  0
BLOCK_RECORD
  5
78
330
1
100
AcDbSymbolTableRecord
100
AcDbBlockTableRecord
  2
HL_62_1BH_5_DN160_Dachablauf
340
0
102
{BLKREFS
331
7D
102
}
 70
     0
280
     1
281
     0
  0
BLOCK_RECORD
  5
187
330
1
100
AcDbSymbolTableRecord
100
AcDbBlockTableRecord
  2
*D5
340
0
 70
     0
280
     1
281
     0
  0
BLOCK_RECORD
  5
193
330
1
100
AcDbSymbolTableRecord
100
AcDbBlockTableRecord
  2
*D6
340
0
 70
     0
280
     1
281
     0
  0
BLOCK_RECORD
  5
19E
330
1
100
AcDbSymbolTableRecord
100
AcDbBlockTableRecord
  2
*D7
340
0
 70
     0
280
     1
281
     0
  0
BLOCK_RECORD
  5
1A9
330
1
100
AcDbSymbolTableRecord
100
AcDbBlockTableRecord
  2
*D8
340
0
 70
     0
280
     1
281
     0
  0
BLOCK_RECORD
  5
1B4
330
1
100
AcDbSymbolTableRecord
100
AcDbBlockTableRecord
  2
*D9
340
0
 70
     0
280
     1
281
     0
  0
BLOCK_RECORD
  5
1BF
330
1
100
AcDbSymbolTableRecord
100
AcDbBlockTableRecord
  2
*D10
340
0
 70
     0
280
     1
281
     0
  0
ENDTAB
  0
ENDSEC
  0
SECTION
  2
BLOCKS
  0
BLOCK
  5
20
330
1F
100
AcDbEntity
  8
0
100
AcDbBlockBegin
  2
*Model_Space
 70
     0
 10
0.0
 20
0.0
 30
0.0
  3
*Model_Space
  1

  0
ENDBLK
  5
21
330
1F
100
AcDbEntity
  8
0
100
AcDbBlockEnd
  0
BLOCK
  5
1C
330
1B
100
AcDbEntity
 67
     1
  8
0
100
AcDbBlockBegin
  2
*Paper_Space
 70
     0
 10
0.0
 20
0.0
 30
0.0
  3
*Paper_Space
  1

  0
ENDBLK
  5
1D
330
1B
100
AcDbEntity
 67
     1
  8
0
100
AcDbBlockEnd
  0
BLOCK
  5
24
330
23
100
AcDbEntity
  8
0
100
AcDbBlockBegin
  2
*Paper_Space0
 70
     0
 10
0.0
 20
0.0
 30
0.0
  3
*Paper_Space0
  1

  0
ENDBLK
  5
25
330
23
100
AcDbEntity
  8
0
100
AcDbBlockEnd
  0
BLOCK
  5
6F
330
6E
100
AcDbEntity
  8
0
100
AcDbBlockBegin
  2
062B_2E_Aufsatzrahmen
 70
     0
 10
0.00008365643583
 20
24.4119012381222
 30
0.0
  3
062B_2E_Aufsatzrahmen
  1

  0
POINT
  5
7E
330
6E
100
AcDbEntity
  8
0
 62
     7
100
AcDbPoint
 10
73.50008365643582
 20
69.69999999999999
 30
0.0
  0
POINT
  5
7F
330
6E
100
AcDbEntity
  8
0
 62
     7
100
AcDbPoint
 10
73.50008365643582
 20
69.69999999999999
 30
0.0
  0
POINT
  5
80
330
6E
100
AcDbEntity
  8
0
 62
     7
100
AcDbPoint
 10
-73.49991634356417
 20
69.69999999999999
 30
0.0
  0
LINE
  5
81
330
6E
100
AcDbEntity
  8
1
  6
Continuous
 62
     7
100
AcDbLine
 10
-63.49991634356417
 20
53.19999999999999
 30
0.0
 11
-63.49991634356417
 21
55.69999999999999
 31
0.0
  0
LINE
  5
82
330
6E
100
AcDbEntity
  8
1
  6
Continuous
 62
     7
100
AcDbLine
 10
-63.49991634356417
 20
51.19999999999999
 30
0.0
 11
-63.49991634356417
 21
53.19999999999999
 31
0.0
  0
LINE
  5
83
330
6E
100
AcDbEntity
  8
1
  6
Continuous
 62
     7
100
AcDbLine
 10
-63.49991634356417
 20
55.69999999999999
 30
0.0
 11
-34.99991634356417
 21
51.19999999999999
 31
0.0
  0
LINE
  5
84
330
6E
100
AcDbEntity
  8
1
  6
Continuous
 62
     7
100
AcDbLine
 10
63.50008365643583
 20
53.19999999999999
 30
0.0
 11
63.50008365643583
 21
51.19999999999999
 31
0.0
  0
LINE
  5
85
330
6E
100
AcDbEntity
  8
1
  6
Continuous
 62
     7
100
AcDbLine
 10
72.50008365643582
 20
53.19999999999999
 30
0.0
 11
63.50008365643583
 21
53.19999999999999
 31
0.0
  0
LINE
  5
86
330
6E
100
AcDbEntity
  8
1
  6
Continuous
 62
     7
100
AcDbLine
 10
63.50008365643583
 20
51.19999999999999
 30
0.0
 11
72.50008365643582
 21
51.19999999999999
 31
0.0
  0
LINE
  5
87
330
6E
100
AcDbEntity
  8
1
  6
Continuous
 62
     7
100
AcDbLine
 10
63.50008365643583
 20
55.69999999999999
 30
0.0
 11
63.50008365643583
 21
53.19999999999999
 31
0.0
  0
LINE
  5
88
330
6E
100
AcDbEntity
  8
1
  6
Continuous
 62
     7
100
AcDbLine
 10
63.50008365643583
 20
55.69999999999999
 30
0.0
 11
72.50008365643582
 21
55.69999999999999
 31
0.0
  0
LINE
  5
89
330
6E
100
AcDbEntity
  8
1
  6
Continuous
 62
     7
100
AcDbLine
 10
35.00008365643583
 20
51.19999999999999
 30
0.0
 11
63.50008365643583
 21
55.69999999999999
 31
0.0
  0
LINE
  5
8A
330
6E
100
AcDbEntity
  8
1
  6
Continuous
 62
     7
100
AcDbLine
 10
35.00008365643583
 20
51.19999999999999
 30
0.0
 11
63.50008365643583
 21
51.19999999999999
 31
0.0
  0
LINE
  5
8B
330
6E
100
AcDbEntity
  8
1
  6
Continuous
 62
     7
100
AcDbLine
 10
35.00008365643583
 20
51.19999999999999
 30
0.0
 11
35.00008365643583
 21
53.19999999999999
 31
0.0
  0
LINE
  5
8C
330
6E
100
AcDbEntity
  8
1
  6
Continuous
 62
     7
100
AcDbLine
 10
-34.99991634356417
 20
53.19999999999999
 30
0.0
 11
35.00008365643583
 21
53.19999999999999
 31
0.0
  0
LINE
  5
8D
330
6E
100
AcDbEntity
  8
1
  6
Continuous
 62
     7
100
AcDbLine
 10
-34.99991634356417
 20
51.19999999999999
 30
0.0
 11
35.00008365643583
 21
51.19999999999999
 31
0.0
  0
LINE
  5
8E
330
6E
100
AcDbEntity
  8
1
  6
Continuous
 62
     7
100
AcDbLine
 10
-34.99991634356417
 20
53.19999999999999
 30
0.0
 11
-34.99991634356417
 21
51.19999999999999
 31
0.0
  0
LINE
  5
8F
330
6E
100
AcDbEntity
  8
LC-003-002-----0
  6
Continuous
 62
     7
100
AcDbLine
 10
72.50008365643582
 20
55.69999999999999
 30
0.0
 11
72.50008365643582
 21
53.19999999999999
 31
0.0
  0
LINE
  5
90
330
6E
100
AcDbEntity
  8
LC-003-002-----0
  6
Continuous
 62
     7
100
AcDbLine
 10
72.50008365643582
 20
45.19999999999999
 30
0.0
 11
72.50008365643582
 21
44.19999999999999
 31
0.0
  0
LINE
  5
91
330
6E
100
AcDbEntity
  8
LC-003-002-----0
  6
Continuous
 62
     7
100
AcDbLine
 10
72.50008365643582
 20
40.69999999999999
 30
0.0
 11
72.50008365643582
 21
39.69999999999999
 31
0.0
  0
LINE
  5
92
330
6E
100
AcDbEntity
  8
LC-003-002-----0
  6
Continuous
 62
     7
100
AcDbLine
 10
72.50008365643582
 20
36.19999999999999
 30
0.0
 11
72.50008365643582
 21
35.19999999999999
 31
0.0
  0
LINE
  5
93
330
6E
100
AcDbEntity
  8
LC-003-002-----0
  6
Continuous
 62
     7
100
AcDbLine
 10
72.50008365643582
 20
31.69999999999999
 30
0.0
 11
72.50008365643582
 21
30.69999999999999
 31
0.0
  0
LINE
  5
94
330
6E
100
AcDbEntity
  8
LC-003-002-----0
  6
Continuous
 62
     7
100
AcDbLine
 10
72.50008365643582
 20
27.19999999999999
 30
0.0
 11
72.50008365643582
 21
26.19999999999999
 31
0.0
  0
LINE
  5
95
330
6E
100
AcDbEntity
  8
LC-003-002-----0
  6
Continuous
 62
     7
100
AcDbLine
 10
72.50008365643582
 20
22.69999999999999
 30
0.0
 11
72.50008365643582
 21
21.69999999999999
 31
0.0
  0
LINE
  5
96
330
6E
100
AcDbEntity
  8
LC-003-002-----0
  6
Continuous
 62
     7
100
AcDbLine
 10
72.50008365643582
 20
18.19999999999999
 30
0.0
 11
72.50008365643582
 21
17.19999999999999
 31
0.0
  0
LINE
  5
97
330
6E
100
AcDbEntity
  8
LC-003-002-----0
  6
Continuous
 62
     7
100
AcDbLine
 10
72.50008365643582
 20
13.69999999999999
 30
0.0
 11
72.50008365643582
 21
12.69999999999999
 31
0.0
  0
LINE
  5
98
330
6E
100
AcDbEntity
  8
LC-003-002-----0
  6
Continuous
 62
     7
100
AcDbLine
 10
72.50008365643582
 20
9.19999999999999
 30
0.0
 11
72.50008365643582
 21
8.19999999999999
 31
0.0
  0
LINE
  5
99
330
6E
100
AcDbEntity
  8
LC-003-002-----0
  6
Continuous
 62
     7
100
AcDbLine
 10
72.00008365643582
 20
45.69999999999999
 30
0.0
 11
72.00008365643582
 21
45.69999999999999
 31
0.0
  0
LINE
  5
9A
330
6E
100
AcDbEntity
  8
LC-003-002-----0
  6
Continuous
 62
     7
100
AcDbLine
 10
72.00008365643582
 20
41.19999999999999
 30
0.0
 11
72.00008365643582
 21
41.19999999999999
 31
0.0
  0
LINE
  5
9B
330
6E
100
AcDbEntity
  8
LC-003-002-----0
  6
Continuous
 62
     7
100
AcDbLine
 10
72.00008365643582
 20
36.69999999999999
 30
0.0
 11
72.00008365643582
 21
36.69999999999999
 31
0.0
  0
LINE
  5
9C
330
6E
100
AcDbEntity
  8
LC-003-002-----0
  6
Continuous
 62
     7
100
AcDbLine
 10
72.00008365643582
 20
32.19999999999999
 30
0.0
 11
72.00008365643582
 21
32.19999999999999
 31
0.0
  0
LINE
  5
9D
330
6E
100
AcDbEntity
  8
LC-003-002-----0
  6
Continuous
 62
     7
100
AcDbLine
 10
72.00008365643582
 20
27.69999999999999
 30
0.0
 11
72.00008365643582
 21
27.69999999999999
 31
0.0
  0
LINE
  5
9E
330
6E
100
AcDbEntity
  8
LC-003-002-----0
  6
Continuous
 62
     7
100
AcDbLine
 10
72.00008365643582
 20
23.19999999999999
 30
0.0
 11
72.00008365643582
 21
23.19999999999999
 31
0.0
  0
LINE
  5
9F
330
6E
100
AcDbEntity
  8
LC-003-002-----0
  6
Continuous
 62
     7
100
AcDbLine
 10
72.00008365643582
 20
18.69999999999999
 30
0.0
 11
72.00008365643582
 21
18.69999999999999
 31
0.0
  0
LINE
  5
A0
330
6E
100
AcDbEntity
  8
LC-003-002-----0
  6
Continuous
 62
     7
100
AcDbLine
 10
72.00008365643582
 20
14.19999999999999
 30
0.0
 11
72.00008365643582
 21
14.19999999999999
 31
0.0
  0
LINE
  5
A1
330
6E
100
AcDbEntity
  8
LC-003-002-----0
  6
Continuous
 62
     7
100
AcDbLine
 10
72.00008365643582
 20
9.69999999999999
 30
0.0
 11
72.00008365643582
 21
9.69999999999999
 31
0.0
  0
LINE
  5
A2
330
6E
100
AcDbEntity
  8
LC-003-002-----0
  6
Continuous
 62
     7
100
AcDbLine
 10
72.00008365643582
 20
48.19999999999999
 30
0.0
 11
72.00008365643582
 21
48.19999999999999
 31
0.0
  0
LINE
  5
A3
330
6E
100
AcDbEntity
  8
LC-003-002-----0
  6
Continuous
 62
     7
100
AcDbLine
 10
72.00008365643582
 20
43.69999999999999
 30
0.0
 11
72.00008365643582
 21
43.69999999999999
 31
0.0
  0
LINE
  5
A4
330
6E
100
AcDbEntity
  8
LC-003-002-----0
  6
Continuous
 62
     7
100
AcDbLine
 10
72.00008365643582
 20
39.19999999999999
 30
0.0
 11
72.00008365643582
 21
39.19999999999999
 31
0.0
  0
LINE
  5
A5
330
6E
100
AcDbEntity
  8
LC-003-002-----0
  6
Continuous
 62
     7
100
AcDbLine
 10
72.00008365643582
 20
34.69999999999999
 30
0.0
 11
72.00008365643582
 21
34.69999999999999
 31
0.0
  0
LINE
  5
A6
330
6E
100
AcDbEntity
  8
LC-003-002-----0
  6
Continuous
 62
     7
100
AcDbLine
 10
72.00008365643582
 20
30.19999999999999
 30
0.0
 11
72.00008365643582
 21
30.19999999999999
 31
0.0
  0
LINE
  5
A7
330
6E
100
AcDbEntity
  8
LC-003-002-----0
  6
Continuous
 62
     7
100
AcDbLine
 10
72.00008365643582
 20
25.69999999999999
 30
0.0
 11
72.00008365643582
 21
25.69999999999999
 31
0.0
  0
LINE
  5
A8
330
6E
100
AcDbEntity
  8
LC-003-002-----0
  6
Continuous
 62
     7
100
AcDbLine
 10
72.00008365643582
 20
21.19999999999999
 30
0.0
 11
72.00008365643582
 21
21.19999999999999
 31
0.0
  0
LINE
  5
A9
330
6E
100
AcDbEntity
  8
LC-003-002-----0
  6
Continuous
 62
     7
100
AcDbLine
 10
72.00008365643582
 20
16.69999999999999
 30
0.0
 11
72.00008365643582
 21
16.69999999999999
 31
0.0
  0
LINE
  5
AA
330
6E
100
AcDbEntity
  8
LC-003-002-----0
  6
Continuous
 62
     7
100
AcDbLine
 10
72.00008365643582
 20
12.19999999999999
 30
0.0
 11
72.00008365643582
 21
12.19999999999999
 31
0.0
  0
LINE
  5
AB
330
6E
100
AcDbEntity
  8
LC-003-002-----0
  6
Continuous
 62
     7
100
AcDbLine
 10
72.00008365643582
 20
7.69999999999999
 30
0.0
 11
72.00008365643582
 21
7.69999999999999
 31
0.0
  0
LINE
  5
AC
330
6E
100
AcDbEntity
  8
LC-003-002-----0
  6
Continuous
 62
     7
100
AcDbLine
 10
72.50008365643582
 20
51.19999999999999
 30
0.0
 11
72.50008365643582
 21
48.69999999999999
 31
0.0
  0
LINE
  5
AD
330
6E
100
AcDbEntity
  8
LC-003-002-----0
  6
Continuous
 62
     7
100
AcDbLine
 10
73.00008365643582
 20
53.19999999999999
 30
0.0
 11
73.00008365643582
 21
51.19999999999999
 31
0.0
  0
LINE
  5
AE
330
6E
100
AcDbEntity
  8
LC-003-002-----0
  6
Continuous
 62
     7
100
AcDbLine
 10
73.00008365643582
 20
51.19999999999999
 30
0.0
 11
72.50008365643582
 21
51.19999999999999
 31
0.0
  0
LINE
  5
AF
330
6E
100
AcDbEntity
  8
LC-003-002-----0
  6
Continuous
 62
     7
100
AcDbLine
 10
72.50008365643582
 20
55.69999999999999
 30
0.0
 11
73.50008365643582
 21
55.69999999999999
 31
0.0
  0
LINE
  5
B0
330
6E
100
AcDbEntity
  8
LC-003-002-----0
  6
Continuous
 62
     7
100
AcDbLine
 10
73.00008365643582
 20
53.19999999999999
 30
0.0
 11
72.50008365643582
 21
53.19999999999999
 31
0.0
  0
LINE
  5
B1
330
6E
100
AcDbEntity
  8
LC-003-002-----0
  6
Continuous
 62
     7
100
AcDbLine
 10
73.50008365643582
 20
69.69999999999999
 30
0.0
 11
73.50008365643582
 21
55.69999999999999
 31
0.0
  0
LINE
  5
B2
330
6E
100
AcDbEntity
  8
LC-003-002-----0
  6
Continuous
 62
     7
100
AcDbLine
 10
73.50008365643582
 20
69.69999999999999
 30
0.0
 11
-73.49991634356417
 21
69.69999999999999
 31
0.0
  0
LINE
  5
B3
330
6E
100
AcDbEntity
  8
LC-003-002-----0
  6
Continuous
 62
     7
100
AcDbLine
 10
-72.49991634356417
 20
55.69999999999999
 30
0.0
 11
-72.49991634356417
 21
53.19999999999999
 31
0.0
  0
LINE
  5
B4
330
6E
100
AcDbEntity
  8
LC-003-002-----0
  6
Continuous
 62
     7
100
AcDbLine
 10
-72.49991634356417
 20
45.19999999999999
 30
0.0
 11
-72.49991634356417
 21
44.19999999999999
 31
0.0
  0
LINE
  5
B5
330
6E
100
AcDbEntity
  8
LC-003-002-----0
  6
Continuous
 62
     7
100
AcDbLine
 10
-72.49991634356417
 20
40.69999999999999
 30
0.0
 11
-72.49991634356417
 21
39.69999999999999
 31
0.0
  0
LINE
  5
B6
330
6E
100
AcDbEntity
  8
LC-003-002-----0
  6
Continuous
 62
     7
100
AcDbLine
 10
-72.49991634356417
 20
36.19999999999999
 30
0.0
 11
-72.49991634356417
 21
35.19999999999999
 31
0.0
  0
LINE
  5
B7
330
6E
100
AcDbEntity
  8
LC-003-002-----0
  6
Continuous
 62
     7
100
AcDbLine
 10
-72.49991634356417
 20
31.69999999999999
 30
0.0
 11
-72.49991634356417
 21
30.69999999999999
 31
0.0
  0
LINE
  5
B8
330
6E
100
AcDbEntity
  8
LC-003-002-----0
  6
Continuous
 62
     7
100
AcDbLine
 10
-72.49991634356417
 20
27.19999999999999
 30
0.0
 11
-72.49991634356417
 21
26.19999999999999
 31
0.0
  0
LINE
  5
B9
330
6E
100
AcDbEntity
  8
LC-003-002-----0
  6
Continuous
 62
     7
100
AcDbLine
 10
-72.49991634356417
 20
22.69999999999999
 30
0.0
 11
-72.49991634356417
 21
21.69999999999999
 31
0.0
  0
LINE
  5
BA
330
6E
100
AcDbEntity
  8
LC-003-002-----0
  6
Continuous
 62
     7
100
AcDbLine
 10
-72.49991634356417
 20
18.19999999999999
 30
0.0
 11
-72.49991634356417
 21
17.19999999999999
 31
0.0
  0
LINE
  5
BB
330
6E
100
AcDbEntity
  8
LC-003-002-----0
  6
Continuous
 62
     7
100
AcDbLine
 10
-72.49991634356417
 20
13.69999999999999
 30
0.0
 11
-72.49991634356417
 21
12.69999999999999
 31
0.0
  0
LINE
  5
BC
330
6E
100
AcDbEntity
  8
LC-003-002-----0
  6
Continuous
 62
     7
100
AcDbLine
 10
-72.49991634356417
 20
9.19999999999999
 30
0.0
 11
-72.49991634356417
 21
8.19999999999999
 31
0.0
  0
LINE
  5
BD
330
6E
100
AcDbEntity
  8
LC-003-002-----0
  6
Continuous
 62
     7
100
AcDbLine
 10
-71.99991634356417
 20
45.69999999999999
 30
0.0
 11
-71.99991634356417
 21
45.69999999999999
 31
0.0
  0
LINE
  5
BE
330
6E
100
AcDbEntity
  8
LC-003-002-----0
  6
Continuous
 62
     7
100
AcDbLine
 10
-71.99991634356417
 20
41.19999999999999
 30
0.0
 11
-71.99991634356417
 21
41.19999999999999
 31
0.0
  0
LINE
  5
BF
330
6E
100
AcDbEntity
  8
LC-003-002-----0
  6
Continuous
 62
     7
100
AcDbLine
 10
-71.99991634356417
 20
36.69999999999999
 30
0.0
 11
-71.99991634356417
 21
36.69999999999999
 31
0.0
  0
LINE
  5
C0
330
6E
100
AcDbEntity
  8
LC-003-002-----0
  6
Continuous
 62
     7
100
AcDbLine
 10
-71.99991634356417
 20
32.19999999999999
 30
0.0
 11
-71.99991634356417
 21
32.19999999999999
 31
0.0
  0
LINE
  5
C1
330
6E
100
AcDbEntity
  8
LC-003-002-----0
  6
Continuous
 62
     7
100
AcDbLine
 10
-71.99991634356417
 20
27.69999999999999
 30
0.0
 11
-71.99991634356417
 21
27.69999999999999
 31
0.0
  0
LINE
  5
C2
330
6E
100
AcDbEntity
  8
LC-003-002-----0
  6
Continuous
 62
     7
100
AcDbLine
 10
-71.99991634356417
 20
23.19999999999999
 30
0.0
 11
-71.99991634356417
 21
23.19999999999999
 31
0.0
  0
LINE
  5
C3
330
6E
100
AcDbEntity
  8
LC-003-002-----0
  6
Continuous
 62
     7
100
AcDbLine
 10
-71.99991634356417
 20
18.69999999999999
 30
0.0
 11
-71.99991634356417
 21
18.69999999999999
 31
0.0
  0
LINE
  5
C4
330
6E
100
AcDbEntity
  8
LC-003-002-----0
  6
Continuous
 62
     7
100
AcDbLine
 10
-71.99991634356417
 20
14.19999999999999
 30
0.0
 11
-71.99991634356417
 21
14.19999999999999
 31
0.0
  0
LINE
  5
C5
330
6E
100
AcDbEntity
  8
LC-003-002-----0
  6
Continuous
 62
     7
100
AcDbLine
 10
-71.99991634356417
 20
9.69999999999999
 30
0.0
 11
-71.99991634356417
 21
9.69999999999999
 31
0.0
  0
LINE
  5
C6
330
6E
100
AcDbEntity
  8
LC-003-002-----0
  6
Continuous
 62
     7
100
AcDbLine
 10
-71.99991634356417
 20
48.19999999999999
 30
0.0
 11
-71.99991634356417
 21
48.19999999999999
 31
0.0
  0
LINE
  5
C7
330
6E
100
AcDbEntity
  8
LC-003-002-----0
  6
Continuous
 62
     7
100
AcDbLine
 10
-71.99991634356417
 20
43.69999999999999
 30
0.0
 11
-71.99991634356417
 21
43.69999999999999
 31
0.0
  0
LINE
  5
C8
330
6E
100
AcDbEntity
  8
LC-003-002-----0
  6
Continuous
 62
     7
100
AcDbLine
 10
-71.99991634356417
 20
39.19999999999999
 30
0.0
 11
-71.99991634356417
 21
39.19999999999999
 31
0.0
  0
LINE
  5
C9
330
6E
100
AcDbEntity
  8
LC-003-002-----0
  6
Continuous
 62
     7
100
AcDbLine
 10
-71.99991634356417
 20
34.69999999999999
 30
0.0
 11
-71.99991634356417
 21
34.69999999999999
 31
0.0
  0
LINE
  5
CA
330
6E
100
AcDbEntity
  8
LC-003-002-----0
  6
Continuous
 62
     7
100
AcDbLine
 10
-71.99991634356417
 20
30.19999999999999
 30
0.0
 11
-71.99991634356417
 21
30.19999999999999
 31
0.0
  0
LINE
  5
CB
330
6E
100
AcDbEntity
  8
LC-003-002-----0
  6
Continuous
 62
     7
100
AcDbLine
 10
-71.99991634356417
 20
25.69999999999999
 30
0.0
 11
-71.99991634356417
 21
25.69999999999999
 31
0.0
  0
LINE
  5
CC
330
6E
100
AcDbEntity
  8
LC-003-002-----0
  6
Continuous
 62
     7
100
AcDbLine
 10
-71.99991634356417
 20
21.19999999999999
 30
0.0
 11
-71.99991634356417
 21
21.19999999999999
 31
0.0
  0
LINE
  5
CD
330
6E
100
AcDbEntity
  8
LC-003-002-----0
  6
Continuous
 62
     7
100
AcDbLine
 10
-71.99991634356417
 20
16.69999999999999
 30
0.0
 11
-71.99991634356417
 21
16.69999999999999
 31
0.0
  0
LINE
  5
CE
330
6E
100
AcDbEntity
  8
LC-003-002-----0
  6
Continuous
 62
     7
100
AcDbLine
 10
-71.99991634356417
 20
12.19999999999999
 30
0.0
 11
-71.99991634356417
 21
12.19999999999999
 31
0.0
  0
LINE
  5
CF
330
6E
100
AcDbEntity
  8
LC-003-002-----0
  6
Continuous
 62
     7
100
AcDbLine
 10
-71.99991634356417
 20
7.69999999999999
 30
0.0
 11
-71.99991634356417
 21
7.69999999999999
 31
0.0
  0
LINE
  5
D0
330
6E
100
AcDbEntity
  8
LC-003-002-----0
  6
Continuous
 62
     7
100
AcDbLine
 10
-72.49991634356417
 20
51.19999999999999
 30
0.0
 11
-72.49991634356417
 21
48.69999999999999
 31
0.0
  0
LINE
  5
D1
330
6E
100
AcDbEntity
  8
LC-003-002-----0
  6
Continuous
 62
     7
100
AcDbLine
 10
-72.99991634356417
 20
53.19999999999999
 30
0.0
 11
-72.99991634356417
 21
51.19999999999999
 31
0.0
  0
LINE
  5
D2
330
6E
100
AcDbEntity
  8
LC-003-002-----0
  6
Continuous
 62
     7
100
AcDbLine
 10
-72.99991634356417
 20
51.19999999999999
 30
0.0
 11
-72.49991634356417
 21
51.19999999999999
 31
0.0
  0
LINE
  5
D3
330
6E
100
AcDbEntity
  8
LC-003-002-----0
  6
Continuous
 62
     7
100
AcDbLine
 10
-72.49991634356417
 20
55.69999999999999
 30
0.0
 11
-73.49991634356417
 21
55.69999999999999
 31
0.0
  0
LINE
  5
D4
330
6E
100
AcDbEntity
  8
LC-003-002-----0
  6
Continuous
 62
     7
100
AcDbLine
 10
-72.99991634356417
 20
53.19999999999999
 30
0.0
 11
-72.49991634356417
 21
53.19999999999999
 31
0.0
  0
LINE
  5
D5
330
6E
100
AcDbEntity
  8
LC-003-002-----0
  6
Continuous
 62
     7
100
AcDbLine
 10
-73.49991634356417
 20
69.69999999999999
 30
0.0
 11
-73.49991634356417
 21
55.69999999999999
 31
0.0
  0
LINE
  5
D6
330
6E
100
AcDbEntity
  8
1
  6
Continuous
 62
     7
100
AcDbLine
 10
-72.49991634356417
 20
55.69999999999999
 30
0.0
 11
63.50008365643583
 21
55.69999999999999
 31
0.0
  0
LINE
  5
D7
330
6E
100
AcDbEntity
  8
1
  6
Continuous
 62
     7
100
AcDbLine
 10
-72.49991634356417
 20
53.19999999999999
 30
0.0
 11
-63.49991634356417
 21
53.19999999999999
 31
0.0
  0
LINE
  5
D8
330
6E
100
AcDbEntity
  8
1
  6
Continuous
 62
     7
100
AcDbLine
 10
-72.49991634356417
 20
51.19999999999999
 30
0.0
 11
-34.99991634356417
 21
51.19999999999999
 31
0.0
  0
LINE
  5
D9
330
6E
100
AcDbEntity
  8
1
  6
Continuous
 62
     7
100
AcDbLine
 10
72.00008365643582
 20
48.19999999999999
 30
0.0
 11
-71.99991634356417
 21
48.19999999999999
 31
0.0
  0
LINE
  5
DA
330
6E
100
AcDbEntity
  8
1
  6
Continuous
 62
     7
100
AcDbLine
 10
-71.99991634356417
 20
45.69999999999999
 30
0.0
 11
72.00008365643582
 21
45.69999999999999
 31
0.0
  0
LINE
  5
DB
330
6E
100
AcDbEntity
  8
1
  6
Continuous
 62
     7
100
AcDbLine
 10
-71.99991634356417
 20
43.69999999999999
 30
0.0
 11
72.00008365643582
 21
43.69999999999999
 31
0.0
  0
LINE
  5
DC
330
6E
100
AcDbEntity
  8
1
  6
Continuous
 62
     7
100
AcDbLine
 10
-71.99991634356417
 20
41.19999999999999
 30
0.0
 11
72.00008365643582
 21
41.19999999999999
 31
0.0
  0
LINE
  5
DD
330
6E
100
AcDbEntity
  8
1
  6
Continuous
 62
     7
100
AcDbLine
 10
-71.99991634356417
 20
39.19999999999999
 30
0.0
 11
72.00008365643582
 21
39.19999999999999
 31
0.0
  0
LINE
  5
DE
330
6E
100
AcDbEntity
  8
1
  6
Continuous
 62
     7
100
AcDbLine
 10
-71.99991634356417
 20
36.69999999999999
 30
0.0
 11
72.00008365643582
 21
36.69999999999999
 31
0.0
  0
LINE
  5
DF
330
6E
100
AcDbEntity
  8
1
  6
Continuous
 62
     7
100
AcDbLine
 10
-71.99991634356417
 20
34.69999999999999
 30
0.0
 11
72.00008365643582
 21
34.69999999999999
 31
0.0
  0
LINE
  5
E0
330
6E
100
AcDbEntity
  8
1
  6
Continuous
 62
     7
100
AcDbLine
 10
-71.99991634356417
 20
32.19999999999999
 30
0.0
 11
72.00008365643582
 21
32.19999999999999
 31
0.0
  0
LINE
  5
E1
330
6E
100
AcDbEntity
  8
1
  6
Continuous
 62
     7
100
AcDbLine
 10
-71.99991634356417
 20
30.19999999999999
 30
0.0
 11
72.00008365643582
 21
30.19999999999999
 31
0.0
  0
LINE
  5
E2
330
6E
100
AcDbEntity
  8
1
  6
Continuous
 62
     7
100
AcDbLine
 10
-71.99991634356417
 20
27.69999999999999
 30
0.0
 11
72.00008365643582
 21
27.69999999999999
 31
0.0
  0
LINE
  5
E3
330
6E
100
AcDbEntity
  8
1
  6
Continuous
 62
     7
100
AcDbLine
 10
-71.99991634356417
 20
25.69999999999999
 30
0.0
 11
72.00008365643582
 21
25.69999999999999
 31
0.0
  0
LINE
  5
E4
330
6E
100
AcDbEntity
  8
1
  6
Continuous
 62
     7
100
AcDbLine
 10
-71.99991634356417
 20
23.19999999999999
 30
0.0
 11
72.00008365643582
 21
23.19999999999999
 31
0.0
  0
LINE
  5
E5
330
6E
100
AcDbEntity
  8
1
  6
Continuous
 62
     7
100
AcDbLine
 10
-71.99991634356417
 20
21.19999999999999
 30
0.0
 11
72.00008365643582
 21
21.19999999999999
 31
0.0
  0
LINE
  5
E6
330
6E
100
AcDbEntity
  8
1
  6
Continuous
 62
     7
100
AcDbLine
 10
-71.99991634356417
 20
18.69999999999999
 30
0.0
 11
72.00008365643582
 21
18.69999999999999
 31
0.0
  0
LINE
  5
E7
330
6E
100
AcDbEntity
  8
1
  6
Continuous
 62
     7
100
AcDbLine
 10
-71.99991634356417
 20
16.69999999999999
 30
0.0
 11
72.00008365643582
 21
16.69999999999999
 31
0.0
  0
LINE
  5
E8
330
6E
100
AcDbEntity
  8
1
  6
Continuous
 62
     7
100
AcDbLine
 10
-71.99991634356417
 20
14.19999999999999
 30
0.0
 11
72.00008365643582
 21
14.19999999999999
 31
0.0
  0
LINE
  5
E9
330
6E
100
AcDbEntity
  8
1
  6
Continuous
 62
     7
100
AcDbLine
 10
-71.99991634356417
 20
12.19999999999999
 30
0.0
 11
72.00008365643582
 21
12.19999999999999
 31
0.0
  0
LINE
  5
EA
330
6E
100
AcDbEntity
  8
1
  6
Continuous
 62
     7
100
AcDbLine
 10
-71.99991634356417
 20
9.69999999999999
 30
0.0
 11
72.00008365643582
 21
9.69999999999999
 31
0.0
  0
LINE
  5
EB
330
6E
100
AcDbEntity
  8
1
  6
Continuous
 62
     7
100
AcDbLine
 10
-71.99991634356417
 20
7.69999999999999
 30
0.0
 11
72.00008365643582
 21
7.69999999999999
 31
0.0
  0
LINE
  5
EC
330
6E
100
AcDbEntity
  8
LC-003-002-----0
  6
Continuous
 62
     7
100
AcDbLine
 10
-71.99991634356417
 20
5.19999999999999
 30
0.0
 11
-71.99991634356417
 21
5.19999999999999
 31
0.0
  0
LINE
  5
ED
330
6E
100
AcDbEntity
  8
LC-003-002-----0
  6
Continuous
 62
     7
100
AcDbLine
 10
72.00008365643582
 20
5.19999999999999
 30
0.0
 11
72.00008365643582
 21
5.19999999999999
 31
0.0
  0
LINE
  5
EE
330
6E
100
AcDbEntity
  8
1
  6
Continuous
 62
     7
100
AcDbLine
 10
-71.99991634356417
 20
5.19999999999999
 30
0.0
 11
72.00008365643582
 21
5.19999999999999
 31
0.0
  0
LINE
  5
EF
330
6E
100
AcDbEntity
  8
1
  6
PHANTOM
 62
     2
100
AcDbLine
 10
0.00008365643582
 20
72.35862692968414
 30
0.0
 11
0.00008365643582
 21
-23.53482445343974
 31
0.0
  0
ARC
  5
F0
330
6E
100
AcDbEntity
  8
LC-009-002-RND-0
  6
Continuous
 62
     7
100
AcDbCircle
 10
72.00008365643582
 20
8.19999999999999
 30
0.0
 40
0.5
100
AcDbArc
 50
270.0
 51
0.0
  0
ARC
  5
F1
330
6E
100
AcDbEntity
  8
LC-009-002-RND-0
  6
Continuous
 62
     7
100
AcDbCircle
 10
72.00008365643582
 20
17.19999999999999
 30
0.0
 40
0.5
100
AcDbArc
 50
270.0
 51
0.0
  0
ARC
  5
F2
330
6E
100
AcDbEntity
  8
LC-009-002-RND-0
  6
Continuous
 62
     7
100
AcDbCircle
 10
72.00008365643582
 20
12.69999999999999
 30
0.0
 40
0.5
100
AcDbArc
 50
270.0
 51
0.0
  0
ARC
  5
F3
330
6E
100
AcDbEntity
  8
LC-009-002-RND-0
  6
Continuous
 62
     7
100
AcDbCircle
 10
72.00008365643582
 20
21.69999999999999
 30
0.0
 40
0.5
100
AcDbArc
 50
270.0
 51
0.0
  0
ARC
  5
F4
330
6E
100
AcDbEntity
  8
LC-009-002-RND-0
  6
Continuous
 62
     7
100
AcDbCircle
 10
72.00008365643582
 20
26.19999999999999
 30
0.0
 40
0.5
100
AcDbArc
 50
270.0
 51
0.0
  0
ARC
  5
F5
330
6E
100
AcDbEntity
  8
LC-009-002-RND-0
  6
Continuous
 62
     7
100
AcDbCircle
 10
72.00008365643582
 20
30.69999999999999
 30
0.0
 40
0.5
100
AcDbArc
 50
270.0
 51
0.0
  0
ARC
  5
F6
330
6E
100
AcDbEntity
  8
LC-009-002-RND-0
  6
Continuous
 62
     7
100
AcDbCircle
 10
72.00008365643582
 20
35.19999999999999
 30
0.0
 40
0.5
100
AcDbArc
 50
270.0
 51
0.0
  0
ARC
  5
F7
330
6E
100
AcDbEntity
  8
LC-009-002-RND-0
  6
Continuous
 62
     7
100
AcDbCircle
 10
72.00008365643582
 20
39.69999999999999
 30
0.0
 40
0.5
100
AcDbArc
 50
270.0
 51
0.0
  0
ARC
  5
F8
330
6E
100
AcDbEntity
  8
LC-009-002-RND-0
  6
Continuous
 62
     7
100
AcDbCircle
 10
72.00008365643582
 20
44.19999999999999
 30
0.0
 40
0.5
100
AcDbArc
 50
270.0
 51
0.0
  0
ARC
  5
F9
330
6E
100
AcDbEntity
  8
LC-009-002-RND-0
  6
Continuous
 62
     7
100
AcDbCircle
 10
72.00008365643582
 20
48.69999999999999
 30
0.0
 40
0.5
100
AcDbArc
 50
270.0
 51
0.0
  0
ARC
  5
FA
330
6E
100
AcDbEntity
  8
LC-009-002-RND-0
  6
Continuous
 62
     7
100
AcDbCircle
 10
72.00008365643582
 20
45.19999999999999
 30
0.0
 40
0.5
100
AcDbArc
 50
0.0
 51
90.0
  0
ARC
  5
FB
330
6E
100
AcDbEntity
  8
LC-009-002-RND-0
  6
Continuous
 62
     7
100
AcDbCircle
 10
72.00008365643582
 20
40.69999999999999
 30
0.0
 40
0.5
100
AcDbArc
 50
0.0
 51
90.0
  0
ARC
  5
FC
330
6E
100
AcDbEntity
  8
LC-009-002-RND-0
  6
Continuous
 62
     7
100
AcDbCircle
 10
72.00008365643582
 20
36.19999999999999
 30
0.0
 40
0.5
100
AcDbArc
 50
0.0
 51
90.0
  0
ARC
  5
FD
330
6E
100
AcDbEntity
  8
LC-009-002-RND-0
  6
Continuous
 62
     7
100
AcDbCircle
 10
72.00008365643582
 20
31.69999999999999
 30
0.0
 40
0.5
100
AcDbArc
 50
0.0
 51
90.0
  0
ARC
  5
FE
330
6E
100
AcDbEntity
  8
LC-009-002-RND-0
  6
Continuous
 62
     7
100
AcDbCircle
 10
72.00008365643582
 20
27.19999999999999
 30
0.0
 40
0.5
100
AcDbArc
 50
0.0
 51
90.0
  0
ARC
  5
FF
330
6E
100
AcDbEntity
  8
LC-009-002-RND-0
  6
Continuous
 62
     7
100
AcDbCircle
 10
72.00008365643582
 20
22.69999999999999
 30
0.0
 40
0.5
100
AcDbArc
 50
0.0
 51
90.0
  0
ARC
  5
100
330
6E
100
AcDbEntity
  8
LC-009-002-RND-0
  6
Continuous
 62
     7
100
AcDbCircle
 10
72.00008365643582
 20
18.19999999999999
 30
0.0
 40
0.5
100
AcDbArc
 50
0.0
 51
90.0
  0
ARC
  5
101
330
6E
100
AcDbEntity
  8
LC-009-002-RND-0
  6
Continuous
 62
     7
100
AcDbCircle
 10
72.00008365643582
 20
13.69999999999999
 30
0.0
 40
0.5
100
AcDbArc
 50
0.0
 51
90.0
  0
ARC
  5
102
330
6E
100
AcDbEntity
  8
LC-009-002-RND-0
  6
Continuous
 62
     7
100
AcDbCircle
 10
72.00008365643582
 20
9.19999999999999
 30
0.0
 40
0.5
100
AcDbArc
 50
0.0
 51
90.0
  0
ARC
  5
103
330
6E
100
AcDbEntity
  8
LC-003-002-----0
  6
Continuous
 62
     7
100
AcDbCircle
 10
72.00008365643582
 20
46.94999999999999
 30
0.0
 40
1.25
100
AcDbArc
 50
90.0
 51
270.0
  0
ARC
  5
104
330
6E
100
AcDbEntity
  8
LC-003-002-----0
  6
Continuous
 62
     7
100
AcDbCircle
 10
72.00008365643582
 20
42.44999999999999
 30
0.0
 40
1.25
100
AcDbArc
 50
90.0
 51
270.0
  0
ARC
  5
105
330
6E
100
AcDbEntity
  8
LC-003-002-----0
  6
Continuous
 62
     7
100
AcDbCircle
 10
72.00008365643582
 20
37.94999999999999
 30
0.0
 40
1.25
100
AcDbArc
 50
90.0
 51
270.0
  0
ARC
  5
106
330
6E
100
AcDbEntity
  8
LC-003-002-----0
  6
Continuous
 62
     7
100
AcDbCircle
 10
72.00008365643582
 20
33.44999999999999
 30
0.0
 40
1.25
100
AcDbArc
 50
90.0
 51
270.0
  0
ARC
  5
107
330
6E
100
AcDbEntity
  8
LC-003-002-----0
  6
Continuous
 62
     7
100
AcDbCircle
 10
72.00008365643582
 20
28.94999999999999
 30
0.0
 40
1.25
100
AcDbArc
 50
90.0
 51
270.0
  0
ARC
  5
108
330
6E
100
AcDbEntity
  8
LC-003-002-----0
  6
Continuous
 62
     7
100
AcDbCircle
 10
72.00008365643582
 20
24.44999999999999
 30
0.0
 40
1.25
100
AcDbArc
 50
90.0
 51
270.0
  0
ARC
  5
109
330
6E
100
AcDbEntity
  8
LC-003-002-----0
  6
Continuous
 62
     7
100
AcDbCircle
 10
72.00008365643582
 20
19.94999999999999
 30
0.0
 40
1.25
100
AcDbArc
 50
90.0
 51
270.0
  0
ARC
  5
10A
330
6E
100
AcDbEntity
  8
LC-003-002-----0
  6
Continuous
 62
     7
100
AcDbCircle
 10
72.00008365643582
 20
15.44999999999999
 30
0.0
 40
1.249999999999998
100
AcDbArc
 50
90.0
 51
270.0
  0
ARC
  5
10B
330
6E
100
AcDbEntity
  8
LC-003-002-----0
  6
Continuous
 62
     7
100
AcDbCircle
 10
72.00008365643582
 20
10.94999999999999
 30
0.0
 40
1.25
100
AcDbArc
 50
90.0
 51
270.0
  0
ARC
  5
10C
330
6E
100
AcDbEntity
  8
LC-009-002-RND-0
  6
Continuous
 62
     7
100
AcDbCircle
 10
-71.99991634356417
 20
8.19999999999999
 30
0.0
 40
0.5
100
AcDbArc
 50
180.0
 51
270.0
  0
ARC
  5
10D
330
6E
100
AcDbEntity
  8
LC-009-002-RND-0
  6
Continuous
 62
     7
100
AcDbCircle
 10
-71.99991634356417
 20
17.19999999999999
 30
0.0
 40
0.5
100
AcDbArc
 50
180.0
 51
270.0
  0
ARC
  5
10E
330
6E
100
AcDbEntity
  8
LC-009-002-RND-0
  6
Continuous
 62
     7
100
AcDbCircle
 10
-71.99991634356417
 20
12.69999999999999
 30
0.0
 40
0.5
100
AcDbArc
 50
180.0
 51
270.0
  0
ARC
  5
10F
330
6E
100
AcDbEntity
  8
LC-009-002-RND-0
  6
Continuous
 62
     7
100
AcDbCircle
 10
-71.99991634356417
 20
21.69999999999999
 30
0.0
 40
0.5
100
AcDbArc
 50
180.0
 51
270.0
  0
ARC
  5
110
330
6E
100
AcDbEntity
  8
LC-009-002-RND-0
  6
Continuous
 62
     7
100
AcDbCircle
 10
-71.99991634356417
 20
26.19999999999999
 30
0.0
 40
0.5
100
AcDbArc
 50
180.0
 51
270.0
  0
ARC
  5
111
330
6E
100
AcDbEntity
  8
LC-009-002-RND-0
  6
Continuous
 62
     7
100
AcDbCircle
 10
-71.99991634356417
 20
30.69999999999999
 30
0.0
 40
0.5
100
AcDbArc
 50
180.0
 51
270.0
  0
ARC
  5
112
330
6E
100
AcDbEntity
  8
LC-009-002-RND-0
  6
Continuous
 62
     7
100
AcDbCircle
 10
-71.99991634356417
 20
35.19999999999999
 30
0.0
 40
0.5
100
AcDbArc
 50
180.0
 51
270.0
  0
ARC
  5
113
330
6E
100
AcDbEntity
  8
LC-009-002-RND-0
  6
Continuous
 62
     7
100
AcDbCircle
 10
-71.99991634356417
 20
39.69999999999999
 30
0.0
 40
0.5
100
AcDbArc
 50
180.0
 51
270.0
  0
ARC
  5
114
330
6E
100
AcDbEntity
  8
LC-009-002-RND-0
  6
Continuous
 62
     7
100
AcDbCircle
 10
-71.99991634356417
 20
44.19999999999999
 30
0.0
 40
0.5
100
AcDbArc
 50
180.0
 51
270.0
  0
ARC
  5
115
330
6E
100
AcDbEntity
  8
LC-009-002-RND-0
  6
Continuous
 62
     7
100
AcDbCircle
 10
-71.99991634356417
 20
48.69999999999999
 30
0.0
 40
0.5
100
AcDbArc
 50
180.0
 51
270.0
  0
ARC
  5
116
330
6E
100
AcDbEntity
  8
LC-009-002-RND-0
  6
Continuous
 62
     7
100
AcDbCircle
 10
-71.99991634356417
 20
45.19999999999999
 30
0.0
 40
0.5
100
AcDbArc
 50
90.0
 51
180.0
  0
ARC
  5
117
330
6E
100
AcDbEntity
  8
LC-009-002-RND-0
  6
Continuous
 62
     7
100
AcDbCircle
 10
-71.99991634356417
 20
40.69999999999999
 30
0.0
 40
0.5
100
AcDbArc
 50
90.0
 51
180.0
  0
ARC
  5
118
330
6E
100
AcDbEntity
  8
LC-009-002-RND-0
  6
Continuous
 62
     7
100
AcDbCircle
 10
-71.99991634356417
 20
36.19999999999999
 30
0.0
 40
0.5
100
AcDbArc
 50
90.0
 51
180.0
  0
ARC
  5
119
330
6E
100
AcDbEntity
  8
LC-009-002-RND-0
  6
Continuous
 62
     7
100
AcDbCircle
 10
-71.99991634356417
 20
31.69999999999999
 30
0.0
 40
0.5
100
AcDbArc
 50
90.0
 51
180.0
  0
ARC
  5
11A
330
6E
100
AcDbEntity
  8
LC-009-002-RND-0
  6
Continuous
 62
     7
100
AcDbCircle
 10
-71.99991634356417
 20
27.19999999999999
 30
0.0
 40
0.5
100
AcDbArc
 50
90.0
 51
180.0
  0
ARC
  5
11B
330
6E
100
AcDbEntity
  8
LC-009-002-RND-0
  6
Continuous
 62
     7
100
AcDbCircle
 10
-71.99991634356417
 20
22.69999999999999
 30
0.0
 40
0.5
100
AcDbArc
 50
90.0
 51
180.0
  0
ARC
  5
11C
330
6E
100
AcDbEntity
  8
LC-009-002-RND-0
  6
Continuous
 62
     7
100
AcDbCircle
 10
-71.99991634356417
 20
18.19999999999999
 30
0.0
 40
0.5
100
AcDbArc
 50
90.0
 51
180.0
  0
ARC
  5
11D
330
6E
100
AcDbEntity
  8
LC-009-002-RND-0
  6
Continuous
 62
     7
100
AcDbCircle
 10
-71.99991634356417
 20
13.69999999999999
 30
0.0
 40
0.5
100
AcDbArc
 50
90.0
 51
180.0
  0
ARC
  5
11E
330
6E
100
AcDbEntity
  8
LC-009-002-RND-0
  6
Continuous
 62
     7
100
AcDbCircle
 10
-71.99991634356417
 20
9.19999999999999
 30
0.0
 40
0.5
100
AcDbArc
 50
90.0
 51
180.0
  0
ARC
  5
11F
330
6E
100
AcDbEntity
  8
LC-003-002-----0
  6
Continuous
 62
     7
100
AcDbCircle
 10
-71.99991634356417
 20
46.94999999999999
 30
0.0
 40
1.25
100
AcDbArc
 50
270.0
 51
90.0
  0
ARC
  5
120
330
6E
100
AcDbEntity
  8
LC-003-002-----0
  6
Continuous
 62
     7
100
AcDbCircle
 10
-71.99991634356417
 20
42.44999999999999
 30
0.0
 40
1.25
100
AcDbArc
 50
270.0
 51
90.0
  0
ARC
  5
121
330
6E
100
AcDbEntity
  8
LC-003-002-----0
  6
Continuous
 62
     7
100
AcDbCircle
 10
-71.99991634356417
 20
37.94999999999999
 30
0.0
 40
1.25
100
AcDbArc
 50
270.0
 51
90.0
  0
ARC
  5
122
330
6E
100
AcDbEntity
  8
LC-003-002-----0
  6
Continuous
 62
     7
100
AcDbCircle
 10
-71.99991634356417
 20
33.44999999999999
 30
0.0
 40
1.25
100
AcDbArc
 50
270.0
 51
90.0
  0
ARC
  5
123
330
6E
100
AcDbEntity
  8
LC-003-002-----0
  6
Continuous
 62
     7
100
AcDbCircle
 10
-71.99991634356417
 20
28.94999999999999
 30
0.0
 40
1.25
100
AcDbArc
 50
270.0
 51
90.0
  0
ARC
  5
124
330
6E
100
AcDbEntity
  8
LC-003-002-----0
  6
Continuous
 62
     7
100
AcDbCircle
 10
-71.99991634356417
 20
24.44999999999999
 30
0.0
 40
1.25
100
AcDbArc
 50
270.0
 51
90.0
  0
ARC
  5
125
330
6E
100
AcDbEntity
  8
LC-003-002-----0
  6
Continuous
 62
     7
100
AcDbCircle
 10
-71.99991634356417
 20
19.94999999999999
 30
0.0
 40
1.25
100
AcDbArc
 50
270.0
 51
90.0
  0
ARC
  5
126
330
6E
100
AcDbEntity
  8
LC-003-002-----0
  6
Continuous
 62
     7
100
AcDbCircle
 10
-71.99991634356417
 20
15.44999999999999
 30
0.0
 40
1.25
100
AcDbArc
 50
270.0
 51
90.0
  0
ARC
  5
127
330
6E
100
AcDbEntity
  8
LC-003-002-----0
  6
Continuous
 62
     7
100
AcDbCircle
 10
-71.99991634356417
 20
10.94999999999999
 30
0.0
 40
1.250000000000002
100
AcDbArc
 50
270.0
 51
90.0
  0
ARC
  5
128
330
6E
100
AcDbEntity
  8
LC-009-002-RND-0
  6
Continuous
 62
     7
100
AcDbCircle
 10
-71.99991634356417
 20
4.69999999999999
 30
0.0
 40
0.5
100
AcDbArc
 50
90.0
 51
180.0
  0
ARC
  5
129
330
6E
100
AcDbEntity
  8
LC-003-002-----0
  6
Continuous
 62
     7
100
AcDbCircle
 10
-71.99991634356417
 20
6.44999999999999
 30
0.0
 40
1.25
100
AcDbArc
 50
270.0
 51
90.0
  0
ARC
  5
12A
330
6E
100
AcDbEntity
  8
LC-009-002-RND-0
  6
Continuous
 62
     7
100
AcDbCircle
 10
72.00008365643582
 20
4.69999999999999
 30
0.0
 40
0.5
100
AcDbArc
 50
0.0
 51
90.0
  0
ARC
  5
12B
330
6E
100
AcDbEntity
  8
LC-003-002-----0
  6
Continuous
 62
     7
100
AcDbCircle
 10
72.00008365643582
 20
6.44999999999999
 30
0.0
 40
1.25
100
AcDbArc
 50
90.0
 51
270.0
  0
ENDBLK
  5
70
330
6E
100
AcDbEntity
  8
0
100
AcDbBlockEnd
  0
BLOCK
  5
73
330
71
100
AcDbEntity
  8
0
100
AcDbBlockBegin
  2
HL_66_0_Aufsatzrahmen
 70
     0
 10
0.00008365643583
 20
24.4119012381222
 30
0.0
  3
HL_66_0_Aufsatzrahmen
  1

  0
INSERT
  5
72
330
71
100
AcDbEntity
  8
1
100
AcDbBlockReference
  2
062B_2E_Aufsatzrahmen
 10
0.00008365643583
 20
24.4119012381222
 30
0.0
  0
ENDBLK
  5
74
330
71
100
AcDbEntity
  8
0
100
AcDbBlockEnd
  0
BLOCK
  5
76
330
75
100
AcDbEntity
  8
0
100
AcDbBlockBegin
  2
TOP
 70
     0
 10
0.00003822473334
 20
-42.70737249999993
 30
0.0
  3
TOP
  1

  0
POINT
  5
12C
330
75
100
AcDbEntity
  8
LC-008-003-----0
 62
     7
100
AcDbPoint
 10
-77.29992227526667
 20
-163.6006839999999
 30
0.0
  0
POINT
  5
12D
330
75
100
AcDbEntity
  8
LC-008-003-----0
 62
     7
100
AcDbPoint
 10
-150.7516652752666
 20
-3.00045699999998
 30
0.0
  0
POINT
  5
12E
330
75
100
AcDbEntity
  8
LC-008-003-----0
 62
     7
100
AcDbPoint
 10
80.0000777247334
 20
-159.1006839999999
 30
0.0
  0
POINT
  5
12F
330
75
100
AcDbEntity
  8
LC-008-003-----0
 62
     7
100
AcDbPoint
 10
-79.9999222752666
 20
-159.1006839999999
 30
0.0
  0
POINT
  5
130
330
75
100
AcDbEntity
  8
LC-008-003-----0
 62
     7
100
AcDbPoint
 10
94.7714637247333
 20
-12.35769199999999
 30
0.0
  0
POINT
  5
131
330
75
100
AcDbEntity
  8
LC-008-003-----0
 62
     7
100
AcDbPoint
 10
-94.77130727526661
 20
-12.35769199999999
 30
0.0
  0
POINT
  5
132
330
75
100
AcDbEntity
  8
LC-008-003-----0
 62
     7
100
AcDbPoint
 10
150.7518207247332
 20
-3.00045699999998
 30
0.0
  0
POINT
  5
133
330
75
100
AcDbEntity
  8
LC-008-003-----0
 62
     7
100
AcDbPoint
 10
-150.7516652752666
 20
-3.00045699999998
 30
0.0
  0
POINT
  5
134
330
75
100
AcDbEntity
  8
LC-008-003-----0
 62
     7
100
AcDbPoint
 10
249.7971337247333
 20
4.69999999999999
 30
0.0
  0
POINT
  5
135
330
75
100
AcDbEntity
  8
LC-008-003-----0
 62
     7
100
AcDbPoint
 10
-249.7970572752666
 20
4.69999999999999
 30
0.0
  0
LINE
  5
136
330
75
100
AcDbEntity
  8
LC-002-002-----0
  6
Continuous
 62
     7
100
AcDbLine
 10
80.2500777247334
 20
-38.72915299999994
 30
0.0
 11
-80.2499222752666
 21
-38.72937300000007
 31
0.0
  0
LINE
  5
137
330
75
100
AcDbEntity
  8
LC-002-002-----0
  6
Continuous
 62
     7
100
AcDbLine
 10
89.49937072473325
 20
-25.10821800000002
 30
0.0
 11
-89.49921527526668
 21
-25.10846299999997
 31
0.0
  0
LINE
  5
138
330
75
100
AcDbEntity
  8
LC-002-002-----0
  6
Continuous
 62
     7
100
AcDbLine
 10
91.49937072473325
 20
-15.20068399999997
 30
0.0
 11
-91.49921527526668
 21
-15.20093499999996
 31
0.0
  0
LINE
  5
139
330
75
100
AcDbEntity
  8
LC-002-002-----0
  6
Continuous
 62
     7
100
AcDbLine
 10
96.38098972473348
 20
-6.31418500000001
 30
0.0
 11
-96.38083427526668
 21
-6.31444999999997
 31
0.0
  0
LINE
  5
13A
330
75
100
AcDbEntity
  8
LC-002-002-----0
  6
Continuous
 62
     7
100
AcDbLine
 10
109.4898827247333
 20
-5.39752299999998
 30
0.0
 11
-109.4897262752667
 21
-5.39782299999996
 31
0.0
  0
LINE
  5
13B
330
75
100
AcDbEntity
  8
LC-002-002-----0
  6
Continuous
 62
     7
100
AcDbLine
 10
111.1965077247334
 20
-3.690898
 30
0.0
 11
-111.1963512752667
 21
-3.69120299999997
 31
0.0
  0
LINE
  5
13C
330
75
100
AcDbEntity
  8
LC-002-002-----0
  6
Continuous
 62
     7
100
AcDbLine
 10
150.7518207247332
 20
-3.00045699999998
 30
0.0
 11
-150.7516652752666
 21
-3.00087099999996
 31
0.0
  0
LINE
  5
13D
330
75
100
AcDbEntity
  8
LC-002-002-----0
  6
Continuous
 62
     7
100
AcDbLine
 10
-79.9999222752666
 20
-159.1006839999999
 30
0.0
 11
80.0000777247334
 21
-159.1006839999999
 31
0.0
  0
LINE
  5
13E
330
75
100
AcDbEntity
  8
LC-002-002-----0
  6
Continuous
 62
     7
100
AcDbLine
 10
-163.1571442752666
 20
-92.12016299999999
 30
0.0
 11
-163.2563152752667
 21
-93.11633799999998
 31
0.0
  0
LINE
  5
13F
330
75
100
AcDbEntity
  8
LC-002-002-----0
  6
Continuous
 62
     7
100
AcDbLine
 10
-163.3680282752666
 20
-95.28787600000004
 30
0.0
 11
-163.3680282752666
 21
-96.28787600000004
 31
0.0
  0
LINE
  5
140
330
75
100
AcDbEntity
  8
LC-002-002-----0
  6
Continuous
 62
     7
100
AcDbLine
 10
-163.1571442752666
 20
-99.45558799999998
 30
0.0
 11
-163.2563152752667
 21
-98.45941299999998
 31
0.0
  0
LINE
  5
141
330
75
100
AcDbEntity
  8
LC-002-002-----0
  6
Continuous
 62
     7
100
AcDbLine
 10
-156.1148402752666
 20
-99.33686000000006
 30
0.0
 11
-156.2833622752666
 21
-97.84363300000001
 31
0.0
  0
LINE
  5
142
330
75
100
AcDbEntity
  8
LC-002-002-----0
  6
Continuous
 62
     7
100
AcDbLine
 10
-156.3680282752666
 20
-95.03787600000004
 30
0.0
 11
-156.3680282752666
 21
-96.53787600000004
 31
0.0
  0
LINE
  5
143
330
75
100
AcDbEntity
  8
LC-002-002-----0
  6
Continuous
 62
     7
100
AcDbLine
 10
-156.1148402752666
 20
-92.23889200000002
 30
0.0
 11
-156.2833622752666
 21
-93.73211799999996
 31
0.0
  0
LINE
  5
144
330
75
100
AcDbEntity
  8
LC-002-002-----0
  6
Continuous
 62
     7
100
AcDbLine
 10
-156.1429272752666
 20
-92.48776300000003
 30
0.0
 11
-163.1571442752666
 21
-92.12016299999999
 31
0.0
  0
LINE
  5
145
330
75
100
AcDbEntity
  8
LC-002-002-----0
  6
Continuous
 62
     7
100
AcDbLine
 10
-156.2552752752666
 20
-93.48324700000006
 30
0.0
 11
-163.2563152752667
 21
-93.11633799999998
 31
0.0
  0
LINE
  5
146
330
75
100
AcDbEntity
  8
LC-002-002-----0
  6
Continuous
 62
     7
100
AcDbLine
 10
-156.3680282752666
 20
-95.28787600000004
 30
0.0
 11
-163.3680282752666
 21
-95.28787600000004
 31
0.0
  0
LINE
  5
147
330
75
100
AcDbEntity
  8
LC-002-002-----0
  6
Continuous
 62
     7
100
AcDbLine
 10
-156.3680282752666
 20
-96.28787600000004
 30
0.0
 11
-163.3680282752666
 21
-96.28787600000004
 31
0.0
  0
LINE
  5
148
330
75
100
AcDbEntity
  8
LC-002-002-----0
  6
Continuous
 62
     7
100
AcDbLine
 10
-156.2552752752666
 20
-98.0925039999999
 30
0.0
 11
-163.2563152752667
 21
-98.45941299999998
 31
0.0
  0
LINE
  5
149
330
75
100
AcDbEntity
  8
LC-002-002-----0
  6
Continuous
 62
     7
100
AcDbLine
 10
-156.1429272752666
 20
-99.08798799999994
 30
0.0
 11
-163.1571442752666
 21
-99.45558799999998
 31
0.0
  0
LINE
  5
14A
330
75
100
AcDbEntity
  8
LC-002-002-----0
  6
Continuous
 62
     7
100
AcDbLine
 10
-131.3680282752667
 20
-98.03993399999996
 30
0.0
 11
-156.1148402752666
 21
-99.33686000000006
 31
0.0
  0
LINE
  5
14B
330
75
100
AcDbEntity
  8
LC-002-002-----0
  6
Continuous
 62
     7
100
AcDbLine
 10
-131.3680282752667
 20
-96.53787600000004
 30
0.0
 11
-156.2833622752666
 21
-97.84363300000001
 31
0.0
  0
LINE
  5
14C
330
75
100
AcDbEntity
  8
LC-002-002-----0
  6
Continuous
 62
     7
100
AcDbLine
 10
-131.3680282752667
 20
-96.53787600000004
 30
0.0
 11
-156.3680282752666
 21
-96.53787600000004
 31
0.0
  0
LINE
  5
14D
330
75
100
AcDbEntity
  8
LC-002-002-----0
  6
Continuous
 62
     7
100
AcDbLine
 10
-131.3680282752667
 20
-95.03787600000004
 30
0.0
 11
-156.3680282752666
 21
-95.03787600000004
 31
0.0
  0
LINE
  5
14E
330
75
100
AcDbEntity
  8
LC-002-002-----0
  6
Continuous
 62
     7
100
AcDbLine
 10
-131.3680282752667
 20
-95.03787600000004
 30
0.0
 11
-156.2833622752666
 21
-93.73211799999996
 31
0.0
  0
LINE
  5
14F
330
75
100
AcDbEntity
  8
LC-002-002-----0
  6
Continuous
 62
     7
100
AcDbLine
 10
-131.3680282752667
 20
-93.53581700000001
 30
0.0
 11
-156.1148402752666
 21
-92.23889200000002
 31
0.0
  0
LINE
  5
150
330
75
100
AcDbEntity
  8
LC-002-002-----0
  6
Continuous
 62
     7
100
AcDbLine
 10
-131.3680282752667
 20
-92.53787600000004
 30
0.0
 11
-131.3680282752667
 21
-99.03787600000004
 31
0.0
  0
LINE
  5
151
330
75
100
AcDbEntity
  8
LC-002-002-----0
  6
Continuous
 62
     7
100
AcDbLine
 10
-117.9992192752667
 20
-92.53787600000004
 30
0.0
 11
-131.3680282752667
 21
-92.53787600000004
 31
0.0
  0
LINE
  5
152
330
75
100
AcDbEntity
  8
LC-002-002-----0
  6
Continuous
 62
     7
100
AcDbLine
 10
-117.9992192752667
 20
-99.03787600000004
 30
0.0
 11
-131.3680282752667
 21
-99.03787600000004
 31
0.0
  0
LINE
  5
153
330
75
100
AcDbEntity
  8
LC-002-002-----0
  6
DASHDOT
 62
     2
100
AcDbLine
 10
-115.9992192752667
 20
-87.42480599999993
 30
0.0
 11
-115.9992192752667
 21
-101.108329
 31
0.0
  0
LINE
  5
154
330
75
100
AcDbEntity
  8
LC-002-002-----0
  6
DASHDOT
 62
     2
100
AcDbLine
 10
-117.9992192752667
 20
-87.42480599999993
 30
0.0
 11
-117.9992192752667
 21
-101.108329
 31
0.0
  0
LINE
  5
155
330
75
100
AcDbEntity
  8
LC-002-002-----0
  6
Continuous
 62
     7
100
AcDbLine
 10
-115.9992192752667
 20
-99.03787600000004
 30
0.0
 11
-79.9999222752666
 21
-99.03787600000004
 31
0.0
  0
LINE
  5
156
330
75
100
AcDbEntity
  8
LC-002-002-----0
  6
Continuous
 62
     7
100
AcDbLine
 10
-115.9992192752667
 20
-92.53787600000004
 30
0.0
 11
-79.9999222752666
 21
-92.53787600000004
 31
0.0
  0
LINE
  5
157
330
75
100
AcDbEntity
  8
LC-002-002-----0
  6
DASHDOT
 62
     2
100
AcDbLine
 10
-0.0001072752667
 20
78.18593900000002
 30
0.0
 11
0.00022172473327
 21
-161.6006839999999
 31
0.0
  0
LINE
  5
158
330
75
100
AcDbEntity
  8
LC-002-002-----0
  6
Continuous
 62
     7
100
AcDbLine
 10
-85.04272727526664
 20
4.69999999999999
 30
0.0
 11
-85.5855732752667
 21
5.01019700000001
 31
0.0
  0
LINE
  5
159
330
75
100
AcDbEntity
  8
LC-002-002-----0
  6
Continuous
 62
     7
100
AcDbLine
 10
85.04230572473342
 20
4.69999999999999
 30
0.0
 11
85.58555872473347
 21
5.01043200000004
 31
0.0
  0
LINE
  5
15A
330
75
100
AcDbEntity
  8
LC-002-002-----0
  6
Continuous
 62
     7
100
AcDbLine
 10
-150.6696782752666
 20
0.0
 30
0.0
 11
249.7971337247333
 21
0.0
 31
0.0
  0
LINE
  5
15B
330
75
100
AcDbEntity
  8
LC-002-002-----0
  6
Continuous
 62
     7
100
AcDbLine
 10
249.7971337247333
 20
4.69999999999999
 30
0.0
 11
249.7971337247333
 21
0.0
 31
0.0
  0
LINE
  5
15C
330
75
100
AcDbEntity
  8
LC-002-002-----0
  6
Continuous
 62
     7
100
AcDbLine
 10
-0.00000627526661
 20
4.69999999999999
 30
0.0
 11
249.7971337247333
 21
4.69999999999999
 31
0.0
  0
LINE
  5
15D
330
75
100
AcDbEntity
  8
LC-002-002-----0
  6
Continuous
 62
     7
100
AcDbLine
 10
-249.7970572752666
 20
4.69999999999999
 30
0.0
 11
-249.7970572752666
 21
0.0
 31
0.0
  0
LINE
  5
15E
330
75
100
AcDbEntity
  8
LC-002-002-----0
  6
Continuous
 62
     7
100
AcDbLine
 10
-150.6696782752666
 20
0.0
 30
0.0
 11
-249.7970572752666
 21
0.0
 31
0.0
  0
LINE
  5
15F
330
75
100
AcDbEntity
  8
LC-002-002-----0
  6
Continuous
 62
     7
100
AcDbLine
 10
-0.00000627526661
 20
4.69999999999999
 30
0.0
 11
-249.7970572752666
 21
4.69999999999999
 31
0.0
  0
LINE
  5
160
330
75
100
AcDbEntity
  8
LC-002-002-----0
  6
Continuous
 62
     7
100
AcDbLine
 10
-79.9999222752666
 20
-159.1006839999999
 30
0.0
 11
-78.79415027526657
 21
-163.6006839999999
 31
0.0
  0
LINE
  5
161
330
75
100
AcDbEntity
  8
LC-002-002-----0
  6
Continuous
 62
     7
100
AcDbLine
 10
-79.9999222752666
 20
-92.53787600000004
 30
0.0
 11
-79.9999222752666
 21
-159.1006839999999
 31
0.0
  0
LINE
  5
162
330
75
100
AcDbEntity
  8
LC-002-002-----0
  6
Continuous
 62
     7
100
AcDbLine
 10
80.2500777247334
 20
-38.72915299999994
 30
0.0
 11
80.2500777247334
 21
-95.60068399999994
 31
0.0
  0
LINE
  5
163
330
75
100
AcDbEntity
  8
LC-002-002-----0
  6
Continuous
 62
     7
100
AcDbLine
 10
88.99334172473336
 20
-27.30007300000005
 30
0.0
 11
85.5791967247334
 21
-34.30010799999997
 31
0.0
  0
LINE
  5
164
330
75
100
AcDbEntity
  8
LC-002-002-----0
  6
Continuous
 62
     7
100
AcDbLine
 10
89.49937072473325
 20
-25.10821800000002
 30
0.0
 11
89.49937072473325
 21
-17.20068399999997
 31
0.0
  0
LINE
  5
165
330
75
100
AcDbEntity
  8
LC-002-002-----0
  6
Continuous
 62
     7
100
AcDbLine
 10
0.0000777247334
 20
-163.6006839999999
 30
0.0
 11
78.79430672473349
 21
-163.6006839999999
 31
0.0
  0
LINE
  5
166
330
75
100
AcDbEntity
  8
LC-002-002-----0
  6
Continuous
 62
     7
100
AcDbLine
 10
91.77557472473349
 20
-15.20068399999997
 30
0.0
 11
91.49937072473325
 21
-15.20068399999997
 31
0.0
  0
LINE
  5
167
330
75
100
AcDbEntity
  8
LC-002-002-----0
  6
Continuous
 62
     7
100
AcDbLine
 10
80.0000777247334
 20
-95.60068399999994
 30
0.0
 11
80.0000777247334
 21
-159.1006839999999
 31
0.0
  0
LINE
  5
168
330
75
100
AcDbEntity
  8
LC-002-002-----0
  6
Continuous
 62
     7
100
AcDbLine
 10
150.7518207247332
 20
0.0
 30
0.0
 11
150.7518207247332
 21
-3.00045699999998
 31
0.0
  0
LINE
  5
169
330
75
100
AcDbEntity
  8
LC-002-002-----0
  6
Continuous
 62
     7
100
AcDbLine
 10
82.63802272473335
 20
-36.86102199999999
 30
0.0
 11
81.28423872473344
 21
-37.30332199999992
 31
0.0
  0
LINE
  5
16A
330
75
100
AcDbEntity
  8
LC-002-002-----0
  6
Continuous
 62
     7
100
AcDbLine
 10
80.0000777247334
 20
-159.1006839999999
 30
0.0
 11
78.79430672473349
 21
-163.6006839999999
 31
0.0
  0
LINE
  5
16B
330
75
100
AcDbEntity
  8
LC-002-002-----0
  6
Continuous
 62
     7
100
AcDbLine
 10
80.2500777247334
 20
-95.60068399999994
 30
0.0
 11
80.0000777247334
 21
-95.60068399999994
 31
0.0
  0
LINE
  5
16C
330
75
100
AcDbEntity
  8
LC-002-002-----0
  6
Continuous
 62
     7
100
AcDbLine
 10
95.0138127247334
 20
-7.73339699999997
 30
0.0
 11
94.7714637247333
 21
-12.35769199999999
 31
0.0
  0
LINE
  5
16D
330
75
100
AcDbEntity
  8
LC-003-001-----0
  6
Continuous
 62
     7
100
AcDbLine
 10
109.4898827247333
 20
-5.39752299999998
 30
0.0
 11
96.38098972473348
 21
-6.31418500000001
 31
0.0
  0
LINE
  5
16E
330
75
100
AcDbEntity
  8
LC-002-002-----0
  6
Continuous
 62
     7
100
AcDbLine
 10
111.1965077247334
 20
-3.690898
 30
0.0
 11
109.4898827247333
 21
-5.39752299999998
 31
0.0
  0
LINE
  5
16F
330
75
100
AcDbEntity
  8
LC-002-002-----0
  6
Continuous
 62
     7
100
AcDbLine
 10
150.7518207247332
 20
-3.00045699999998
 30
0.0
 11
111.1965077247334
 21
-3.690898
 31
0.0
  0
LINE
  5
170
330
75
100
AcDbEntity
  8
LC-002-002-----0
  6
Continuous
 62
     7
100
AcDbLine
 10
-80.2499222752666
 20
-38.72915299999994
 30
0.0
 11
-80.2499222752666
 21
-92.53787600000004
 31
0.0
  0
LINE
  5
171
330
75
100
AcDbEntity
  8
LC-002-002-----0
  6
Continuous
 62
     7
100
AcDbLine
 10
-88.99318527526667
 20
-27.30007300000005
 30
0.0
 11
-85.5790402752667
 21
-34.30010799999997
 31
0.0
  0
LINE
  5
172
330
75
100
AcDbEntity
  8
LC-002-002-----0
  6
Continuous
 62
     7
100
AcDbLine
 10
-89.49921527526668
 20
-25.10821800000002
 30
0.0
 11
-89.49921527526668
 21
-17.20068399999997
 31
0.0
  0
LINE
  5
173
330
75
100
AcDbEntity
  8
LC-002-002-----0
  6
Continuous
 62
     7
100
AcDbLine
 10
0.0000777247334
 20
-163.6006839999999
 30
0.0
 11
-78.79415027526657
 21
-163.6006839999999
 31
0.0
  0
LINE
  5
174
330
75
100
AcDbEntity
  8
LC-002-002-----0
  6
Continuous
 62
     7
100
AcDbLine
 10
-91.77541927526669
 20
-15.20068399999997
 30
0.0
 11
-91.49921527526668
 21
-15.20068399999997
 31
0.0
  0
LINE
  5
175
330
75
100
AcDbEntity
  8
LC-002-002-----0
  6
Continuous
 62
     7
100
AcDbLine
 10
-150.7516652752666
 20
0.0
 30
0.0
 11
-150.7516652752666
 21
-3.00045699999998
 31
0.0
  0
LINE
  5
176
330
75
100
AcDbEntity
  8
LC-002-002-----0
  6
Continuous
 62
     7
100
AcDbLine
 10
-82.63786627526666
 20
-36.86102199999999
 30
0.0
 11
-81.28408327526664
 21
-37.30332199999992
 31
0.0
  0
LINE
  5
177
330
75
100
AcDbEntity
  8
LC-002-002-----0
  6
Continuous
 62
     7
100
AcDbLine
 10
-95.01365627526671
 20
-7.73339699999997
 30
0.0
 11
-94.77130727526661
 21
-12.35769199999999
 31
0.0
  0
LINE
  5
178
330
75
100
AcDbEntity
  8
LC-003-001-----0
  6
Continuous
 62
     7
100
AcDbLine
 10
-109.4897262752667
 20
-5.39752299999998
 30
0.0
 11
-96.38083427526668
 21
-6.31418500000001
 31
0.0
  0
LINE
  5
179
330
75
100
AcDbEntity
  8
LC-002-002-----0
  6
Continuous
 62
     7
100
AcDbLine
 10
-111.1963512752667
 20
-3.690898
 30
0.0
 11
-109.4897262752667
 21
-5.39752299999998
 31
0.0
  0
LINE
  5
17A
330
75
100
AcDbEntity
  8
LC-002-002-----0
  6
Continuous
 62
     7
100
AcDbLine
 10
-150.7516652752666
 20
-3.00045699999998
 30
0.0
 11
-111.1963512752667
 21
-3.690898
 31
0.0
  0
ARC
  5
17B
330
75
100
AcDbEntity
  8
LC-005-002-RND-0
  6
Continuous
 62
     7
100
AcDbCircle
 10
84.49937072473325
 20
-25.10821800000002
 30
0.0
 40
5.00000000000013
100
AcDbArc
 50
334.0000000000059
 51
0.0
  0
ARC
  5
17C
330
75
100
AcDbEntity
  8
LC-005-002-RND-0
  6
Continuous
 62
     7
100
AcDbCircle
 10
81.7500777247334
 20
-38.72915299999994
 30
0.0
 40
1.50000000000006
100
AcDbArc
 50
108.0929360000103
 51
180.0
  0
ARC
  5
17D
330
75
100
AcDbEntity
  8
LC-005-002-RND-0
  6
Continuous
 62
     7
100
AcDbCircle
 10
81.0852267247334
 20
-32.10825199999994
 30
0.0
 40
5.000000000000535
100
AcDbArc
 50
288.0929359999972
 51
334.0000000000049
  0
ARC
  5
17E
330
75
100
AcDbEntity
  8
LC-005-002-RND-0
  6
Continuous
 62
     7
100
AcDbCircle
 10
91.49937072473325
 20
-17.20068399999997
 30
0.0
 40
2.0
100
AcDbArc
 50
90.0
 51
180.0
  0
ARC
  5
17F
330
75
100
AcDbEntity
  8
LC-005-002-RND-0
  6
Continuous
 62
     7
100
AcDbCircle
 10
91.77557472473349
 20
-12.20068399999997
 30
0.0
 40
3.0
100
AcDbArc
 50
270.0
 51
356.9999999999968
  0
ARC
  5
180
330
75
100
AcDbEntity
  8
LC-004-001-RND-0
  6
Continuous
 62
     7
100
AcDbCircle
 10
96.4856247247334
 20
-7.81053099999997
 30
0.0
 40
1.499999999999594
100
AcDbArc
 50
93.99999700001356
 51
177.0000000000165
  0
ARC
  5
181
330
75
100
AcDbEntity
  8
LC-005-002-RND-0
  6
Continuous
 62
     7
100
AcDbCircle
 10
-84.49921527526668
 20
-25.10821800000002
 30
0.0
 40
5.0
100
AcDbArc
 50
180.0
 51
205.9999999999952
  0
ARC
  5
182
330
75
100
AcDbEntity
  8
LC-005-002-RND-0
  6
Continuous
 62
     7
100
AcDbCircle
 10
-81.7499222752666
 20
-38.72915299999994
 30
0.0
 40
1.5
100
AcDbArc
 50
0.0
 51
71.90706399998967
  0
ARC
  5
183
330
75
100
AcDbEntity
  8
LC-005-002-RND-0
  6
Continuous
 62
     7
100
AcDbCircle
 10
-81.08507027526672
 20
-32.10825199999994
 30
0.0
 40
4.99999999999992
100
AcDbArc
 50
205.9999999999951
 51
251.9070640000028
  0
ARC
  5
184
330
75
100
AcDbEntity
  8
LC-005-002-RND-0
  6
Continuous
 62
     7
100
AcDbCircle
 10
-91.49921527526668
 20
-17.20068399999997
 30
0.0
 40
2.0
100
AcDbArc
 50
0.0
 51
90.0
  0
ARC
  5
185
330
75
100
AcDbEntity
  8
LC-005-002-RND-0
  6
Continuous
 62
     7
100
AcDbCircle
 10
-91.77541927526669
 20
-12.20068399999997
 30
0.0
 40
3.00000000000017
100
AcDbArc
 50
183.0000000000032
 51
270.0
  0
ARC
  5
186
330
75
100
AcDbEntity
  8
LC-004-001-RND-0
  6
Continuous
 62
     7
100
AcDbCircle
 10
-96.4854692752666
 20
-7.81053099999997
 30
0.0
 40
1.500000000000058
100
AcDbArc
 50
2.99999999998374
 51
86.00000299998644
  0
ENDBLK
  5
77
330
75
100
AcDbEntity
  8
0
100
AcDbBlockEnd
  0
BLOCK
  5
7B
330
78
100
AcDbEntity
  8
0
100
AcDbBlockBegin
  2
HL_62_1BH_5_DN160_Dachablauf
 70
     0
 10
-16.79691591910996
 20
-47.27031108159397
 30
0.0
  3
HL_62_1BH_5_DN160_Dachablauf
  1

  0
INSERT
  5
79
330
78
100
AcDbEntity
  8
0
100
AcDbBlockReference
  2
HL_66_0_Aufsatzrahmen
 10
0.00008365643583
 20
24.4119012381222
 30
0.0
  0
INSERT
  5
7A
330
78
100
AcDbEntity
  8
0
100
AcDbBlockReference
  2
TOP
 10
0.00003822473334
 20
-42.70737249999993
 30
0.0
  0
DIMENSION
  5
192
330
78
100
AcDbEntity
  8
1
100
AcDbDimension
280
     0
  2
*D5
 10
-271.3909655629532
 20
4.7
 30
0.0
 11
-278.3909655629532
 21
38.70523908472001
 31
0.0
 70
    32
  1
12-65
 71
     5
 42
-1.0
 73
     0
 74
     0
 75
     0
 53
90.0
  3
ME10_DIM_10
100
AcDbAlignedDimension
 13
-73.49991634356417
 23
69.69999999999999
 33
0.0
 14
-249.7970572752666
 24
4.69999999999999
 34
0.0
 50
90.0
100
AcDbRotatedDimension
  0
DIMENSION
  5
19D
330
78
100
AcDbEntity
  8
1
100
AcDbDimension
280
     0
  2
*D6
 10
-178.4730550460682
 20
-163.6006839999999
 30
0.0
 11
-185.4730550460682
 21
-82.53524308704499
 31
0.0
 70
    32
  1
160
 71
     5
 42
-1.0
 73
     0
 74
     0
 75
     0
 53
90.0
  3
ME10_DIM_11
100
AcDbAlignedDimension
 13
-150.7516652752666
 23
-3.00087099999996
 33
0.0
 14
-78.79415027526657
 24
-163.6006839999999
 34
0.0
 50
90.0
100
AcDbRotatedDimension
  0
DIMENSION
  5
1A8
330
78
100
AcDbEntity
  8
1
100
AcDbDimension
280
     0
  2
*D7
 10
-73.49993920572545
 20
86.3627369351413
 30
0.0
 11
-3.11544456640561
 21
93.36283350641799
 31
0.0
 70
    32
  1
150x150
 71
     5
 42
-1.0
 73
     0
 74
     0
 75
     0
 53
0.00013888888889
  3
ME10_DIM_12
100
AcDbAlignedDimension
 13
73.50008365643582
 23
69.69999999999999
 33
0.0
 14
-73.49991634356417
 24
69.69999999999999
 34
0.0
 50
0.00007861285681
100
AcDbRotatedDimension
  0
DIMENSION
  5
1B3
330
78
100
AcDbEntity
  8
1
100
AcDbDimension
280
     0
  2
*D8
 10
-249.79720681712
 20
113.6912949837844
 30
0.0
 11
-5.10299345446734
 21
120.691630717266
 31
0.0
 70
    32
  1
500x500
 71
     5
 42
-1.0
 73
     0
 74
     0
 75
     0
 53
0.00013888888889
  3
ME10_DIM_13
100
AcDbAlignedDimension
 13
249.7971337247333
 23
4.69999999999999
 33
0.0
 14
-249.7970572752666
 24
4.69999999999999
 34
0.0
 50
0.00007861285681
100
AcDbRotatedDimension
  0
DIMENSION
  5
1BE
330
78
100
AcDbEntity
  8
1
100
AcDbDimension
280
     0
  2
*D9
 10
-94.77102480438562
 20
-218.2322775774085
 30
0.0
 11
0.85965389574437
 21
-211.2321463670245
 31
0.0
 70
    32
  1
Ø190
 71
     5
 42
-1.0
 73
     0
 74
     0
 75
     0
 53
0.00013888888889
  3
ME10_DIM_14
100
AcDbAlignedDimension
 13
94.7714637247333
 23
-12.35769199999999
 33
0.0
 14
-94.77130727526661
 24
-12.35769199999999
 34
0.0
 50
0.00007861285681
100
AcDbRotatedDimension
  0
DIMENSION
  5
1C9
330
78
100
AcDbEntity
  8
1
100
AcDbDimension
280
     0
  2
*D10
 10
-79.99987523566156
 20
-193.3847813865821
 30
0.0
 11
-0.63100845632849
 21
-186.384672488269
 31
0.0
 70
    32
  1
<>
 71
     5
 42
-1.0
 73
     0
 74
     0
 75
     0
 53
0.00013888888889
  3
ME10_DIM_15
100
AcDbAlignedDimension
 13
80.0000777247334
 23
-159.1006839999999
 33
0.0
 14
-79.9999222752666
 24
-159.1006839999999
 34
0.0
 50
0.00007861285681
100
AcDbRotatedDimension
  0
ENDBLK
  5
7C
330
78
100
AcDbEntity
  8
0
100
AcDbBlockEnd
  0
BLOCK
  5
18F
330
187
100
AcDbEntity
  8
0
100
AcDbBlockBegin
  2
*D5
 70
     1
 10
0.0
 20
0.0
 30
0.0
  3
*D5
  1

  0
LINE
  5
188
330
187
100
AcDbEntity
  8
1
  6
Continuous
 62
     4
100
AcDbLine
 10
-271.3909655629532
 20
4.7
 30
0.0
 11
-271.3909655629532
 21
69.69999999999999
 31
0.0
  0
LINE
  5
189
330
187
100
AcDbEntity
  8
1
  6
Continuous
 62
     4
100
AcDbLine
 10
-73.49991634356422
 20
69.69999999999999
 30
0.0
 11
-273.3909655629532
 21
69.69999999999999
 31
0.0
  0
LINE
  5
18A
330
187
100
AcDbEntity
  8
1
  6
Continuous
 62
     4
100
AcDbLine
 10
-249.7970572752666
 20
4.7
 30
0.0
 11
-273.3909655629532
 21
4.7
 31
0.0
  0
SOLID
  5
18B
330
187
100
AcDbEntity
  8
1
 62
     4
100
AcDbTrace
 10
-272.7074905388272
 20
14.7
 30
0.0
 11
-270.0744405870793
 21
14.7
 31
0.0
 12
-271.3909655629532
 22
4.7
 32
0.0
 13
-271.3909655629532
 23
4.7
 33
0.0
  0
SOLID
  5
18C
330
187
100
AcDbEntity
  8
1
 62
     4
100
AcDbTrace
 10
-270.0744405870793
 20
59.69999999999999
 30
0.0
 11
-272.7074905388272
 21
59.69999999999999
 31
0.0
 12
-271.3909655629532
 22
69.69999999999999
 32
0.0
 13
-271.3909655629532
 23
69.69999999999999
 33
0.0
  0
MTEXT
  5
18E
330
187
100
AcDbEntity
  8
1
 62
     1
100
AcDbMText
 10
-273.3909655629532
 20
19.70523908472001
 30
0.0
 40
10.0
 41
0.0
 46
0.0
 71
     7
 72
     1
  1
12-65
  7
CONVERTER_11
 11
0.0
 21
1.0
 31
0.0
 73
     1
 44
0.60024009603842
  0
ENDBLK
  5
190
330
187
100
AcDbEntity
  8
0
100
AcDbBlockEnd
  0
BLOCK
  5
19A
330
193
100
AcDbEntity
  8
0
100
AcDbBlockBegin
  2
*D6
 70
     1
 10
0.0
 20
0.0
 30
0.0
  3
*D6
  1

  0
LINE
  5
194
330
193
100
AcDbEntity
  8
1
  6
Continuous
 62
     4
100
AcDbLine
 10
-178.4730550460682
 20
-163.6006839999999
 30
0.0
 11
-178.4730550460682
 21
-3.00087099999996
 31
0.0
  0
LINE
  5
195
330
193
100
AcDbEntity
  8
1
  6
Continuous
 62
     4
100
AcDbLine
 10
-150.7516652752666
 20
-3.00087099999996
 30
0.0
 11
-180.4730550460682
 21
-3.00087099999996
 31
0.0
  0
LINE
  5
196
330
193
100
AcDbEntity
  8
1
  6
Continuous
 62
     4
100
AcDbLine
 10
-78.7941502752666
 20
-163.6006839999999
 30
0.0
 11
-180.4730550460682
 21
-163.6006839999999
 31
0.0
  0
SOLID
  5
197
330
193
100
AcDbEntity
  8
1
 62
     4
100
AcDbTrace
 10
-179.7895800219422
 20
-153.6006839999999
 30
0.0
 11
-177.1565300701942
 21
-153.6006839999999
 31
0.0
 12
-178.4730550460682
 22
-163.6006839999999
 32
0.0
 13
-178.4730550460682
 23
-163.6006839999999
 33
0.0
  0
SOLID
  5
198
330
193
100
AcDbEntity
  8
1
 62
     4
100
AcDbTrace
 10
-177.1565300701942
 20
-13.00087099999996
 30
0.0
 11
-179.7895800219422
 21
-13.00087099999996
 31
0.0
 12
-178.4730550460682
 22
-3.00087099999996
 32
0.0
 13
-178.4730550460682
 23
-3.00087099999996
 33
0.0
  0
MTEXT
  5
199
330
193
100
AcDbEntity
  8
1
 62
     1
100
AcDbMText
 10
-180.4730550460682
 20
-93.03524308704499
 30
0.0
 40
10.0
 41
0.0
 46
0.0
 71
     7
 72
     1
  1
160
  7
CONVERTER_11
 11
0.0
 21
1.0
 31
0.0
 73
     1
 44
0.60024009603842
  0
ENDBLK
  5
19B
330
193
100
AcDbEntity
  8
0
100
AcDbBlockEnd
  0
BLOCK
  5
1A5
330
19E
100
AcDbEntity
  8
0
100
AcDbBlockBegin
  2
*D7
 70
     1
 10
0.0
 20
0.0
 30
0.0
  3
*D7
  1

  0
LINE
  5
19F
330
19E
100
AcDbEntity
  8
1
  6
Continuous
 62
     4
100
AcDbLine
 10
-73.49993920572545
 20
86.3627369351413
 30
0.0
 11
73.50006079399779
 21
86.36293862695959
 31
0.0
  0
LINE
  5
1A0
330
19E
100
AcDbEntity
  8
1
  6
Continuous
 62
     4
100
AcDbLine
 10
73.50008365643582
 20
69.69999999999999
 30
0.0
 11
73.50005804989142
 21
88.36293862695771
 31
0.0
  0
LINE
  5
1A1
330
19E
100
AcDbEntity
  8
1
  6
Continuous
 62
     4
100
AcDbLine
 10
-73.49991634356417
 20
69.69999999999999
 30
0.0
 11
-73.49994194983182
 21
88.36273693513942
 31
0.0
  0
SOLID
  5
1A2
330
19E
100
AcDbEntity
  8
1
 62
     4
100
AcDbTrace
 10
-63.49994101207716
 20
87.67927563154593
 30
0.0
 11
-63.49993739939257
 21
85.04622567980049
 31
0.0
 12
-73.49993920572545
 22
86.3627369351413
 32
0.0
 13
-73.49993920572545
 23
86.3627369351413
 33
0.0
  0
SOLID
  5
1A3
330
19E
100
AcDbEntity
  8
1
 62
     4
100
AcDbTrace
 10
63.50006260034949
 20
85.04639993055497
 30
0.0
 11
63.50005898766491
 21
87.6794498823004
 31
0.0
 12
73.50006079399779
 22
86.36293862695959
 32
0.0
 13
73.50006079399779
 23
86.36293862695959
 33
0.0
  0
MTEXT
  5
1A4
330
19E
100
AcDbEntity
  8
1
 62
     1
100
AcDbMText
 10
-30.11543770611427
 20
88.36279646098667
 30
0.0
 40
10.0
 41
0.0
 46
0.0
 71
     7
 72
     1
  1
150x150
  7
CONVERTER_11
 11
0.9999999999970621
 21
2.424068405545307E-6
 31
0.0
 73
     1
 44
0.60024009603842
  0
ENDBLK
  5
1A6
330
19E
100
AcDbEntity
  8
0
100
AcDbBlockEnd
  0
BLOCK
  5
1B0
330
1A9
100
AcDbEntity
  8
0
100
AcDbBlockBegin
  2
*D8
 70
     1
 10
0.0
 20
0.0
 30
0.0
  3
*D8
  1

  0
LINE
  5
1AA
330
1A9
100
AcDbEntity
  8
1
  6
Continuous
 62
     4
100
AcDbLine
 10
-249.79720681712
 20
113.6912949837844
 30
0.0
 11
249.7969841819393
 21
113.6919804535857
 31
0.0
  0
LINE
  5
1AB
330
1A9
100
AcDbEntity
  8
1
  6
Continuous
 62
     4
100
AcDbLine
 10
-249.7970572752666
 20
4.69999999999999
 30
0.0
 11
-249.7972095612264
 21
115.6912949837826
 31
0.0
  0
LINE
  5
1AC
330
1A9
100
AcDbEntity
  8
1
  6
Continuous
 62
     4
100
AcDbLine
 10
249.7971337247333
 20
4.69999999999999
 30
0.0
 11
249.796981437833
 21
115.6919804535839
 31
0.0
  0
SOLID
  5
1AD
330
1A9
100
AcDbEntity
  8
1
 62
     4
100
AcDbTrace
 10
-239.7972086234718
 20
115.0078336801891
 30
0.0
 11
-239.7972050107872
 21
112.3747837284436
 31
0.0
 12
-249.79720681712
 22
113.6912949837844
 32
0.0
 13
-249.79720681712
 23
113.6912949837844
 33
0.0
  0
SOLID
  5
1AE
330
1A9
100
AcDbEntity
  8
1
 62
     4
100
AcDbTrace
 10
239.796985988291
 20
112.3754417571811
 30
0.0
 11
239.7969823756064
 21
115.0084917089266
 31
0.0
 12
249.7969841819393
 22
113.6919804535857
 32
0.0
 13
249.7969841819393
 23
113.6919804535857
 33
0.0
  0
MTEXT
  5
1AF
330
1A9
100
AcDbEntity
  8
1
 62
     1
100
AcDbMText
 10
-36.10298659417224
 20
115.6915881836219
 30
0.0
 40
10.0
 41
0.0
 46
0.0
 71
     7
 72
     1
  1
\C1;\C1;500\C1;x500
  7
CONVERTER_11
 11
0.9999999999970621
 21
2.424068405545307E-6
 31
0.0
 73
     1
 44
0.60024009603842
  0
ENDBLK
  5
1B1
330
1A9
100
AcDbEntity
  8
0
100
AcDbBlockEnd
  0
BLOCK
  5
1BB
330
1B4
100
AcDbEntity
  8
0
100
AcDbBlockBegin
  2
*D9
 70
     1
 10
0.0
 20
0.0
 30
0.0
  3
*D9
  1

  0
LINE
  5
1B5
330
1B4
100
AcDbEntity
  8
1
  6
Continuous
 62
     4
100
AcDbLine
 10
-94.77102480438562
 20
-218.2322775774085
 30
0.0
 11
94.77174619525746
 21
-218.2320175146457
 31
0.0
  0
LINE
  5
1B6
330
1B4
100
AcDbEntity
  8
1
  6
Continuous
 62
     4
100
AcDbLine
 10
94.7714637247333
 20
-12.3576919999999
 30
0.0
 11
94.77174893936383
 21
-220.2320175146438
 31
0.0
  0
LINE
  5
1B7
330
1B4
100
AcDbEntity
  8
1
  6
Continuous
 62
     4
100
AcDbLine
 10
-94.77130727526661
 20
-12.3576919999999
 30
0.0
 11
-94.77102206027925
 21
-220.2322775774066
 31
0.0
  0
SOLID
  5
1B8
330
1B4
100
AcDbEntity
  8
1
 62
     4
100
AcDbTrace
 10
-84.77102661073732
 20
-216.9157388810039
 30
0.0
 11
-84.77102299805274
 21
-219.5487888327493
 31
0.0
 12
-94.77102480438562
 22
-218.2322775774085
 32
0.0
 13
-94.77102480438562
 23
-218.2322775774085
 33
0.0
  0
SOLID
  5
1B9
330
1B4
100
AcDbEntity
  8
1
 62
     4
100
AcDbTrace
 10
84.77174800160917
 20
-219.5485562110503
 30
0.0
 11
84.77174438892459
 21
-216.9155062593049
 31
0.0
 12
94.77174619525746
 22
-218.2320175146457
 32
0.0
 13
94.77174619525746
 23
-218.2320175146457
 33
0.0
  0
MTEXT
  5
1BA
330
1B4
100
AcDbEntity
  8
1
 62
     1
100
AcDbMText
 10
-11.84033924396137
 20
-216.2321724186201
 30
0.0
 40
10.0
 41
0.0
 46
0.0
 71
     7
 72
     1
  1
\C1;%%c\C1;190
  7
CONVERTER_11
 11
0.9999999999970621
 21
2.424068405545307E-6
 31
0.0
 73
     1
 44
0.60024009603842
  0
ENDBLK
  5
1BC
330
1B4
100
AcDbEntity
  8
0
100
AcDbBlockEnd
  0
BLOCK
  5
1C6
330
1BF
100
AcDbEntity
  8
0
100
AcDbBlockBegin
  2
*D10
 70
     1
 10
0.0
 20
0.0
 30
0.0
  3
*D10
  1

  0
LINE
  5
1C0
330
1BF
100
AcDbEntity
  8
1
  6
Continuous
 62
     4
100
AcDbLine
 10
-79.99987523566156
 20
-193.3847813865821
 30
0.0
 11
80.00012476403724
 21
-193.3845618580723
 31
0.0
  0
LINE
  5
1C1
330
1BF
100
AcDbEntity
  8
1
  6
Continuous
 62
     4
100
AcDbLine
 10
80.0000777247334
 20
-159.1006839999999
 30
0.0
 11
80.0001275081436
 21
-195.3845618580704
 31
0.0
  0
LINE
  5
1C2
330
1BF
100
AcDbEntity
  8
1
  6
Continuous
 62
     4
100
AcDbLine
 10
-79.9999222752666
 20
-159.1006839999999
 30
0.0
 11
-79.9998724915552
 21
-195.3847813865802
 31
0.0
  0
SOLID
  5
1C3
330
1BF
100
AcDbEntity
  8
1
 62
     4
100
AcDbTrace
 10
-69.99987704201327
 20
-192.0682426901775
 30
0.0
 11
-69.99987342932869
 21
-194.7012926419229
 31
0.0
 12
-79.99987523566156
 22
-193.3847813865821
 32
0.0
 13
-79.99987523566156
 23
-193.3847813865821
 33
0.0
  0
SOLID
  5
1C4
330
1BF
100
AcDbEntity
  8
1
 62
     4
100
AcDbTrace
 10
70.00012657038894
 20
-194.7011005544769
 30
0.0
 11
70.00012295770436
 21
-192.0680506027315
 31
0.0
 12
80.00012476403724
 22
-193.3845618580723
 32
0.0
 13
80.00012476403724
 23
-193.3845618580723
 33
0.0
  0
MTEXT
  5
1C5
330
1BF
100
AcDbEntity
  8
1
 62
     1
100
AcDbMText
 10
-16.53100159601484
 20
-191.3847115569595
 30
0.0
 40
10.0
 41
0.0
 46
0.0
 71
     7
 72
     1
  1
\C1;DN\C1;160
  7
CONVERTER_11
 11
0.9999999999970621
 21
2.424068405545307E-6
 31
0.0
 73
     1
 44
0.60024009603842
  0
ENDBLK
  5
1C7
330
1BF
100
AcDbEntity
  8
0
100
AcDbBlockEnd
  0
ENDSEC
  0
SECTION
  2
ENTITIES
  0
INSERT
  5
7D
330
1F
100
AcDbEntity
  8
0
100
AcDbBlockReference
  2
HL_62_1BH_5_DN160_Dachablauf
 10
-16.79691591910996
 20
-47.27031108159397
 30
0.0
  0
ENDSEC
  0
SECTION
  2
OBJECTS
  0
DICTIONARY
  5
C
330
0
100
AcDbDictionary
281
     1
  3
ACAD_DETAILVIEWSTYLE
350
1D1
  3
ACAD_GROUP
350
D
  3
ACAD_LAYOUT
350
1A
  3
ACAD_MATERIAL
350
43
  3
ACAD_MLEADERSTYLE
350
5B
  3
ACAD_MLINESTYLE
350
17
  3
ACAD_PLOTSETTINGS
350
19
  3
ACAD_PLOTSTYLENAME
350
E
  3
ACAD_SCALELIST
350
47
  3
ACAD_SECTIONVIEWSTYLE
350
1D2
  3
ACAD_TABLESTYLE
350
59
  3
ACAD_VISUALSTYLE
350
2A
  3
ACDB_RECOMPOSE_DATA
350
1CE
  3
AcDbVariableDictionary
350
1CA
  0
SUN
  5
5D
330
29
100
AcDbSun
 90
        1
290
     0
 63
     7
421
 16777215
 40
1.0
291
     1
 91
  2455826
 92
 54000000
292
     0
 70
     2
 71
   256
280
     1
  0
DICTIONARY
  5
1D1
102
{ACAD_REACTORS
330
C
102
}
330
C
100
AcDbDictionary
281
     1
  0
DICTIONARY
  5
D
102
{ACAD_REACTORS
330
C
102
}
330
C
100
AcDbDictionary
281
     1
  0
DICTIONARY
  5
1A
102
{ACAD_REACTORS
330
C
102
}
330
C
100
AcDbDictionary
281
     1
  3
Layout1
350
1E
  3
Layout2
350
26
  3
Model
350
22
  0
DICTIONARY
  5
43
102
{ACAD_REACTORS
330
C
102
}
330
C
100
AcDbDictionary
281
     1
  3
ByBlock
350
45
  3
ByLayer
350
44
  3
Global
350
46
  0
DICTIONARY
  5
5B
102
{ACAD_REACTORS
330
C
102
}
330
C
100
AcDbDictionary
281
     1
  3
Standard
350
5C
  0
DICTIONARY
  5
17
102
{ACAD_REACTORS
330
C
102
}
330
C
100
AcDbDictionary
281
     1
  3
Standard
350
18
  0
DICTIONARY
  5
19
102
{ACAD_REACTORS
330
C
102
}
330
C
100
AcDbDictionary
281
     1
  0
ACDBDICTIONARYWDFLT
  5
E
102
{ACAD_REACTORS
330
C
102
}
330
C
100
AcDbDictionary
281
     1
  3
Normal
350
F
100
AcDbDictionaryWithDefault
340
F
  0
DICTIONARY
  5
47
102
{ACAD_REACTORS
330
C
102
}
330
C
100
AcDbDictionary
281
     1
  3
A0
350
48
  3
A1
350
49
  3
A2
350
4A
  3
A3
350
4B
  3
A4
350
4C
  3
A5
350
4D
  3
A6
350
4E
  3
A7
350
4F
  3
A8
350
50
  3
A9
350
51
  3
B1
350
52
  3
B2
350
53
  3
B3
350
54
  3
B4
350
55
  3
B5
350
56
  3
B6
350
57
  3
B7
350
58
  0
DICTIONARY
  5
1D2
102
{ACAD_REACTORS
330
C
102
}
330
C
100
AcDbDictionary
281
     1
  0
DICTIONARY
  5
59
102
{ACAD_REACTORS
330
C
102
}
330
C
100
AcDbDictionary
281
     1
  3
Standard
350
5A
  0
DICTIONARY
  5
2A
102
{ACAD_REACTORS
330
C
102
}
330
C
100
AcDbDictionary
281
     1
  3
2dWireframe
350
2F
  3
Basic
350
32
  3
Brighten
350
36
  3
ColorChange
350
3A
  3
Conceptual
350
34
  3
Dim
350
35
  3
EdgeColorOff
350
3D
  3
Facepattern
350
39
  3
Flat
350
2B
  3
FlatWithEdges
350
2C
  3
Gouraud
350
2D
  3
GouraudWithEdges
350
2E
  3
Hidden
350
31
  3
JitterOff
350
3B
  3
Linepattern
350
38
  3
OverhangOff
350
3C
  3
Realistic
350
33
  3
Shaded
350
42
  3
Shaded with edges
350
41
  3
Shades of Gray
350
3E
  3
Sketchy
350
3F
  3
Thicken
350
37
  3
Wireframe
350
30
  3
X-Ray
350
40
  0
XRECORD
  5
1CE
102
{ACAD_REACTORS
330
C
102
}
330
C
100
AcDbXrecord
280
     1
 90
        1
330
5A
  0
DICTIONARY
  5
1CA
102
{ACAD_REACTORS
330
C
102
}
330
C
100
AcDbDictionary
281
     1
  3
CANNOSCALE
350
1CB
  3
CMLEADERSTYLE
350
1D0
  3
CTABLESTYLE
350
1CF
  0
LAYOUT
  5
1E
102
{ACAD_REACTORS
330
1A
102
}
330
1A
100
AcDbPlotSettings
  1

  2
none_device
  4

  6

 40
0.0
 41
0.0
 42
0.0
 43
0.0
 44
0.0
 45
0.0
 46
0.0
 47
0.0
 48
0.0
 49
0.0
140
0.0
141
0.0
142
1.0
143
1.0
 70
   688
 72
     0
 73
     0
 74
     5
  7

 75
    16
 76
     0
 77
     2
 78
   300
147
1.0
148
0.0
149
0.0
100
AcDbLayout
  1
Layout1
 70
     1
 71
     1
 10
0.0
 20
0.0
 11
12.0
 21
9.0
 12
0.0
 22
0.0
 32
0.0
 14
1.00000000000000E+20
 24
1.00000000000000E+20
 34
1.00000000000000E+20
 15
-1.00000000000000E+20
 25
-1.00000000000000E+20
 35
-1.00000000000000E+20
146
0.0
 13
0.0
 23
0.0
 33
0.0
 16
1.0
 26
0.0
 36
0.0
 17
0.0
 27
1.0
 37
0.0
 76
     0
330
1B
  0
LAYOUT
  5
26
102
{ACAD_REACTORS
330
1A
102
}
330
1A
100
AcDbPlotSettings
  1

  2
none_device
  4

  6

 40
0.0
 41
0.0
 42
0.0
 43
0.0
 44
0.0
 45
0.0
 46
0.0
 47
0.0
 48
0.0
 49
0.0
140
0.0
141
0.0
142
1.0
143
1.0
 70
   688
 72
     0
 73
     0
 74
     5
  7

 75
    16
 76
     0
 77
     2
 78
   300
147
1.0
148
0.0
149
0.0
100
AcDbLayout
  1
Layout2
 70
     1
 71
     2
 10
0.0
 20
0.0
 11
0.0
 21
0.0
 12
0.0
 22
0.0
 32
0.0
 14
0.0
 24
0.0
 34
0.0
 15
0.0
 25
0.0
 35
0.0
146
0.0
 13
0.0
 23
0.0
 33
0.0
 16
1.0
 26
0.0
 36
0.0
 17
0.0
 27
1.0
 37
0.0
 76
     0
330
23
  0
LAYOUT
  5
22
102
{ACAD_REACTORS
330
1A
102
}
330
1A
100
AcDbPlotSettings
  1

  2
none_device
  4
Letter_(8.50_x_11.00_Inches)
  6

 40
6.35
 41
6.35
 42
6.35000508
 43
6.35000508
 44
215.9
 45
279.4
 46
0.0
 47
0.0
 48
0.0
 49
0.0
140
0.0
141
0.0
142
1.0
143
1.0
 70
  1712
 72
     0
 73
     0
 74
     0
  7

 75
     0
 76
     0
 77
     2
 78
   300
147
1.0
148
0.0
149
0.0
100
AcDbLayout
  1
Model
 70
     1
 71
     0
 10
0.0
 20
0.0
 11
12.0
 21
9.0
 12
0.0
 22
0.0
 32
0.0
 14
-283.3909655629532
 24
-220.2322775774066
 34
0.0
 15
249.7971337247333
 25
125.69167325091
 35
0.0
146
0.0
 13
0.0
 23
0.0
 33
0.0
 16
1.0
 26
0.0
 36
0.0
 17
0.0
 27
1.0
 37
0.0
 76
     0
330
1F
331
29
  0
MATERIAL
  5
45
102
{ACAD_REACTORS
330
43
102
}
330
43
100
AcDbMaterial
  1
ByBlock
 72
     1
 94
      127
  0
MATERIAL
  5
44
102
{ACAD_REACTORS
330
43
102
}
330
43
100
AcDbMaterial
  1
ByLayer
 72
     1
 94
      127
  0
MATERIAL
  5
46
102
{ACAD_REACTORS
330
43
102
}
330
43
100
AcDbMaterial
  1
Global
 72
     1
 94
      127
  0
MLEADERSTYLE
  5
5C
102
{ACAD_REACTORS
330
5B
102
}
330
5B
100
AcDbMLeaderStyle
179
     2
170
     2
171
     1
172
     0
 90
        2
 40
0.0
 41
0.0
173
     1
 91
-1056964608
340
14
 92
       -2
290
     1
 42
0.09
291
     1
 43
0.36
  3
Standard
341
0
 44
0.18
300

342
11
174
     1
178
     6
175
     1
176
     0
 93
-1056964608
 45
0.18
292
     0
297
     0
 46
0.18
343
0
 94
-1056964608
 47
1.0
 49
1.0
140
1.0
293
     1
141
0.0
294
     1
177
     0
142
1.0
295
     0
296
     0
143
0.125
271
     0
272
     9
273
     9
298
     0
  0
MLINESTYLE
  5
18
102
{ACAD_REACTORS
330
17
102
}
330
17
100
AcDbMlineStyle
  2
Standard
 70
     0
  3

 62
   256
 51
90.0
 52
90.0
 71
     2
 49
0.5
 62
   256
  6
BYLAYER
 49
-0.5
 62
   256
  6
BYLAYER
  0
ACDBPLACEHOLDER
  5
F
102
{ACAD_REACTORS
330
E
102
}
330
E
  0
SCALE
  5
48
102
{ACAD_REACTORS
330
47
102
}
330
47
100
AcDbScale
 70
     0
300
1:1
140
1.0
141
1.0
290
     1
  0
SCALE
  5
49
102
{ACAD_REACTORS
330
47
102
}
330
47
100
AcDbScale
 70
     0
300
1/128" = 1'-0"
140
0.0078125
141
12.0
290
     0
  0
SCALE
  5
4A
102
{ACAD_REACTORS
330
47
102
}
330
47
100
AcDbScale
 70
     0
300
1/64" = 1'-0"
140
0.015625
141
12.0
290
     0
  0
SCALE
  5
4B
102
{ACAD_REACTORS
330
47
102
}
330
47
100
AcDbScale
 70
     0
300
1/32" = 1'-0"
140
0.03125
141
12.0
290
     0
  0
SCALE
  5
4C
102
{ACAD_REACTORS
330
47
102
}
330
47
100
AcDbScale
 70
     0
300
1/16" = 1'-0"
140
0.0625
141
12.0
290
     0
  0
SCALE
  5
4D
102
{ACAD_REACTORS
330
47
102
}
330
47
100
AcDbScale
 70
     0
300
3/32" = 1'-0"
140
0.09375
141
12.0
290
     0
  0
SCALE
  5
4E
102
{ACAD_REACTORS
330
47
102
}
330
47
100
AcDbScale
 70
     0
300
1/8" = 1'-0"
140
0.125
141
12.0
290
     0
  0
SCALE
  5
4F
102
{ACAD_REACTORS
330
47
102
}
330
47
100
AcDbScale
 70
     0
300
3/16" = 1'-0"
140
0.1875
141
12.0
290
     0
  0
SCALE
  5
50
102
{ACAD_REACTORS
330
47
102
}
330
47
100
AcDbScale
 70
     0
300
1/4" = 1'-0"
140
0.25
141
12.0
290
     0
  0
SCALE
  5
51
102
{ACAD_REACTORS
330
47
102
}
330
47
100
AcDbScale
 70
     0
300
3/8" = 1'-0"
140
0.375
141
12.0
290
     0
  0
SCALE
  5
52
102
{ACAD_REACTORS
330
47
102
}
330
47
100
AcDbScale
 70
     0
300
1/2" = 1'-0"
140
0.5
141
12.0
290
     0
  0
SCALE
  5
53
102
{ACAD_REACTORS
330
47
102
}
330
47
100
AcDbScale
 70
     0
300
3/4" = 1'-0"
140
0.75
141
12.0
290
     0
  0
SCALE
  5
54
102
{ACAD_REACTORS
330
47
102
}
330
47
100
AcDbScale
 70
     0
300
1" = 1'-0"
140
1.0
141
12.0
290
     0
  0
SCALE
  5
55
102
{ACAD_REACTORS
330
47
102
}
330
47
100
AcDbScale
 70
     0
300
1-1/2" = 1'-0"
140
1.5
141
12.0
290
     0
  0
SCALE
  5
56
102
{ACAD_REACTORS
330
47
102
}
330
47
100
AcDbScale
 70
     0
300
3" = 1'-0"
140
3.0
141
12.0
290
     0
  0
SCALE
  5
57
102
{ACAD_REACTORS
330
47
102
}
330
47
100
AcDbScale
 70
     0
300
6" = 1'-0"
140
6.0
141
12.0
290
     0
  0
SCALE
  5
58
102
{ACAD_REACTORS
330
47
102
}
330
47
100
AcDbScale
 70
     0
300
1'-0" = 1'-0"
140
12.0
141
12.0
290
     0
  0
TABLESTYLE
  5
5A
102
{ACAD_REACTORS
330
59
102
}
102
{ACAD_XDICTIONARY
360
1CC
102
}
330
59
100
AcDbTableStyle
  3
Standard
 70
     0
 71
     0
 40
0.06
 41
0.06
280
     0
281
     0
  7
Standard
140
0.18
170
     2
 62
     0
 63
   257
283
     0
 90
        4
 91
        0
  1

274
    -2
284
     1
 64
     0
275
    -2
285
     1
 65
     0
276
    -2
286
     1
 66
     0
277
    -2
287
     1
 67
     0
278
    -2
288
     1
 68
     0
279
    -2
289
     1
 69
     0
  7
Standard
140
0.25
170
     5
 62
     0
 63
   257
283
     0
 90
        4
 91
        0
  1

274
    -2
284
     1
 64
     0
275
    -2
285
     1
 65
     0
276
    -2
286
     1
 66
     0
277
    -2
287
     1
 67
     0
278
    -2
288
     1
 68
     0
279
    -2
289
     1
 69
     0
  7
Standard
140
0.18
170
     5
 62
     0
 63
   257
283
     0
 90
        4
 91
        0
  1

274
    -2
284
     1
 64
     0
275
    -2
285
     1
 65
     0
276
    -2
286
     1
 66
     0
277
    -2
287
     1
 67
     0
278
    -2
288
     1
 68
     0
279
    -2
289
     1
 69
     0
  0
VISUALSTYLE
  5
2F
102
{ACAD_REACTORS
330
2A
102
}
330
2A
100
AcDbVisualStyle
  2
2dWireframe
 70
     4
177
     3
291
     0
 70
    58
 90
        0
176
     1
 90
        2
176
     1
 90
        0
176
     1
 90
        0
176
     1
 40
0.6
176
     1
 40
30.0
176
     1
 62
     7
420
 16777215
176
     1
 90
        1
176
     1
 90
        4
176
     1
 62
     7
176
     1
 62
   257
176
     1
 90
        1
176
     1
 90
        1
176
     1
 40
1.0
176
     1
 90
        0
176
     1
 62
   257
176
     1
 40
1.0
176
     1
 90
        1
176
     1
 90
        6
176
     1
 90
        2
176
     1
 62
     7
176
     1
 90
        5
176
     1
 90
        0
176
     1
 90
        0
176
     1
290
     0
176
     1
 90
        1
176
     1
 40
0.0
176
     1
 90
        0
176
     1
290
     1
176
     1
290
     1
176
     1
290
     0
176
     1
290
     0
176
     1
290
     0
176
     1
290
     0
176
     1
290
     0
176
     1
290
     0
176
     1
290
     0
176
     1
 90
       50
176
     1
 40
0.0
176
     1
 40
1.0
176
     1
 90
        0
176
     1
 62
    18
420
        0
176
     1
 90
       50
176
     1
 90
        3
176
     1
 62
     5
420
      255
176
     1
290
     0
176
     1
 90
       50
176
     1
 90
       50
176
     1
 90
       50
176
     1
290
     0
176
     1
 90
       50
176
     1
 62
   256
176
     0
 40
1.0
176
     0
 90
        2
176
     1
  1
strokes_ogs.tif
176
     1
290
     0
176
     1
 40
1.0
176
     1
 40
1.0
176
     1
  0
VISUALSTYLE
  5
32
102
{ACAD_REACTORS
330
2A
102
}
330
2A
100
AcDbVisualStyle
  2
Basic
 70
     7
177
     3
291
     1
 70
    58
 90
        1
176
     1
 90
        0
176
     1
 90
        1
176
     1
 90
        0
176
     1
 40
0.6
176
     1
 40
30.0
176
     1
 62
     7
420
 16777215
176
     1
 90
        0
176
     1
 90
        4
176
     1
 62
     7
176
     1
 62
   257
176
     1
 90
        1
176
     1
 90
        1
176
     1
 40
1.0
176
     1
 90
        8
176
     1
 62
     7
176
     1
 40
1.0
176
     1
 90
        1
176
     1
 90
        6
176
     1
 90
        2
176
     1
 62
     7
176
     1
 90
        5
176
     1
 90
        0
176
     1
 90
        0
176
     1
290
     0
176
     1
 90
        1
176
     1
 40
0.0
176
     1
 90
        0
176
     1
290
     0
176
     1
290
     1
176
     1
290
     1
176
     1
290
     0
176
     1
290
     0
176
     1
290
     0
176
     1
290
     0
176
     1
290
     0
176
     1
290
     0
176
     1
 90
       50
176
     1
 40
0.0
176
     1
 40
1.0
176
     1
 90
        0
176
     1
 62
    18
420
        0
176
     1
 90
       50
176
     1
 90
        3
176
     1
 62
     5
420
      255
176
     1
290
     0
176
     1
 90
       50
176
     1
 90
       50
176
     1
 90
       50
176
     1
290
     0
176
     1
 90
       50
176
     1
 62
   256
176
     0
 40
1.0
176
     0
 90
        2
176
     1
  1
strokes_ogs.tif
176
     1
290
     0
176
     1
 40
1.0
176
     1
 40
1.0
176
     1
  0
VISUALSTYLE
  5
36
102
{ACAD_REACTORS
330
2A
102
}
330
2A
100
AcDbVisualStyle
  2
Brighten
 70
    12
177
     3
291
     1
 70
    58
 90
        2
176
     1
 90
        2
176
     1
 90
        0
176
     1
 90
        0
176
     1
 40
0.6
176
     1
 40
30.0
176
     1
 62
     7
420
 16777215
176
     1
 90
        1
176
     1
 90
        4
176
     1
 62
     7
176
     1
 62
   257
176
     1
 90
        1
176
     1
 90
        1
176
     1
 40
1.0
176
     1
 90
        8
176
     1
 62
     7
176
     1
 40
1.0
176
     1
 90
        1
176
     1
 90
        6
176
     1
 90
        2
176
     1
 62
     7
176
     1
 90
        5
176
     1
 90
        0
176
     1
 90
        0
176
     1
290
     0
176
     1
 90
        1
176
     1
 40
50.0
176
     1
 90
        0
176
     1
290
     0
176
     1
290
     1
176
     1
290
     1
176
     1
290
     0
176
     1
290
     0
176
     1
290
     0
176
     1
290
     0
176
     1
290
     0
176
     1
290
     0
176
     1
 90
       50
176
     1
 40
0.0
176
     1
 40
1.0
176
     1
 90
        0
176
     1
 62
    18
420
        0
176
     1
 90
       50
176
     1
 90
        3
176
     1
 62
     5
420
      255
176
     1
290
     0
176
     1
 90
       50
176
     1
 90
       50
176
     1
 90
       50
176
     1
290
     0
176
     1
 90
       50
176
     1
 62
   256
176
     0
 40
1.0
176
     0
 90
        2
176
     1
  1
strokes_ogs.tif
176
     1
290
     0
176
     1
 40
1.0
176
     1
 40
1.0
176
     1
  0
VISUALSTYLE
  5
3A
102
{ACAD_REACTORS
330
2A
102
}
330
2A
100
AcDbVisualStyle
  2
ColorChange
 70
    16
177
     3
291
     1
 70
    58
 90
        2
176
     1
 90
        2
176
     1
 90
        3
176
     1
 90
        0
176
     1
 40
0.6
176
     1
 40
30.0
176
     1
 62
     8
420
  8421504
176
     1
 90
        1
176
     1
 90
        4
176
     1
 62
     7
176
     1
 62
   257
176
     1
 90
        1
176
     1
 90
        1
176
     1
 40
1.0
176
     1
 90
        8
176
     1
 62
     8
420
  8421504
176
     1
 40
1.0
176
     1
 90
        1
176
     1
 90
        6
176
     1
 90
        2
176
     1
 62
     7
176
     1
 90
        5
176
     1
 90
        0
176
     1
 90
        0
176
     1
290
     0
176
     1
 90
        1
176
     1
 40
0.0
176
     1
 90
        0
176
     1
290
     0
176
     1
290
     1
176
     1
290
     1
176
     1
290
     0
176
     1
290
     0
176
     1
290
     0
176
     1
290
     0
176
     1
290
     0
176
     1
290
     0
176
     1
 90
       50
176
     1
 40
0.0
176
     1
 40
1.0
176
     1
 90
        0
176
     1
 62
    18
420
        0
176
     1
 90
       50
176
     1
 90
        3
176
     1
 62
     5
420
      255
176
     1
290
     0
176
     1
 90
       50
176
     1
 90
       50
176
     1
 90
       50
176
     1
290
     0
176
     1
 90
       50
176
     1
 62
   256
176
     0
 40
1.0
176
     0
 90
        2
176
     1
  1
strokes_ogs.tif
176
     1
290
     0
176
     1
 40
1.0
176
     1
 40
1.0
176
     1
  0
VISUALSTYLE
  5
34
102
{ACAD_REACTORS
330
2A
102
}
330
2A
100
AcDbVisualStyle
  2
Conceptual
 70
     9
177
     3
291
     0
 70
    58
 90
        3
176
     1
 90
        2
176
     1
 90
        0
176
     1
 90
        0
176
     1
 40
0.6
176
     1
 40
30.0
176
     1
 62
     7
420
 16777215
176
     1
 90
        2
176
     1
 90
        2
176
     1
 62
     7
176
     1
 62
   257
176
     1
 90
        1
176
     1
 90
        1
176
     1
 40
179.0
176
     1
 90
        8
176
     1
 62
     7
176
     1
 40
1.0
176
     1
 90
        1
176
     1
 90
        6
176
     1
 90
        2
176
     1
 62
     7
176
     1
 90
        3
176
     1
 90
        0
176
     1
 90
        0
176
     1
290
     0
176
     1
 90
        1
176
     1
 40
0.0
176
     1
 90
        0
176
     1
290
     0
176
     1
290
     1
176
     1
290
     1
176
     1
290
     0
176
     1
290
     0
176
     1
290
     0
176
     1
290
     0
176
     1
290
     0
176
     1
290
     0
176
     1
 90
       50
176
     1
 40
0.0
176
     1
 40
1.0
176
     1
 90
        0
176
     1
 62
    18
420
        0
176
     1
 90
       50
176
     1
 90
        3
176
     1
 62
     5
420
      255
176
     1
290
     0
176
     1
 90
       50
176
     1
 90
       50
176
     1
 90
       50
176
     1
290
     0
176
     1
 90
       50
176
     1
 62
   256
176
     0
 40
1.0
176
     0
 90
        2
176
     1
  1
strokes_ogs.tif
176
     1
290
     0
176
     1
 40
1.0
176
     1
 40
1.0
176
     1
  0
VISUALSTYLE
  5
35
102
{ACAD_REACTORS
330
2A
102
}
330
2A
100
AcDbVisualStyle
  2
Dim
 70
    11
177
     3
291
     1
 70
    58
 90
        2
176
     1
 90
        2
176
     1
 90
        0
176
     1
 90
        0
176
     1
 40
0.6
176
     1
 40
30.0
176
     1
 62
     7
420
 16777215
176
     1
 90
        1
176
     1
 90
        4
176
     1
 62
     7
176
     1
 62
   257
176
     1
 90
        1
176
     1
 90
        1
176
     1
 40
1.0
176
     1
 90
        8
176
     1
 62
     7
176
     1
 40
1.0
176
     1
 90
        1
176
     1
 90
        6
176
     1
 90
        2
176
     1
 62
     7
176
     1
 90
        5
176
     1
 90
        0
176
     1
 90
        0
176
     1
290
     0
176
     1
 90
        1
176
     1
 40
-50.0
176
     1
 90
        0
176
     1
290
     0
176
     1
290
     1
176
     1
290
     1
176
     1
290
     0
176
     1
290
     0
176
     1
290
     0
176
     1
290
     0
176
     1
290
     0
176
     1
290
     0
176
     1
 90
       50
176
     1
 40
0.0
176
     1
 40
1.0
176
     1
 90
        0
176
     1
 62
    18
420
        0
176
     1
 90
       50
176
     1
 90
        3
176
     1
 62
     5
420
      255
176
     1
290
     0
176
     1
 90
       50
176
     1
 90
       50
176
     1
 90
       50
176
     1
290
     0
176
     1
 90
       50
176
     1
 62
   256
176
     0
 40
1.0
176
     0
 90
        2
176
     1
  1
strokes_ogs.tif
176
     1
290
     0
176
     1
 40
1.0
176
     1
 40
1.0
176
     1
  0
VISUALSTYLE
  5
3D
102
{ACAD_REACTORS
330
2A
102
}
330
2A
100
AcDbVisualStyle
  2
EdgeColorOff
 70
    22
177
     3
291
     1
 70
    58
 90
        2
176
     0
 90
        2
176
     0
 90
        0
176
     0
 90
        0
176
     0
 40
0.6
176
     0
 40
30.0
176
     0
 62
     7
420
 16777215
176
     0
 90
        1
176
     0
 90
        4
176
     0
 62
     7
176
     0
 62
   257
176
     0
 90
        1
176
     0
 90
        1
176
     0
 40
1.0
176
     0
 90
        8
176
     2
 62
     7
176
     0
 40
1.0
176
     0
 90
        1
176
     0
 90
        6
176
     0
 90
        2
176
     0
 62
     7
176
     0
 90
        5
176
     0
 90
        0
176
     0
 90
        0
176
     0
290
     0
176
     0
 90
        1
176
     0
 40
0.0
176
     0
 90
        0
176
     0
290
     0
176
     0
290
     1
176
     0
290
     1
176
     0
290
     0
176
     0
290
     0
176
     0
290
     0
176
     0
290
     0
176
     0
290
     0
176
     0
290
     0
176
     0
 90
       50
176
     0
 40
0.0
176
     0
 40
1.0
176
     0
 90
        0
176
     0
 62
    18
420
        0
176
     0
 90
       50
176
     0
 90
        3
176
     0
 62
     5
420
      255
176
     0
290
     0
176
     0
 90
       50
176
     0
 90
       50
176
     0
 90
       50
176
     0
290
     0
176
     0
 90
       50
176
     0
 62
   256
176
     0
 40
1.0
176
     0
 90
        2
176
     0
  1
strokes_ogs.tif
176
     0
290
     0
176
     0
 40
1.0
176
     0
 40
1.0
176
     0
  0
VISUALSTYLE
  5
39
102
{ACAD_REACTORS
330
2A
102
}
330
2A
100
AcDbVisualStyle
  2
Facepattern
 70
    15
177
     3
291
     1
 70
    58
 90
        2
176
     1
 90
        2
176
     1
 90
        0
176
     1
 90
        0
176
     1
 40
0.6
176
     1
 40
30.0
176
     1
 62
     7
420
 16777215
176
     1
 90
        1
176
     1
 90
        4
176
     1
 62
     7
176
     1
 62
   257
176
     1
 90
        1
176
     1
 90
        1
176
     1
 40
1.0
176
     1
 90
        8
176
     1
 62
     7
176
     1
 40
1.0
176
     1
 90
        1
176
     1
 90
        6
176
     1
 90
        2
176
     1
 62
     7
176
     1
 90
        5
176
     1
 90
        0
176
     1
 90
        0
176
     1
290
     0
176
     1
 90
        1
176
     1
 40
0.0
176
     1
 90
        0
176
     1
290
     0
176
     1
290
     1
176
     1
290
     1
176
     1
290
     0
176
     1
290
     0
176
     1
290
     0
176
     1
290
     0
176
     1
290
     0
176
     1
290
     0
176
     1
 90
       50
176
     1
 40
0.0
176
     1
 40
1.0
176
     1
 90
        0
176
     1
 62
    18
420
        0
176
     1
 90
       50
176
     1
 90
        3
176
     1
 62
     5
420
      255
176
     1
290
     0
176
     1
 90
       50
176
     1
 90
       50
176
     1
 90
       50
176
     1
290
     0
176
     1
 90
       50
176
     1
 62
   256
176
     0
 40
1.0
176
     0
 90
        2
176
     1
  1
strokes_ogs.tif
176
     1
290
     0
176
     1
 40
1.0
176
     1
 40
1.0
176
     1
  0
VISUALSTYLE
  5
2B
102
{ACAD_REACTORS
330
2A
102
}
330
2A
100
AcDbVisualStyle
  2
Flat
 70
     0
177
     3
291
     1
 70
    58
 90
        2
176
     1
 90
        1
176
     1
 90
        1
176
     1
 90
        2
176
     1
 40
0.6
176
     1
 40
30.0
176
     1
 62
     7
420
 16777215
176
     1
 90
        0
176
     1
 90
        0
176
     1
 62
     7
176
     1
 62
   257
176
     1
 90
        1
176
     1
 90
        1
176
     1
 40
1.0
176
     1
 90
        8
176
     1
 62
     7
176
     1
 40
1.0
176
     1
 90
        1
176
     1
 90
        6
176
     1
 90
        2
176
     1
 62
     7
176
     1
 90
        5
176
     1
 90
        0
176
     1
 90
        0
176
     1
290
     0
176
     1
 90
       13
176
     1
 40
0.0
176
     1
 90
        0
176
     1
290
     0
176
     1
290
     1
176
     1
290
     1
176
     1
290
     0
176
     1
290
     0
176
     1
290
     0
176
     1
290
     0
176
     1
290
     0
176
     1
290
     0
176
     1
 90
       50
176
     1
 40
0.0
176
     1
 40
1.0
176
     1
 90
        0
176
     1
 62
    18
420
        0
176
     1
 90
       50
176
     1
 90
        3
176
     1
 62
     5
420
      255
176
     1
290
     0
176
     1
 90
       50
176
     1
 90
       50
176
     1
 90
       50
176
     1
290
     0
176
     1
 90
       50
176
     1
 62
   256
176
     0
 40
1.0
176
     0
 90
        2
176
     1
  1
strokes_ogs.tif
176
     1
290
     0
176
     1
 40
1.0
176
     1
 40
1.0
176
     1
  0
VISUALSTYLE
  5
2C
102
{ACAD_REACTORS
330
2A
102
}
330
2A
100
AcDbVisualStyle
  2
FlatWithEdges
 70
     1
177
     3
291
     1
 70
    58
 90
        2
176
     1
 90
        1
176
     1
 90
        1
176
     1
 90
        2
176
     1
 40
0.6
176
     1
 40
30.0
176
     1
 62
     7
420
 16777215
176
     1
 90
        1
176
     1
 90
        0
176
     1
 62
     7
176
     1
 62
   257
176
     1
 90
        1
176
     1
 90
        1
176
     1
 40
1.0
176
     1
 90
        0
176
     1
 62
   257
176
     1
 40
1.0
176
     1
 90
        1
176
     1
 90
        6
176
     1
 90
        2
176
     1
 62
     7
176
     1
 90
        5
176
     1
 90
        0
176
     1
 90
        0
176
     1
290
     0
176
     1
 90
       13
176
     1
 40
0.0
176
     1
 90
        0
176
     1
290
     0
176
     1
290
     1
176
     1
290
     1
176
     1
290
     0
176
     1
290
     0
176
     1
290
     0
176
     1
290
     0
176
     1
290
     0
176
     1
290
     0
176
     1
 90
       50
176
     1
 40
0.0
176
     1
 40
1.0
176
     1
 90
        0
176
     1
 62
    18
420
        0
176
     1
 90
       50
176
     1
 90
        3
176
     1
 62
     5
420
      255
176
     1
290
     0
176
     1
 90
       50
176
     1
 90
       50
176
     1
 90
       50
176
     1
290
     0
176
     1
 90
       50
176
     1
 62
   256
176
     0
 40
1.0
176
     0
 90
        2
176
     1
  1
strokes_ogs.tif
176
     1
290
     0
176
     1
 40
1.0
176
     1
 40
1.0
176
     1
  0
VISUALSTYLE
  5
2D
102
{ACAD_REACTORS
330
2A
102
}
330
2A
100
AcDbVisualStyle
  2
Gouraud
 70
     2
177
     3
291
     1
 70
    58
 90
        2
176
     1
 90
        2
176
     1
 90
        1
176
     1
 90
        2
176
     1
 40
0.6
176
     1
 40
30.0
176
     1
 62
     7
420
 16777215
176
     1
 90
        0
176
     1
 90
        0
176
     1
 62
     7
176
     1
 62
   257
176
     1
 90
        1
176
     1
 90
        1
176
     1
 40
1.0
176
     1
 90
        0
176
     1
 62
     7
176
     1
 40
1.0
176
     1
 90
        1
176
     1
 90
        6
176
     1
 90
        2
176
     1
 62
     7
176
     1
 90
        5
176
     1
 90
        0
176
     1
 90
        0
176
     1
290
     0
176
     1
 90
       13
176
     1
 40
0.0
176
     1
 90
        0
176
     1
290
     0
176
     1
290
     1
176
     1
290
     1
176
     1
290
     0
176
     1
290
     0
176
     1
290
     0
176
     1
290
     0
176
     1
290
     0
176
     1
290
     0
176
     1
 90
       50
176
     1
 40
0.0
176
     1
 40
1.0
176
     1
 90
        0
176
     1
 62
    18
420
        0
176
     1
 90
       50
176
     1
 90
        3
176
     1
 62
     5
420
      255
176
     1
290
     0
176
     1
 90
       50
176
     1
 90
       50
176
     1
 90
       50
176
     1
290
     0
176
     1
 90
       50
176
     1
 62
   256
176
     0
 40
1.0
176
     0
 90
        2
176
     1
  1
strokes_ogs.tif
176
     1
290
     0
176
     1
 40
1.0
176
     1
 40
1.0
176
     1
  0
VISUALSTYLE
  5
2E
102
{ACAD_REACTORS
330
2A
102
}
330
2A
100
AcDbVisualStyle
  2
GouraudWithEdges
 70
     3
177
     3
291
     1
 70
    58
 90
        2
176
     1
 90
        2
176
     1
 90
        1
176
     1
 90
        2
176
     1
 40
0.6
176
     1
 40
30.0
176
     1
 62
     7
420
 16777215
176
     1
 90
        1
176
     1
 90
        0
176
     1
 62
     7
176
     1
 62
   257
176
     1
 90
        1
176
     1
 90
        1
176
     1
 40
1.0
176
     1
 90
        0
176
     1
 62
   257
176
     1
 40
1.0
176
     1
 90
        1
176
     1
 90
        6
176
     1
 90
        2
176
     1
 62
     7
176
     1
 90
        5
176
     1
 90
        0
176
     1
 90
        0
176
     1
290
     0
176
     1
 90
       13
176
     1
 40
0.0
176
     1
 90
        0
176
     1
290
     0
176
     1
290
     1
176
     1
290
     1
176
     1
290
     0
176
     1
290
     0
176
     1
290
     0
176
     1
290
     0
176
     1
290
     0
176
     1
290
     0
176
     1
 90
       50
176
     1
 40
0.0
176
     1
 40
1.0
176
     1
 90
        0
176
     1
 62
    18
420
        0
176
     1
 90
       50
176
     1
 90
        3
176
     1
 62
     5
420
      255
176
     1
290
     0
176
     1
 90
       50
176
     1
 90
       50
176
     1
 90
       50
176
     1
290
     0
176
     1
 90
       50
176
     1
 62
   256
176
     0
 40
1.0
176
     0
 90
        2
176
     1
  1
strokes_ogs.tif
176
     1
290
     0
176
     1
 40
1.0
176
     1
 40
1.0
176
     1
  0
VISUALSTYLE
  5
31
102
{ACAD_REACTORS
330
2A
102
}
330
2A
100
AcDbVisualStyle
  2
Hidden
 70
     6
177
     3
291
     0
 70
    58
 90
        1
176
     1
 90
        2
176
     1
 90
        2
176
     1
 90
        0
176
     1
 40
0.6
176
     1
 40
30.0
176
     1
 62
     7
420
 16777215
176
     1
 90
        2
176
     1
 90
        2
176
     1
 62
     7
176
     1
 62
   257
176
     1
 90
        2
176
     1
 90
        1
176
     1
 40
40.0
176
     1
 90
        0
176
     1
 62
   257
176
     1
 40
1.0
176
     1
 90
        1
176
     1
 90
        6
176
     1
 90
        2
176
     1
 62
     7
176
     1
 90
        3
176
     1
 90
        0
176
     1
 90
        0
176
     1
290
     0
176
     1
 90
        1
176
     1
 40
0.0
176
     1
 90
        0
176
     1
290
     0
176
     1
290
     1
176
     1
290
     1
176
     1
290
     0
176
     1
290
     0
176
     1
290
     0
176
     1
290
     0
176
     1
290
     0
176
     1
290
     0
176
     1
 90
       50
176
     1
 40
0.0
176
     1
 40
1.0
176
     1
 90
        0
176
     1
 62
    18
420
        0
176
     1
 90
       50
176
     1
 90
        3
176
     1
 62
     5
420
      255
176
     1
290
     0
176
     1
 90
       50
176
     1
 90
       50
176
     1
 90
       50
176
     1
290
     0
176
     1
 90
       50
176
     1
 62
   256
176
     0
 40
1.0
176
     0
 90
        2
176
     1
  1
strokes_ogs.tif
176
     1
290
     0
176
     1
 40
1.0
176
     1
 40
1.0
176
     1
  0
VISUALSTYLE
  5
3B
102
{ACAD_REACTORS
330
2A
102
}
330
2A
100
AcDbVisualStyle
  2
JitterOff
 70
    20
177
     3
291
     1
 70
    58
 90
        2
176
     0
 90
        2
176
     0
 90
        0
176
     0
 90
        0
176
     0
 40
0.6
176
     0
 40
30.0
176
     0
 62
     7
420
 16777215
176
     0
 90
        1
176
     0
 90
        4
176
     0
 62
     7
176
     0
 62
   257
176
     0
 90
        1
176
     0
 90
        1
176
     0
 40
1.0
176
     0
 90
       10
176
     2
 62
     7
176
     0
 40
1.0
176
     0
 90
        1
176
     0
 90
        6
176
     0
 90
        2
176
     0
 62
     7
176
     0
 90
        5
176
     0
 90
        0
176
     0
 90
        0
176
     0
290
     0
176
     0
 90
        1
176
     0
 40
0.0
176
     0
 90
        0
176
     0
290
     0
176
     0
290
     1
176
     0
290
     1
176
     0
290
     0
176
     0
290
     0
176
     0
290
     0
176
     0
290
     0
176
     0
290
     0
176
     0
290
     0
176
     0
 90
       50
176
     0
 40
0.0
176
     0
 40
1.0
176
     0
 90
        0
176
     0
 62
    18
420
        0
176
     0
 90
       50
176
     0
 90
        3
176
     0
 62
     5
420
      255
176
     0
290
     0
176
     0
 90
       50
176
     0
 90
       50
176
     0
 90
       50
176
     0
290
     0
176
     0
 90
       50
176
     0
 62
   256
176
     0
 40
1.0
176
     0
 90
        2
176
     0
  1
strokes_ogs.tif
176
     0
290
     0
176
     0
 40
1.0
176
     0
 40
1.0
176
     0
  0
VISUALSTYLE
  5
38
102
{ACAD_REACTORS
330
2A
102
}
330
2A
100
AcDbVisualStyle
  2
Linepattern
 70
    14
177
     3
291
     1
 70
    58
 90
        2
176
     1
 90
        2
176
     1
 90
        0
176
     1
 90
        0
176
     1
 40
0.6
176
     1
 40
30.0
176
     1
 62
     7
420
 16777215
176
     1
 90
        1
176
     1
 90
        4
176
     1
 62
     7
176
     1
 62
   257
176
     1
 90
        7
176
     1
 90
        7
176
     1
 40
1.0
176
     1
 90
        8
176
     1
 62
     7
176
     1
 40
1.0
176
     1
 90
        1
176
     1
 90
        6
176
     1
 90
        2
176
     1
 62
     7
176
     1
 90
        5
176
     1
 90
        0
176
     1
 90
        0
176
     1
290
     0
176
     1
 90
        1
176
     1
 40
0.0
176
     1
 90
        0
176
     1
290
     0
176
     1
290
     1
176
     1
290
     1
176
     1
290
     0
176
     1
290
     0
176
     1
290
     0
176
     1
290
     0
176
     1
290
     0
176
     1
290
     0
176
     1
 90
       50
176
     1
 40
0.0
176
     1
 40
1.0
176
     1
 90
        0
176
     1
 62
    18
420
        0
176
     1
 90
       50
176
     1
 90
        3
176
     1
 62
     5
420
      255
176
     1
290
     0
176
     1
 90
       50
176
     1
 90
       50
176
     1
 90
       50
176
     1
290
     0
176
     1
 90
       50
176
     1
 62
   256
176
     0
 40
1.0
176
     0
 90
        2
176
     1
  1
strokes_ogs.tif
176
     1
290
     0
176
     1
 40
1.0
176
     1
 40
1.0
176
     1
  0
VISUALSTYLE
  5
3C
102
{ACAD_REACTORS
330
2A
102
}
330
2A
100
AcDbVisualStyle
  2
OverhangOff
 70
    21
177
     3
291
     1
 70
    58
 90
        2
176
     0
 90
        2
176
     0
 90
        0
176
     0
 90
        0
176
     0
 40
0.6
176
     0
 40
30.0
176
     0
 62
     7
420
 16777215
176
     0
 90
        1
176
     0
 90
        4
176
     0
 62
     7
176
     0
 62
   257
176
     0
 90
        1
176
     0
 90
        1
176
     0
 40
1.0
176
     0
 90
        9
176
     2
 62
     7
176
     0
 40
1.0
176
     0
 90
        1
176
     0
 90
        6
176
     0
 90
        2
176
     0
 62
     7
176
     0
 90
        5
176
     0
 90
        0
176
     0
 90
        0
176
     0
290
     0
176
     0
 90
        1
176
     0
 40
0.0
176
     0
 90
        0
176
     0
290
     0
176
     0
290
     1
176
     0
290
     1
176
     0
290
     0
176
     0
290
     0
176
     0
290
     0
176
     0
290
     0
176
     0
290
     0
176
     0
290
     0
176
     0
 90
       50
176
     0
 40
0.0
176
     0
 40
1.0
176
     0
 90
        0
176
     0
 62
    18
420
        0
176
     0
 90
       50
176
     0
 90
        3
176
     0
 62
     5
420
      255
176
     0
290
     0
176
     0
 90
       50
176
     0
 90
       50
176
     0
 90
       50
176
     0
290
     0
176
     0
 90
       50
176
     0
 62
   256
176
     0
 40
1.0
176
     0
 90
        2
176
     0
  1
strokes_ogs.tif
176
     0
290
     0
176
     0
 40
1.0
176
     0
 40
1.0
176
     0
  0
VISUALSTYLE
  5
33
102
{ACAD_REACTORS
330
2A
102
}
330
2A
100
AcDbVisualStyle
  2
Realistic
 70
     8
177
     3
291
     0
 70
    58
 90
        2
176
     1
 90
        3
176
     1
 90
        0
176
     1
 90
        2
176
     1
 40
0.6
176
     1
 40
30.0
176
     1
 62
     7
420
 16777215
176
     1
 90
        0
176
     1
 90
        0
176
     1
 62
     7
176
     1
 62
   257
176
     1
 90
        1
176
     1
 90
        1
176
     1
 40
1.0
176
     1
 90
        8
176
     1
 62
   257
176
     1
 40
1.0
176
     1
 90
        1
176
     1
 90
        6
176
     1
 90
        2
176
     1
 62
     7
176
     1
 90
        3
176
     1
 90
        0
176
     1
 90
        0
176
     1
290
     0
176
     1
 90
       13
176
     1
 40
0.0
176
     1
 90
        0
176
     1
290
     0
176
     1
290
     1
176
     1
290
     1
176
     1
290
     0
176
     1
290
     0
176
     1
290
     0
176
     1
290
     0
176
     1
290
     0
176
     1
290
     0
176
     1
 90
       50
176
     1
 40
0.0
176
     1
 40
1.0
176
     1
 90
        0
176
     1
 62
    18
420
        0
176
     1
 90
       50
176
     1
 90
        3
176
     1
 62
     5
420
      255
176
     1
290
     0
176
     1
 90
       50
176
     1
 90
       50
176
     1
 90
       50
176
     1
290
     0
176
     1
 90
       50
176
     1
 62
   256
176
     0
 40
1.0
176
     0
 90
        2
176
     1
  1
strokes_ogs.tif
176
     1
290
     0
176
     1
 40
1.0
176
     1
 40
1.0
176
     1
  0
VISUALSTYLE
  5
42
102
{ACAD_REACTORS
330
2A
102
}
330
2A
100
AcDbVisualStyle
  2
Shaded
 70
    27
177
     3
291
     0
 70
    58
 90
        2
176
     1
 90
        2
176
     1
 90
        1
176
     1
 90
        2
176
     1
 40
0.6
176
     1
 40
30.0
176
     1
 62
     7
420
 16777215
176
     1
 90
        0
176
     1
 90
        4
176
     1
 62
     7
176
     1
 62
   257
176
     1
 90
        1
176
     1
 90
        1
176
     1
 40
1.0
176
     1
 90
        8
176
     1
 62
   257
176
     1
 40
1.0
176
     1
 90
        1
176
     1
 90
        6
176
     1
 90
        2
176
     1
 62
     8
420
  7895160
176
     1
 90
        3
176
     1
 90
        0
176
     1
 90
        0
176
     1
290
     0
176
     1
 90
        5
176
     1
 40
0.0
176
     1
 90
        0
176
     1
290
     0
176
     1
290
     1
176
     1
290
     1
176
     1
290
     0
176
     1
290
     0
176
     1
290
     0
176
     1
290
     0
176
     1
290
     0
176
     1
290
     0
176
     1
 90
       50
176
     1
 40
0.0
176
     1
 40
1.0
176
     1
 90
        0
176
     1
 62
    18
420
        0
176
     1
 90
       50
176
     1
 90
        3
176
     1
 62
     5
420
      255
176
     1
290
     0
176
     1
 90
       50
176
     1
 90
       50
176
     1
 90
       50
176
     1
290
     0
176
     1
 90
       50
176
     1
 62
   256
176
     0
 40
1.0
176
     0
 90
        2
176
     1
  1
strokes_ogs.tif
176
     1
290
     0
176
     1
 40
1.0
176
     1
 40
1.0
176
     1
  0
VISUALSTYLE
  5
41
102
{ACAD_REACTORS
330
2A
102
}
330
2A
100
AcDbVisualStyle
  2
Shaded with edges
 70
    26
177
     3
291
     0
 70
    58
 90
        2
176
     1
 90
        2
176
     1
 90
        1
176
     1
 90
        2
176
     1
 40
0.6
176
     1
 40
30.0
176
     1
 62
     7
420
 16777215
176
     1
 90
        1
176
     1
 90
       10
176
     1
 62
     7
176
     1
 62
   257
176
     1
 90
        2
176
     1
 90
        1
176
     1
 40
1.0
176
     1
 90
        8
176
     1
 62
   257
176
     1
 40
1.0
176
     1
 90
        1
176
     1
 90
        6
176
     1
 90
        2
176
     1
 62
     7
176
     1
 90
        3
176
     1
 90
        0
176
     1
 90
        0
176
     1
290
     0
176
     1
 90
        5
176
     1
 40
0.0
176
     1
 90
        0
176
     1
290
     0
176
     1
290
     1
176
     1
290
     1
176
     1
290
     0
176
     1
290
     0
176
     1
290
     0
176
     1
290
     0
176
     1
290
     0
176
     1
290
     0
176
     1
 90
       50
176
     1
 40
0.0
176
     1
 40
1.0
176
     1
 90
        0
176
     1
 62
    18
420
        0
176
     1
 90
       50
176
     1
 90
        3
176
     1
 62
     5
420
      255
176
     1
290
     0
176
     1
 90
       50
176
     1
 90
       50
176
     1
 90
       50
176
     1
290
     0
176
     1
 90
       50
176
     1
 62
   256
176
     0
 40
1.0
176
     0
 90
        2
176
     1
  1
strokes_ogs.tif
176
     1
290
     0
176
     1
 40
1.0
176
     1
 40
1.0
176
     1
  0
VISUALSTYLE
  5
3E
102
{ACAD_REACTORS
330
2A
102
}
330
2A
100
AcDbVisualStyle
  2
Shades of Gray
 70
    23
177
     3
291
     0
 70
    58
 90
        2
176
     1
 90
        2
176
     1
 90
        3
176
     1
 90
        0
176
     1
 40
0.6
176
     1
 40
30.0
176
     1
 62
     7
420
 16777215
176
     1
 90
        2
176
     1
 90
        2
176
     1
 62
     7
176
     1
 62
     7
176
     1
 90
        1
176
     1
 90
        1
176
     1
 40
40.0
176
     1
 90
        8
176
     1
 62
     7
176
     1
 40
1.0
176
     1
 90
        1
176
     1
 90
        6
176
     1
 90
        2
176
     1
 62
     7
176
     1
 90
        3
176
     1
 90
        0
176
     1
 90
        0
176
     1
290
     0
176
     1
 90
        1
176
     1
 40
0.0
176
     1
 90
        0
176
     1
290
     0
176
     1
290
     1
176
     1
290
     1
176
     1
290
     0
176
     1
290
     0
176
     1
290
     0
176
     1
290
     0
176
     1
290
     0
176
     1
290
     0
176
     1
 90
       50
176
     1
 40
0.0
176
     1
 40
1.0
176
     1
 90
        0
176
     1
 62
    18
420
        0
176
     1
 90
       50
176
     1
 90
        3
176
     1
 62
     5
420
      255
176
     1
290
     0
176
     1
 90
       50
176
     1
 90
       50
176
     1
 90
       50
176
     1
290
     0
176
     1
 90
       50
176
     1
 62
   256
176
     0
 40
1.0
176
     0
 90
        2
176
     1
  1
strokes_ogs.tif
176
     1
290
     0
176
     1
 40
1.0
176
     1
 40
1.0
176
     1
  0
VISUALSTYLE
  5
3F
102
{ACAD_REACTORS
330
2A
102
}
330
2A
100
AcDbVisualStyle
  2
Sketchy
 70
    24
177
     3
291
     0
 70
    58
 90
        1
176
     1
 90
        2
176
     1
 90
        2
176
     1
 90
        0
176
     1
 40
0.6
176
     1
 40
30.0
176
     1
 62
     7
420
 16777215
176
     1
 90
        2
176
     1
 90
        2
176
     1
 62
     7
176
     1
 62
     7
176
     1
 90
        1
176
     1
 90
        1
176
     1
 40
40.0
176
     1
 90
       11
176
     1
 62
     7
176
     1
 40
1.0
176
     1
 90
        1
176
     1
 90
        6
176
     1
 90
        2
176
     1
 62
     7
176
     1
 90
        6
176
     1
 90
        0
176
     1
 90
        0
176
     1
290
     0
176
     1
 90
        1
176
     1
 40
0.0
176
     1
 90
        0
176
     1
290
     0
176
     1
290
     1
176
     1
290
     1
176
     1
290
     0
176
     1
290
     0
176
     1
290
     0
176
     1
290
     0
176
     1
290
     0
176
     1
290
     0
176
     1
 90
       50
176
     1
 40
0.0
176
     1
 40
1.0
176
     1
 90
        0
176
     1
 62
    18
420
        0
176
     1
 90
       50
176
     1
 90
        3
176
     1
 62
     5
420
      255
176
     1
290
     0
176
     1
 90
       50
176
     1
 90
       50
176
     1
 90
       50
176
     1
290
     0
176
     1
 90
       50
176
     1
 62
   256
176
     0
 40
1.0
176
     0
 90
        2
176
     1
  1
strokes_ogs.tif
176
     1
290
     0
176
     1
 40
1.0
176
     1
 40
1.0
176
     1
  0
VISUALSTYLE
  5
37
102
{ACAD_REACTORS
330
2A
102
}
330
2A
100
AcDbVisualStyle
  2
Thicken
 70
    13
177
     3
291
     1
 70
    58
 90
        2
176
     1
 90
        2
176
     1
 90
        0
176
     1
 90
        0
176
     1
 40
0.6
176
     1
 40
30.0
176
     1
 62
     7
420
 16777215
176
     1
 90
        1
176
     1
 90
        4
176
     1
 62
     7
176
     1
 62
   257
176
     1
 90
        1
176
     1
 90
        1
176
     1
 40
1.0
176
     1
 90
       12
176
     1
 62
     7
176
     1
 40
1.0
176
     1
 90
        1
176
     1
 90
        6
176
     1
 90
        2
176
     1
 62
     7
176
     1
 90
        5
176
     1
 90
        0
176
     1
 90
        0
176
     1
290
     0
176
     1
 90
        1
176
     1
 40
0.0
176
     1
 90
        0
176
     1
290
     0
176
     1
290
     1
176
     1
290
     1
176
     1
290
     0
176
     1
290
     0
176
     1
290
     0
176
     1
290
     0
176
     1
290
     0
176
     1
290
     0
176
     1
 90
       50
176
     1
 40
0.0
176
     1
 40
1.0
176
     1
 90
        0
176
     1
 62
    18
420
        0
176
     1
 90
       50
176
     1
 90
        3
176
     1
 62
     5
420
      255
176
     1
290
     0
176
     1
 90
       50
176
     1
 90
       50
176
     1
 90
       50
176
     1
290
     0
176
     1
 90
       50
176
     1
 62
   256
176
     0
 40
1.0
176
     0
 90
        2
176
     1
  1
strokes_ogs.tif
176
     1
290
     0
176
     1
 40
1.0
176
     1
 40
1.0
176
     1
  0
VISUALSTYLE
  5
30
102
{ACAD_REACTORS
330
2A
102
}
330
2A
100
AcDbVisualStyle
  2
Wireframe
 70
     5
177
     3
291
     0
 70
    58
 90
        0
176
     1
 90
        2
176
     1
 90
        0
176
     1
 90
        0
176
     1
 40
0.6
176
     1
 40
30.0
176
     1
 62
     7
420
 16777215
176
     1
 90
        1
176
     1
 90
        4
176
     1
 62
     7
176
     1
 62
   257
176
     1
 90
        1
176
     1
 90
        1
176
     1
 40
1.0
176
     1
 90
        0
176
     1
 62
   257
176
     1
 40
1.0
176
     1
 90
        1
176
     1
 90
        6
176
     1
 90
        2
176
     1
 62
     7
176
     1
 90
        3
176
     1
 90
        0
176
     1
 90
        0
176
     1
290
     0
176
     1
 90
        1
176
     1
 40
0.0
176
     1
 90
        0
176
     1
290
     0
176
     1
290
     1
176
     1
290
     1
176
     1
290
     0
176
     1
290
     0
176
     1
290
     0
176
     1
290
     0
176
     1
290
     0
176
     1
290
     0
176
     1
 90
       50
176
     1
 40
0.0
176
     1
 40
1.0
176
     1
 90
        0
176
     1
 62
    18
420
        0
176
     1
 90
       50
176
     1
 90
        3
176
     1
 62
     5
420
      255
176
     1
290
     0
176
     1
 90
       50
176
     1
 90
       50
176
     1
 90
       50
176
     1
290
     0
176
     1
 90
       50
176
     1
 62
   256
176
     0
 40
1.0
176
     0
 90
        2
176
     1
  1
strokes_ogs.tif
176
     1
290
     0
176
     1
 40
1.0
176
     1
 40
1.0
176
     1
  0
VISUALSTYLE
  5
40
102
{ACAD_REACTORS
330
2A
102
}
330
2A
100
AcDbVisualStyle
  2
X-Ray
 70
    25
177
     3
291
     0
 70
    58
 90
        2
176
     1
 90
        2
176
     1
 90
        1
176
     1
 90
        1
176
     1
 40
0.5
176
     1
 40
30.0
176
     1
 62
     7
420
 16777215
176
     1
 90
        1
176
     1
 90
        0
176
     1
 62
     7
176
     1
 62
   257
176
     1
 90
        1
176
     1
 90
        1
176
     1
 40
1.0
176
     1
 90
        8
176
     1
 62
     7
176
     1
 40
1.0
176
     1
 90
        1
176
     1
 90
        6
176
     1
 90
        2
176
     1
 62
     7
176
     1
 90
        3
176
     1
 90
        0
176
     1
 90
        0
176
     1
290
     0
176
     1
 90
       13
176
     1
 40
0.0
176
     1
 90
        0
176
     1
290
     0
176
     1
290
     1
176
     1
290
     1
176
     1
290
     0
176
     1
290
     0
176
     1
290
     0
176
     1
290
     0
176
     1
290
     0
176
     1
290
     0
176
     1
 90
       50
176
     1
 40
0.0
176
     1
 40
1.0
176
     1
 90
        0
176
     1
 62
    18
420
        0
176
     1
 90
       50
176
     1
 90
        3
176
     1
 62
     5
420
      255
176
     1
290
     0
176
     1
 90
       50
176
     1
 90
       50
176
     1
 90
       50
176
     1
290
     0
176
     1
 90
       50
176
     1
 62
   256
176
     0
 40
1.0
176
     0
 90
        2
176
     1
  1
strokes_ogs.tif
176
     1
290
     0
176
     1
 40
1.0
176
     1
 40
1.0
176
     1
  0
DICTIONARYVAR
  5
1CB
102
{ACAD_REACTORS
330
1CA
102
}
330
1CA
100
DictionaryVariables
280
     0
  1
1:1
  0
DICTIONARYVAR
  5
1D0
102
{ACAD_REACTORS
330
1CA
102
}
330
1CA
100
DictionaryVariables
280
     0
  1
Standard
  0
DICTIONARYVAR
  5
1CF
102
{ACAD_REACTORS
330
1CA
102
}
330
1CA
100
DictionaryVariables
280
     0
  1
Standard
  0
DICTIONARY
  5
1CC
330
5A
100
AcDbDictionary
280
     1
281
     1
  3
ACAD_ROUNDTRIP_2008_TABLESTYLE_CELLSTYLEMAP
360
1CD
  0
CELLSTYLEMAP
  5
1CD
102
{ACAD_REACTORS
330
1CC
102
}
330
1CC
100
AcDbCellStyleMap
 90
        3
300
CELLSTYLE
  1
TABLEFORMAT_BEGIN
 90
        5
170
     1
 91
        0
 92
    32768
 62
   257
 93
        1
300
CONTENTFORMAT
  1
CONTENTFORMAT_BEGIN
 90
        0
 91
        0
 92
        4
 93
        0
300

 40
0.0
140
1.0
 94
        5
 62
     0
340
11
144
0.25
309
CONTENTFORMAT_END
171
     1
301
MARGIN
  1
CELLMARGIN_BEGIN
 40
0.06
 40
0.06
 40
0.06
 40
0.06
 40
0.06
 40
0.06
309
CELLMARGIN_END
 94
        6
 95
        1
302
GRIDFORMAT
  1
GRIDFORMAT_BEGIN
 90
        0
 91
        1
 62
     0
 92
       -2
340
14
 93
        0
 40
0.045
309
GRIDFORMAT_END
 95
        2
302
GRIDFORMAT
  1
GRIDFORMAT_BEGIN
 90
        0
 91
        1
 62
     0
 92
       -2
340
14
 93
        0
 40
0.045
309
GRIDFORMAT_END
 95
        4
302
GRIDFORMAT
  1
GRIDFORMAT_BEGIN
 90
        0
 91
        1
 62
     0
 92
       -2
340
14
 93
        0
 40
0.045
309
GRIDFORMAT_END
 95
        8
302
GRIDFORMAT
  1
GRIDFORMAT_BEGIN
 90
        0
 91
        1
 62
     0
 92
       -2
340
14
 93
        0
 40
0.045
309
GRIDFORMAT_END
 95
       16
302
GRIDFORMAT
  1
GRIDFORMAT_BEGIN
 90
        0
 91
        1
 62
     0
 92
       -2
340
14
 93
        0
 40
0.045
309
GRIDFORMAT_END
 95
       32
302
GRIDFORMAT
  1
GRIDFORMAT_BEGIN
 90
        0
 91
        1
 62
     0
 92
       -2
340
14
 93
        0
 40
0.045
309
GRIDFORMAT_END
309
TABLEFORMAT_END
  1
CELLSTYLE_BEGIN
 90
        1
 91
        1
300
_TITLE
309
CELLSTYLE_END
300
CELLSTYLE
  1
TABLEFORMAT_BEGIN
 90
        5
170
     1
 91
        0
 92
        0
 62
   257
 93
        1
300
CONTENTFORMAT
  1
CONTENTFORMAT_BEGIN
 90
        0
 91
        0
 92
        4
 93
        0
300

 40
0.0
140
1.0
 94
        5
 62
     0
340
11
144
0.18
309
CONTENTFORMAT_END
171
     1
301
MARGIN
  1
CELLMARGIN_BEGIN
 40
0.06
 40
0.06
 40
0.06
 40
0.06
 40
0.06
 40
0.06
309
CELLMARGIN_END
 94
        6
 95
        1
302
GRIDFORMAT
  1
GRIDFORMAT_BEGIN
 90
        0
 91
        1
 62
     0
 92
       -2
340
14
 93
        0
 40
0.045
309
GRIDFORMAT_END
 95
        2
302
GRIDFORMAT
  1
GRIDFORMAT_BEGIN
 90
        0
 91
        1
 62
     0
 92
       -2
340
14
 93
        0
 40
0.045
309
GRIDFORMAT_END
 95
        4
302
GRIDFORMAT
  1
GRIDFORMAT_BEGIN
 90
        0
 91
        1
 62
     0
 92
       -2
340
14
 93
        0
 40
0.045
309
GRIDFORMAT_END
 95
        8
302
GRIDFORMAT
  1
GRIDFORMAT_BEGIN
 90
        0
 91
        1
 62
     0
 92
       -2
340
14
 93
        0
 40
0.045
309
GRIDFORMAT_END
 95
       16
302
GRIDFORMAT
  1
GRIDFORMAT_BEGIN
 90
        0
 91
        1
 62
     0
 92
       -2
340
14
 93
        0
 40
0.045
309
GRIDFORMAT_END
 95
       32
302
GRIDFORMAT
  1
GRIDFORMAT_BEGIN
 90
        0
 91
        1
 62
     0
 92
       -2
340
14
 93
        0
 40
0.045
309
GRIDFORMAT_END
309
TABLEFORMAT_END
  1
CELLSTYLE_BEGIN
 90
        2
 91
        1
300
_HEADER
309
CELLSTYLE_END
300
CELLSTYLE
  1
TABLEFORMAT_BEGIN
 90
        5
170
     1
 91
        0
 92
        0
 62
   257
 93
        1
300
CONTENTFORMAT
  1
CONTENTFORMAT_BEGIN
 90
        0
 91
        0
 92
        4
 93
        0
300

 40
0.0
140
1.0
 94
        2
 62
     0
340
11
144
0.18
309
CONTENTFORMAT_END
171
     1
301
MARGIN
  1
CELLMARGIN_BEGIN
 40
0.06
 40
0.06
 40
0.06
 40
0.06
 40
0.06
 40
0.06
309
CELLMARGIN_END
 94
        6
 95
        1
302
GRIDFORMAT
  1
GRIDFORMAT_BEGIN
 90
        0
 91
        1
 62
     0
 92
       -2
340
14
 93
        0
 40
0.045
309
GRIDFORMAT_END
 95
        2
302
GRIDFORMAT
  1
GRIDFORMAT_BEGIN
 90
        0
 91
        1
 62
     0
 92
       -2
340
14
 93
        0
 40
0.045
309
GRIDFORMAT_END
 95
        4
302
GRIDFORMAT
  1
GRIDFORMAT_BEGIN
 90
        0
 91
        1
 62
     0
 92
       -2
340
14
 93
        0
 40
0.045
309
GRIDFORMAT_END
 95
        8
302
GRIDFORMAT
  1
GRIDFORMAT_BEGIN
 90
        0
 91
        1
 62
     0
 92
       -2
340
14
 93
        0
 40
0.045
309
GRIDFORMAT_END
 95
       16
302
GRIDFORMAT
  1
GRIDFORMAT_BEGIN
 90
        0
 91
        1
 62
     0
 92
       -2
340
14
 93
        0
 40
0.045
309
GRIDFORMAT_END
 95
       32
302
GRIDFORMAT
  1
GRIDFORMAT_BEGIN
 90
        0
 91
        1
 62
     0
 92
       -2
340
14
 93
        0
 40
0.045
309
GRIDFORMAT_END
309
TABLEFORMAT_END
  1
CELLSTYLE_BEGIN
 90
        3
 91
        2
300
_DATA
309
CELLSTYLE_END
  0
ENDSEC
  0
EOF
